Человек паук возвращение домой 1080 torrent


Скачать торрент Человек-паук: Возвращение домой / Spider-Man: Homecoming (2017) BDRemux 1080p от ExKinoRay

Информация о фильмеНазвание: Человек-паук: Возвращение домойОригинальное название: Spider-Man: HomecomingГод выхода: 2017Жанр: Фантастика, боевик, приключенияРежиссер: Джон УоттсВ ролях: Том Холланд (II), Роберт Дауни мл., Майкл Китон, Мариса Томей, Джон Фавро, Джейкоб Баталон, Зендея, Лора Хэрриер, Тони Револори, Дональд Гловер

О фильме:После исторической встречи с командой Мстителей Питер Паркер возвращается домой, стараясь зажить обычной жизнью под опекой своей тёти Мэй. Но теперь за Питером приглядывает ещё кое-что… Тони Старк видел Человека-Паука в деле и должен стать его наставником. Когда новый злодей Стервятник угрожает уничтожить всё, что дорого Питеру, приходит время доказать всем, что такое настоящий супергерой.

Страна: СШАСтудия: Columbia Pictures, Marvel Studios Inc., Pascal PicturesПродолжительность: 02:13:27Перевод: Дублированный | iTunes

ФайлКачество: BDRemux 1080pВидео: MPEG-4 AVC, 1920x1080, 24.9 Mbit/s, 23.976 fpsЗвук: Аудио #01: 48 kHz, AC3, 5.1, 384 Kbps | Дублированный | iTunes | RUS |Аудио #02: 48 kHz, DTS-HD MA, 5.1, 2342 Kbps | Оригинал | ENG |Субтитры: Русские (forced, full), английские

MI

General Unique ID : 186557723701521636128518356406012576545 (0x8C59B5ECB8F3280E8C476D291FED8321) Complete name : F:Spider.Man.Homecoming.2017.D.BDREMUX.1080p.ExKinoRay.mkv Format : Matroska Format version : Version 4 / Version 2 File size : 25.8 GiB Duration : 2 h 13 min Overall bit rate mode : Variable Overall bit rate : 27.7 Mb/s Encoded date : UTC 2017-10-05 18:50:14 Writing application : mkvmerge v16.0.0 ('Protest') 64-bit Writing library : libebml v1.3.5 + libmatroska v1.4.8

Video ID : 1 Format : AVC Format/Info : Advanced Video Codec Format profile : [email protected] Format settings : CABAC / 2 Ref Frames Format settings, CABAC : Yes Format settings, RefFrames : 2 frames Format settings, GOP : M=1, N=10 Codec ID : V_MPEG4/ISO/AVC Duration : 2 h 13 min Bit rate mode : Variable Bit rate : 24.9 Mb/s Width : 1 920 pixels Height : 1 080 pixels Display aspect ratio : 16:9 Frame rate mode : Constant Frame rate : 23.976 (24000/1001) FPS Color space : YUV Chroma subsampling : 4:2:0 Bit depth : 8 bits Scan type : Progressive Bits/(Pixel*Frame) : 0.502 Stream size : 23.2 GiB (90%) Language : English Default : Yes Forced : No

Audio #1 ID : 2 Format : AC-3 Format/Info : Audio Coding 3 Format settings, Endianness : Big Codec ID : A_AC3 Duration : 2 h 13 min Bit rate mode : Constant Bit rate : 384 kb/s Channel(s) : 6 channels Channel positions : Front: L C R, Side: L R, LFE Sampling rate : 48.0 kHz Frame rate : 31.250 FPS (1536 SPF) Bit depth : 16 bits Compression mode : Lossy Stream size : 367 MiB (1%) Title : iTunes Language : Russian Service kind : Complete Main Default : Yes Forced : No

Audio #2 ID : 3 Format : DTS Format/Info : Digital Theater Systems Format profile : MA / Core Mode : 16 Format settings, Endianness : Big Codec ID : A_DTS Duration : 2 h 13 min Bit rate mode : Variable / Constant Bit rate : 2 342 kb/s / 1 509 kb/s Channel(s) : 6 channels Channel positions : Front: L C R, Side: L R, LFE Sampling rate : 48.0 kHz Frame rate : 93.750 FPS (512 SPF) Bit depth : 16 bits Compression mode : Lossless / Lossy Stream size : 2.18 GiB (8%) Title : Original Language : English Default : No Forced : No

Text #1 ID : 4 Format : UTF-8 Codec ID : S_TEXT/UTF8 Codec ID/Info : UTF-8 Plain Text Duration : 2 h 9 min Bit rate : 0 b/s Count of elements : 17 Stream size : 825 Bytes (0%) Title : Forced [iTunes] Language : Russian Default : Yes Forced : No

Text #2 ID : 5 Format : UTF-8 Codec ID : S_TEXT/UTF8 Codec ID/Info : UTF-8 Plain Text Duration : 2 h 12 min Bit rate : 104 b/s Count of elements : 1825 Stream size : 102 KiB (0%) Title : Full [iTunes] Language : Russian Default : No Forced : No

Text #3 ID : 6 Format : UTF-8 Codec ID : S_TEXT/UTF8 Codec ID/Info : UTF-8 Plain Text Duration : 5 s 130 ms Bit rate : 79 b/s Count of elements : 2 Stream size : 51.0 Bytes (0%) Title : Forced [iTunes] Language : English Default : No Forced : No

Text #4 ID : 7 Format : UTF-8 Codec ID : S_TEXT/UTF8 Codec ID/Info : UTF-8 Plain Text Duration : 2 h 12 min Bit rate : 64 b/s Count of elements : 1790 Stream size : 62.3 KiB (0%) Title : Full [iTunes] Language : English Default : No Forced : No

Menu 00:00:00.000 : en:Chapter 1 00:00:48.798 : en:Chapter 2 00:01:28.046 : en:Chapter 3 00:02:03.164 : en:Chapter 4 00:02:26.646 : en:Chapter 5 00:05:35.001 : en:Chapter 6 00:06:03.446 : en:Chapter 7 00:06:29.305 : en:Chapter 8 00:08:58.120 : en:Chapter 9 00:10:57.698 : en:Chapter 10 00:12:25.870 : en:Chapter 11 00:13:49.119 : en:Chapter 12 00:17:48.108 : en:Chapter 13 00:20:50.749 : en:Chapter 14 00:21:22.072 : en:Chapter 15 00:22:00.986 : en:Chapter 16 00:24:23.587 : en:Chapter 17 00:25:52.133 : en:Chapter 18 00:26:44.519 : en:Chapter 19 00:28:12.941 : en:Chapter 20 00:29:11.708 : en:Chapter 21 00:32:25.276 : en:Chapter 22 00:33:03.231 : en:Chapter 23 00:34:14.343 : en:Chapter 24 00:34:35.198 : en:Chapter 25 00:37:10.895 : en:Chapter 26 00:38:13.833 : en:Chapter 27 00:40:53.242 : en:Chapter 28 00:41:52.218 : en:Chapter 29 00:45:03.033 : en:Chapter 30 00:46:25.324 : en:Chapter 31 00:48:24.484 : en:Chapter 32 00:51:06.313 : en:Chapter 33 00:52:41.366 : en:Chapter 34 00:55:30.285 : en:Chapter 35 00:58:41.559 : en:Chapter 36 00:59:33.611 : en:Chapter 37 01:00:02.390 : en:Chapter 38 01:00:15.445 : en:Chapter 39 01:00:29.792 : en:Chapter 40 01:00:56.235 : en:Chapter 41 01:01:19.342 : en:Chapter 42 01:03:25.551 : en:Chapter 43 01:05:08.279 : en:Chapter 44 01:06:21.978 : en:Chapter 45 01:06:47.086 : en:Chapter 46 01:07:23.289 : en:Chapter 47 01:10:11.040 : en:Chapter 48 01:11:20.776 : en:Chapter 49 01:12:53.285 : en:Chapter 50 01:14:51.987 : en:Chapter 51 01:15:45.832 : en:Chapter 52 01:16:56.320 : en:Chapter 53 01:18:42.092 : en:Chapter 54 01:19:12.247 : en:Chapter 55 01:20:22.234 : en:Chapter 56 01:21:00.730 : en:Chapter 57 01:23:33.758 : en:Chapter 58 01:27:21.319 : en:Chapter 59 01:28:49.949 : en:Chapter 60 01:32:38.219 : en:Chapter 61 01:33:23.723 : en:Chapter 62 01:34:00.092 : en:Chapter 63 01:35:21.006 : en:Chapter 64 01:36:48.886 : en:Chapter 65 01:38:46.295 : en:Chapter 66 01:40:48.000 : en:Chapter 67 01:42:08.122 : en:Chapter 68 01:43:39.838 : en:Chapter 69 01:45:07.050 : en:Chapter 70 01:46:23.835 : en:Chapter 71 01:47:19.182 : en:Chapter 72 01:48:07.522 : en:Chapter 73 01:49:07.207 : en:Chapter 74 01:50:14.733 : en:Chapter 75 01:52:24.654 : en:Chapter 76 01:54:01.251 : en:Chapter 77 01:56:02.038 : en:Chapter 78 01:58:04.077 : en:Chapter 79 01:59:28.870 : en:Chapter 80 02:00:14.624 : en:Chapter 81 02:01:11.973 : en:Chapter 82 02:02:21.917 : en:Chapter 83

Релиз от: Автор релиза: Подпишись на меня, кликни по картинке > :

mrutor.org

Скачать торрент Человек-паук: Возвращение домой / Spider-Man: Homecoming (2017) BDRip 1080p от Ash61 | 3D-Video | halfOU

Человек-паук: Возвращение домойSpider-Man: Homecoming«Домашние дела подождут, город - нет.»Год выпуска: 2017Страна: США (Columbia Pictures, Marvel Studios)Жанр: Фантастика, Боевик, ПриключенияПродолжительность: 02:13:28

Перевод: Профессиональный дублированный - iTunes

Режиссер: Джон Уоттс / Jon Watts

Роли исполняли (дублировали):

.....

Peter Parker / Spider-Man - Том Холланд (Иван Чабан) Tony Stark / Iron Man - Роберт Дауни мл. (Владимир Зайцев) Adrian Toomes / Vulture - Майкл Китон (Валерий Кухарешин) May Parker - Мариса Томей (Елена Ивасишина) Happy Hogan - Джон Фавро (Александр Новиков) Ned - Джейкоб Баталон (Филипп Лебедев) Michelle - Зендея (Анна Киселёва) Liz - Лора Хэрриер (Варвара Чабан) Flash - Тони Револори (Антон Колесников) Aaron Davis - Дональд Гловер (Сергей Смирнов) Pepper Potts - Гвинет Пэлтроу (Полина Щербакова) Herman Schultz / Shocker #2 - Боким Вудбайн (Илья Исаев) ..... Jackson Brice / Shocker #1 - Логан Маршалл-Грин (Александр Хошабаев) Karen / Suit Lady (озвучка) - Дженнифер Коннелли (Ингеборга Дапкунайте) Gary - Стэн Ли Steve Rogers / Captain America - Крис Эванс (Даниил Эльдаров)

Описание: После исторической встречи с командой Мстителей Питер Паркер возвращается домой, стараясь зажить обычной жизнью под опекой своей тёти Мэй. Но теперь за Питером приглядывает ещё кое-что… Тони Старк видел Человека-Паука в деле и должен стать его наставником. Когда новый злодей Стервятник угрожает уничтожить всё, что дорого Питеру, приходит время доказать всем, что такое настоящий супергерой.Доп. инфо: В украинской дороге iTunes был непереведённый отрезок - 00:51:02 - 01:05:08. Здесь этот участок заменён на участок украинской дороги Line (моно). Спасибо Hurtom!

Знаете ли вы, что...

  • Во время промо-тура своего нового фильма «Как я теперь люблю» (2013) в 2013 году на вопрос журналиста, в каком следующем проекте он хотел бы участвовать, Том Холланд ответил: «Что-нибудь с экшном и юмором». На встречный вопрос, хотел бы он сыграть супергероя, актер ответил: «Может быть Человека-паука, лет через десять. В ребуте ребута, если они надумают перезапускать франшизу».
  • По словам Винсента Д’Онофрио, ему было бы интересно появиться в этом фильме в своей роли Уилсона Фиска / Кингпина из сериала «Сорвиголова» (2015). Кингпин является одним из общих для обеих франшиз злодеев и выступал противником Человека-паука во многих историях про этого супергероя.
  • Дж. К. Симмонс ранее проявлял интерес к возвращению к роли Джея Джоны Джеймсона (которую он исполнял в трилогии Сэма Рэйми и сериале «Великий Человек-паук» (2012)). Однако разговоры об этом сразу прекратились, когда его взяли на роль Комиссара Гордона в «Лиге справедливости: Часть 1» (2017).
  • Брайан Крэнстон проявлял интерес к исполнению роли злодея из вселенной Marvel, особенно Нормана Озборна / Зеленого гоблина. Интерес к этой роли также выражал Мэттью МакКонахи.
  • Режиссер подтвердил, что в фильме Питеру Паркеру около 15 лет.
  • Том Холланд – второй британский актер после Эндрю Гарфилда, изображающий Человека-паука – американского супергероя.
  • Непосредственная съемка фильма началась 20 июня 2016 года в Атланте, штат Джорджия под рабочим названием Summer of George («Лето Джорджа»).
  • 19-летний Том Холланд – самый молодой актер, играющий Питера Паркера / Человека-паука. Тоби Магуайру и Эндрю Гарфилду было 25 и 26 лет соответственно, когда они были взяты на роль этого супергероя.
  • Шорт-лист кандидатов на роль Питера Паркера / Человека-паука выглядел следующим образом: Эйса Баттерфилд, Нат Вулф, Тимоти Чаламет, Том Холланд и Лиам Джеймс.
  • Первый фильм о Человеке-пауке, где спецэффекты для образа главного героя созданы не какой-либо фирмой, аффилированной с правоообладателем компанией Sony, а компанией Industrial Light & Magic. Эта компания часто отвечает за спецэффекты в фильмах кинематографической вселенной Marvel.
  • Одно время считалось, что фильм будет снимать режиссёр картины «Хижина в лесу» (2012) Дрю Годдард. В апреле 2014 года было объявлено, что Годдард станет режиссёром и автором сценария фильма «Зловещая шестерка» для франшизы «Удивительный Человек-паук». Годдарда даже включили в шорт-лист кандидатов на съёмки фильма «Человек-паук: Возвращение домой», однако режиссёром всё-таки стал Джон Уоттс.
  • Согласно условиям контракта с производителем Marvel Studios и Sony Pictures Entertainment, Кевин Файги за работу исполнительным продюсером фильма не получит ничего.
  • Это не первый фильм кинематографической вселенной Marvel, в работе над которым участвует Мартин Старр. Он уже сыграл компьютерщика в фильме Луи Летерье «Невероятный Халк» (2008), главную роль в котором исполнил Эдвард Нортон.
  • Киллиан Мёрфи выражал заинтересованность в роли злодея в этом фильме, так как ему понравилось работать с Томом Холландом в картине «В сердце моря».
  • Чендлер Риггз известный по сериалу «Ходячие мертвецы» пробовался на роль Человека-Паука.
  • После выхода в прокат фильма Сэма Рэйми «Человек-паук 3: Враг в отражении» (2007) компания Sony задумалась о съёмках четвёртого фильма. Роль главного героя в нём должен был играть Тоби Магуайр, а роль антагониста Стервятника — Джон Малкович. Малкович уже приступил к подготовке к съёмкам, когда проект отменили. Было объявлено о перезагрузке франшизы фильмом Марка Уэбба «Новый Человек-паук» с Эндрю Гарфилдом в главной роли. Картина вышла на экраны в 2012 году.
  • Стервятник стал четвёртым членом оригинальной Зловещей шестёрки, появившимся в фильмах о Человеке-пауке. В фильмах Сэма Рэйми «Человек-паук 2» (2004) и «Человек-паук 3: Враг в отражении» (2007) главному герою противостояли соответственно доктор Осьминог и Песочный человек. В фильме «Новый Человек-паук: Высокое напряжение» (Марк Уэбб, 2014) герой сражался с Электро. В Зловещую шестёрку также входят Мистерио и Крэйвен-охотник.
  • Первый фильм о Человеке-пауке, в котором за спиной главного героя можно увидеть знаменитые крылья из паутины, как в комиксах.
  • Школа, в которой учится Питер Паркер, была основана в 1962 году. Это отсылка к первому появлению Человека-паука в комиксах, которое произошло в 1962 году в августовском выпуске серии Amazing Fantasy.
  • На роль любимой девушки главного героя рассматривали актрис Джейн Леви и Каю Скоделарио.
  • Большая часть сюжета разворачивается на Манхэттене в Нью-Йорке, однако фильм снимали, в основном, в Атланте, штат Джорджия. Съёмки некоторых эпизодов прошли в Германии и в самом Нью-Йорке.

    Осторожно, следующий факт содержит спойлер!

    В школе, где учится Питер Паркер, можно увидеть портреты Говарда Старка (отца Железного человека), Авраама Эрскина (создателя сыворотки супер-солдат, которой обязан своим существованием Капитан Америка) и Брюса Беннера (Халка).
  • Премьера: 28 июня 2017 (6 июля 2017)Релиз на Blu-Ray (DVD) (Россия): 11 октября 2017Бюджет: $175 000 000Кассовые сборы: $877 471 790

    .

    Качество: BDRip (by Ash61)Контейнер: MKVФормат 3D: Half OverUnder / Вертикальная анаморфная стереопараПорядок ракурсов: левый ракурс первыйВидео: AVC / 1920х1080p / 23,976 fps / 9 200 kb/s

    Аудио:#1 - Русский / AC3 / 48 KHz / 5.1 ch / 384 Kbps (Дубляж - iTunes)#2 - Украинский / AC3 / 48 KHz / 2 ch / 192 Kbps (Дубляж - iTunes) (со вставкой с Line [моно]) (cпасибо Hurtom!)#3 - Английский / AC3 / 48 KHz / 5.1 ch / 640 Kbps (Original - BD 3D)

    Субтитры (SRT):Вшитые (softsub):#1 - Русские Форсированные [вер. Ash61] (включены по умолчанию)#2 - Русские Полные#3 - Украинские Форсированные [вер. Ash61]#4 - Украинские Полные#5 - English Forced#6 - English Full#7 - English SDH

    Внешние (UTF-8):#1 - Русские Форсированные [вер. Ash61] (включены по умолчанию)#2 - Русские Полные#3 - Украинские Форсированные [вер. Ash61]

    MediaInfo

    General Unique ID : 232772736669183055319292772675386371662 (0xAF1E65FC276B725295E671BB3D546E4E) Complete name : D:Spider-Man.Homecoming(2017)3D-halfOU(Ash61)iTunesSpider-Man.Homecoming(2017)3D-halfOU(Ash61)iTunes.mkv Format : Matroska Format version : Version 2 File size : 9.71 GiB Duration : 2 h 13 min Overall bit rate : 10.4 Mb/s Movie name : Человек-паук: Возвращение домой / Spider-Man: Homecoming (2017) в 3Д Encoded date : UTC 2017-10-08 06:46:39 Writing application : mkvmerge v5.8.0 ('No Sleep / Pillow') built on Sep 2 2012 15:37:04 Writing library : libebml v1.2.3 + libmatroska v1.3.0

    Video ID : 1 Format : AVC Format/Info : Advanced Video Codec Format profile : [email protected] Format settings, CABAC : Yes Format settings, RefFrames : 4 frames Codec ID : V_MPEG4/ISO/AVC Duration : 2 h 13 min Bit rate : 9 200 kb/s Width : 1 920 pixels Height : 1 080 pixels Display aspect ratio : 16:9 Frame rate mode : Constant Frame rate : 23.976 (24000/1001) FPS Color space : YUV Chroma subsampling : 4:2:0 Bit depth : 8 bits Scan type : Progressive Bits/(Pixel*Frame) : 0.185 Stream size : 8.38 GiB (86%) Title : BDRip by Ash61 Writing library : x264 core 146 r2538 121396c Encoding settings : cabac=1 / ref=4 / deblock=1:-3:-3 / analyse=0x3:0x113 / me=umh / subme=10 / psy=1 / psy_rd=1.00:0.00 / mixed_ref=1 / me_range=32 / chroma_me=1 / trellis=2 / 8x8dct=1 / cqm=0 / deadzone=21,11 / fast_pskip=0 / chroma_qp_offset=-2 / threads=12 / lookahead_threads=2 / sliced_threads=0 / nr=0 / decimate=0 / interlaced=0 / bluray_compat=0 / constrained_intra=0 / bframes=8 / b_pyramid=2 / b_adapt=2 / b_bias=0 / direct=3 / weightb=1 / open_gop=0 / weightp=2 / keyint=250 / keyint_min=23 / scenecut=40 / intra_refresh=0 / rc=2pass / mbtree=0 / bitrate=9200 / ratetol=1.0 / qcomp=0.70 / qpmin=0 / qpmax=69 / qpstep=4 / cplxblur=20.0 / qblur=0.5 / frame-packing=4 / ip_ratio=1.40 / pb_ratio=1.30 / aq=1:0.70 Language : English Default : Yes Forced : No

    Audio #1 ID : 2 Format : AC-3 Format/Info : Audio Coding 3 Format settings, Endianness : Big Codec ID : A_AC3 Duration : 2 h 13 min Bit rate mode : Constant Bit rate : 384 kb/s Channel(s) : 6 channels Channel positions : Front: L C R, Side: L R, LFE Sampling rate : 48.0 kHz Frame rate : 31.250 FPS (1536 SPF) Bit depth : 16 bits Compression mode : Lossy Stream size : 367 MiB (4%) Title : Дубляж - iTunes Language : Russian Service kind : Complete Main Default : Yes Forced : No

    Audio #2 ID : 3 Format : AC-3 Format/Info : Audio Coding 3 Format settings, Endianness : Big Codec ID : A_AC3 Duration : 2 h 13 min Bit rate mode : Constant Bit rate : 192 kb/s Channel(s) : 2 channels Channel positions : Front: L R Sampling rate : 48.0 kHz Frame rate : 31.250 FPS (1536 SPF) Bit depth : 16 bits Compression mode : Lossy Stream size : 183 MiB (2%) Title : Дубляж - iTunes (со вставкой Line [моно]) Language : Ukrainian Service kind : Complete Main Default : No Forced : No

    Audio #3 ID : 4 Format : AC-3 Format/Info : Audio Coding 3 Format settings, Endianness : Big Codec ID : A_AC3 Duration : 2 h 13 min Bit rate mode : Constant Bit rate : 640 kb/s Channel(s) : 6 channels Channel positions : Front: L C R, Side: L R, LFE Sampling rate : 48.0 kHz Frame rate : 31.250 FPS (1536 SPF) Bit depth : 16 bits Compression mode : Lossy Stream size : 611 MiB (6%) Title : Original Language : English Service kind : Complete Main Default : No Forced : No

    Text #1 ID : 5 Format : UTF-8 Codec ID : S_TEXT/UTF8 Codec ID/Info : UTF-8 Plain Text Title : Форсированные (вер. Ash61) Language : Russian Default : Yes Forced : No

    Text #2 ID : 6 Format : UTF-8 Codec ID : S_TEXT/UTF8 Codec ID/Info : UTF-8 Plain Text Title : Полные Language : Russian Default : No Forced : No

    Text #3 ID : 7 Format : UTF-8 Codec ID : S_TEXT/UTF8 Codec ID/Info : UTF-8 Plain Text Title : Форсированные (вер. Ash61) Language : Ukrainian Default : No Forced : No

    Text #4 ID : 8 Format : UTF-8 Codec ID : S_TEXT/UTF8 Codec ID/Info : UTF-8 Plain Text Title : Полные Language : Ukrainian Default : No Forced : No

    Text #5 ID : 9 Format : UTF-8 Codec ID : S_TEXT/UTF8 Codec ID/Info : UTF-8 Plain Text Title : Forced Language : English Default : No Forced : No

    Text #6 ID : 10 Format : UTF-8 Codec ID : S_TEXT/UTF8 Codec ID/Info : UTF-8 Plain Text Title : Full Language : English Default : No Forced : No

    Text #7 ID : 11 Format : UTF-8 Codec ID : S_TEXT/UTF8 Codec ID/Info : UTF-8 Plain Text Title : SDH Language : English Default : No Forced : No

    Menu 00:00:00.000 : :1 00:05:34.082 : :2 00:14:24.279 : :3 00:20:50.999 : :4 00:26:19.243 : :5 00:36:27.976 : :6 00:46:03.927 : :7 00:54:40.193 : :8 01:05:10.280 : :9 01:12:03.277 : :10 01:20:20.189 : :11 01:29:41.542 : :12 01:36:56.894 : :13 01:44:44.152 : :14 01:50:31.248 : :15 01:57:53.565 : :16

    Каталог фильмов, выходивших в 3Д, со ссылками (вер. 27.09.2017)О форматах и методах просмотра 3D

    mrutor.org

    Скачать торрент Человек-паук: Возвращение домой / Spider-Man: Homecoming (2017) BDRemux 1080p от ExKinoRay

    Информация о фильмеНазвание: Человек-паук: Возвращение домойОригинальное название: Spider-Man: HomecomingГод выхода: 2017Жанр: Фантастика, боевик, приключенияРежиссер: Джон УоттсВ ролях: Том Холланд (II), Роберт Дауни мл., Майкл Китон, Мариса Томей, Джон Фавро, Джейкоб Баталон, Зендея, Лора Хэрриер, Тони Револори, Дональд Гловер

    О фильме:После исторической встречи с командой Мстителей Питер Паркер возвращается домой, стараясь зажить обычной жизнью под опекой своей тёти Мэй. Но теперь за Питером приглядывает ещё кое-что… Тони Старк видел Человека-Паука в деле и должен стать его наставником. Когда новый злодей Стервятник угрожает уничтожить всё, что дорого Питеру, приходит время доказать всем, что такое настоящий супергерой.

    Страна: СШАСтудия: Columbia Pictures, Marvel Studios Inc., Pascal PicturesПродолжительность: 02:13:27Перевод: Дублированный | iTunes

    ФайлКачество: BDRemux 1080pВидео: MPEG-4 AVC, 1920x1080, 24.9 Mbit/s, 23.976 fpsЗвук: Аудио #01: 48 kHz, AC3, 5.1, 384 Kbps | Дублированный | iTunes | RUS |Аудио #02: 48 kHz, DTS-HD MA, 5.1, 2342 Kbps | Оригинал | ENG |Субтитры: Русские (forced, full), английские

    MI

    General Unique ID : 186557723701521636128518356406012576545 (0x8C59B5ECB8F3280E8C476D291FED8321) Complete name : F:Spider.Man.Homecoming.2017.D.BDREMUX.1080p.ExKinoRay.mkv Format : Matroska Format version : Version 4 / Version 2 File size : 25.8 GiB Duration : 2 h 13 min Overall bit rate mode : Variable Overall bit rate : 27.7 Mb/s Encoded date : UTC 2017-10-05 18:50:14 Writing application : mkvmerge v16.0.0 ('Protest') 64-bit Writing library : libebml v1.3.5 + libmatroska v1.4.8

    Video ID : 1 Format : AVC Format/Info : Advanced Video Codec Format profile : [email protected] Format settings : CABAC / 2 Ref Frames Format settings, CABAC : Yes Format settings, RefFrames : 2 frames Format settings, GOP : M=1, N=10 Codec ID : V_MPEG4/ISO/AVC Duration : 2 h 13 min Bit rate mode : Variable Bit rate : 24.9 Mb/s Width : 1 920 pixels Height : 1 080 pixels Display aspect ratio : 16:9 Frame rate mode : Constant Frame rate : 23.976 (24000/1001) FPS Color space : YUV Chroma subsampling : 4:2:0 Bit depth : 8 bits Scan type : Progressive Bits/(Pixel*Frame) : 0.502 Stream size : 23.2 GiB (90%) Language : English Default : Yes Forced : No

    Audio #1 ID : 2 Format : AC-3 Format/Info : Audio Coding 3 Format settings, Endianness : Big Codec ID : A_AC3 Duration : 2 h 13 min Bit rate mode : Constant Bit rate : 384 kb/s Channel(s) : 6 channels Channel positions : Front: L C R, Side: L R, LFE Sampling rate : 48.0 kHz Frame rate : 31.250 FPS (1536 SPF) Bit depth : 16 bits Compression mode : Lossy Stream size : 367 MiB (1%) Title : iTunes Language : Russian Service kind : Complete Main Default : Yes Forced : No

    Audio #2 ID : 3 Format : DTS Format/Info : Digital Theater Systems Format profile : MA / Core Mode : 16 Format settings, Endianness : Big Codec ID : A_DTS Duration : 2 h 13 min Bit rate mode : Variable / Constant Bit rate : 2 342 kb/s / 1 509 kb/s Channel(s) : 6 channels Channel positions : Front: L C R, Side: L R, LFE Sampling rate : 48.0 kHz Frame rate : 93.750 FPS (512 SPF) Bit depth : 16 bits Compression mode : Lossless / Lossy Stream size : 2.18 GiB (8%) Title : Original Language : English Default : No Forced : No

    Text #1 ID : 4 Format : UTF-8 Codec ID : S_TEXT/UTF8 Codec ID/Info : UTF-8 Plain Text Duration : 2 h 9 min Bit rate : 0 b/s Count of elements : 17 Stream size : 825 Bytes (0%) Title : Forced [iTunes] Language : Russian Default : Yes Forced : No

    Text #2 ID : 5 Format : UTF-8 Codec ID : S_TEXT/UTF8 Codec ID/Info : UTF-8 Plain Text Duration : 2 h 12 min Bit rate : 104 b/s Count of elements : 1825 Stream size : 102 KiB (0%) Title : Full [iTunes] Language : Russian Default : No Forced : No

    Text #3 ID : 6 Format : UTF-8 Codec ID : S_TEXT/UTF8 Codec ID/Info : UTF-8 Plain Text Duration : 5 s 130 ms Bit rate : 79 b/s Count of elements : 2 Stream size : 51.0 Bytes (0%) Title : Forced [iTunes] Language : English Default : No Forced : No

    Text #4 ID : 7 Format : UTF-8 Codec ID : S_TEXT/UTF8 Codec ID/Info : UTF-8 Plain Text Duration : 2 h 12 min Bit rate : 64 b/s Count of elements : 1790 Stream size : 62.3 KiB (0%) Title : Full [iTunes] Language : English Default : No Forced : No

    Menu 00:00:00.000 : en:Chapter 1 00:00:48.798 : en:Chapter 2 00:01:28.046 : en:Chapter 3 00:02:03.164 : en:Chapter 4 00:02:26.646 : en:Chapter 5 00:05:35.001 : en:Chapter 6 00:06:03.446 : en:Chapter 7 00:06:29.305 : en:Chapter 8 00:08:58.120 : en:Chapter 9 00:10:57.698 : en:Chapter 10 00:12:25.870 : en:Chapter 11 00:13:49.119 : en:Chapter 12 00:17:48.108 : en:Chapter 13 00:20:50.749 : en:Chapter 14 00:21:22.072 : en:Chapter 15 00:22:00.986 : en:Chapter 16 00:24:23.587 : en:Chapter 17 00:25:52.133 : en:Chapter 18 00:26:44.519 : en:Chapter 19 00:28:12.941 : en:Chapter 20 00:29:11.708 : en:Chapter 21 00:32:25.276 : en:Chapter 22 00:33:03.231 : en:Chapter 23 00:34:14.343 : en:Chapter 24 00:34:35.198 : en:Chapter 25 00:37:10.895 : en:Chapter 26 00:38:13.833 : en:Chapter 27 00:40:53.242 : en:Chapter 28 00:41:52.218 : en:Chapter 29 00:45:03.033 : en:Chapter 30 00:46:25.324 : en:Chapter 31 00:48:24.484 : en:Chapter 32 00:51:06.313 : en:Chapter 33 00:52:41.366 : en:Chapter 34 00:55:30.285 : en:Chapter 35 00:58:41.559 : en:Chapter 36 00:59:33.611 : en:Chapter 37 01:00:02.390 : en:Chapter 38 01:00:15.445 : en:Chapter 39 01:00:29.792 : en:Chapter 40 01:00:56.235 : en:Chapter 41 01:01:19.342 : en:Chapter 42 01:03:25.551 : en:Chapter 43 01:05:08.279 : en:Chapter 44 01:06:21.978 : en:Chapter 45 01:06:47.086 : en:Chapter 46 01:07:23.289 : en:Chapter 47 01:10:11.040 : en:Chapter 48 01:11:20.776 : en:Chapter 49 01:12:53.285 : en:Chapter 50 01:14:51.987 : en:Chapter 51 01:15:45.832 : en:Chapter 52 01:16:56.320 : en:Chapter 53 01:18:42.092 : en:Chapter 54 01:19:12.247 : en:Chapter 55 01:20:22.234 : en:Chapter 56 01:21:00.730 : en:Chapter 57 01:23:33.758 : en:Chapter 58 01:27:21.319 : en:Chapter 59 01:28:49.949 : en:Chapter 60 01:32:38.219 : en:Chapter 61 01:33:23.723 : en:Chapter 62 01:34:00.092 : en:Chapter 63 01:35:21.006 : en:Chapter 64 01:36:48.886 : en:Chapter 65 01:38:46.295 : en:Chapter 66 01:40:48.000 : en:Chapter 67 01:42:08.122 : en:Chapter 68 01:43:39.838 : en:Chapter 69 01:45:07.050 : en:Chapter 70 01:46:23.835 : en:Chapter 71 01:47:19.182 : en:Chapter 72 01:48:07.522 : en:Chapter 73 01:49:07.207 : en:Chapter 74 01:50:14.733 : en:Chapter 75 01:52:24.654 : en:Chapter 76 01:54:01.251 : en:Chapter 77 01:56:02.038 : en:Chapter 78 01:58:04.077 : en:Chapter 79 01:59:28.870 : en:Chapter 80 02:00:14.624 : en:Chapter 81 02:01:11.973 : en:Chapter 82 02:02:21.917 : en:Chapter 83

    Релиз от: Автор релиза: Подпишись на меня, кликни по картинке > :

    krutor.org

    Скачать торрент Человек-паук: Возвращение домой / Spider-Man: Homecoming (2017) BDRip 1080p от ExKinoRay

    Информация о фильмеНазвание: Человек-паук: Возвращение домойОригинальное название: Spider-Man: HomecomingГод выхода: 2017Жанр: Фантастика, боевик, приключенияРежиссер: Джон УоттсВ ролях: Том Холланд (II), Роберт Дауни мл., Майкл Китон, Мариса Томей, Джон Фавро, Джейкоб Баталон, Зендея, Лора Хэрриер, Тони Револори, Дональд Гловер

    О фильме:После исторической встречи с командой Мстителей Питер Паркер возвращается домой, стараясь зажить обычной жизнью под опекой своей тёти Мэй. Но теперь за Питером приглядывает ещё кое-что… Тони Старк видел Человека-Паука в деле и должен стать его наставником. Когда новый злодей Стервятник угрожает уничтожить всё, что дорого Питеру, приходит время доказать всем, что такое настоящий супергерой.

    Страна: СШАСтудия: Columbia Pictures, Marvel Studios Inc., Pascal PicturesПродолжительность: 02:13:27Перевод: Дублированный | iTunes

    ФайлКачество: BDRip 1080pВидео: MPEG-4 AVC, 1920x800, 10.0 Mbit/s, 23.976 fpsЗвук: Аудио #01: 48 kHz, AC3, 5.1, 384 Kbps | Дублированный | iTunes | RUS |Аудио #02: 48 kHz, DTS, 5.1, 1510 Kbps | Оригинал | ENG |Субтитры: Русские (forced, full), английские

    MI

    General Unique ID : 243474579949995020337646038171651320871 (0xB72B7F989A3FFDBCA77BCD239EC2AC27) Complete name : F:Spider.Man.Homecoming.2017.BDRip.1080p.ExKinoRay.mkv Format : Matroska Format version : Version 4 / Version 2 File size : 10.9 GiB Duration : 2 h 13 min Overall bit rate : 11.7 Mb/s Encoded date : UTC 2017-10-03 19:57:50 Writing application : mkvmerge v16.0.0 ('Protest') 64-bit Writing library : libebml v1.3.5 + libmatroska v1.4.8

    Video ID : 1 Format : AVC Format/Info : Advanced Video Codec Format profile : [email protected] Format settings : CABAC / 4 Ref Frames Format settings, CABAC : Yes Format settings, RefFrames : 4 frames Codec ID : V_MPEG4/ISO/AVC Duration : 2 h 13 min Bit rate : 10 000 kb/s Width : 1 920 pixels Height : 800 pixels Display aspect ratio : 2.40:1 Frame rate mode : Constant Frame rate : 23.976 (24000/1001) FPS Color space : YUV Chroma subsampling : 4:2:0 Bit depth : 8 bits Scan type : Progressive Bits/(Pixel*Frame) : 0.272 Stream size : 9.17 GiB (84%) Writing library : x264 core 149 r2771+45 509cceb 7mod [[email protected] X86_64] Encoding settings : cabac=1 / ref=4 / deblock=1:-1:-1 / analyse=0x3:0x133 / me=umh / subme=11 / psy=1 / fade_compensate=0.00 / psy_rd=0.95:0.10 / mixed_ref=1 / me_range=48 / chroma_me=1 / trellis=2 / 8x8dct=1 / cqm=0 / deadzone=21,11 / fast_pskip=0 / chroma_qp_offset=-4 / threads=12 / lookahead_threads=2 / sliced_threads=0 / nr=0 / decimate=1 / interlaced=0 / bluray_compat=0 / constrained_intra=0 / fgo=0 / bframes=9 / b_pyramid=2 / b_adapt=2 / b_bias=0 / direct=3 / weightb=1 / open_gop=0 / weightp=2 / keyint=250 / keyint_min=23 / scenecut=40 / intra_refresh=0 / rc_lookahead=30 / rc=2pass / mbtree=0 / bitrate=10000 / ratetol=1.0 / qcomp=0.70 / qpmin=0:0:0 / qpmax=69:69:69 / qpstep=4 / cplxblur=20.0 / qblur=0.5 / vbv_maxrate=35000 / vbv_bufsize=35000 / nal_hrd=none / filler=0 / ip_ratio=1.40 / pb_ratio=1.30 / aq=3:1.00 / aq-sensitivity=10.00 / aq-factor=1.00:1.00:1.00 / aq2=0 / aq3=2:[0.50:0.50]:[0.50:0.50]:[0.50:0.50]:[0.50:0.50] / aq3-sensitivity=10.00 / aq3-factor=[1.00:1.00]:[1.00:1.00]:[1.00:1.00] / aq3-boundary=192:64:24 Language : English Default : Yes Forced : No

    Audio #1 ID : 2 Format : AC-3 Format/Info : Audio Coding 3 Format settings, Endianness : Big Codec ID : A_AC3 Duration : 2 h 13 min Bit rate mode : Constant Bit rate : 384 kb/s Channel(s) : 6 channels Channel positions : Front: L C R, Side: L R, LFE Sampling rate : 48.0 kHz Frame rate : 31.250 FPS (1536 SPF) Bit depth : 16 bits Compression mode : Lossy Stream size : 367 MiB (3%) Title : iTunes Language : Russian Service kind : Complete Main Default : Yes Forced : No

    Audio #2 ID : 3 Format : DTS Format/Info : Digital Theater Systems Mode : 16 Format settings, Endianness : Big Codec ID : A_DTS Duration : 2 h 13 min Bit rate mode : Constant Bit rate : 1 509 kb/s Channel(s) : 6 channels Channel positions : Front: L C R, Side: L R, LFE Sampling rate : 48.0 kHz Frame rate : 93.750 FPS (512 SPF) Bit depth : 24 bits Compression mode : Lossy Stream size : 1.41 GiB (13%) Title : Original Language : English Default : No Forced : No

    Text #1 ID : 4 Format : UTF-8 Codec ID : S_TEXT/UTF8 Codec ID/Info : UTF-8 Plain Text Duration : 2 h 9 min Bit rate : 0 b/s Count of elements : 17 Stream size : 825 Bytes (0%) Title : Forced [iTunes] Language : Russian Default : Yes Forced : No

    Text #2 ID : 5 Format : UTF-8 Codec ID : S_TEXT/UTF8 Codec ID/Info : UTF-8 Plain Text Duration : 2 h 12 min Bit rate : 104 b/s Count of elements : 1825 Stream size : 102 KiB (0%) Title : Full [iTunes] Language : Russian Default : No Forced : No

    Text #3 ID : 6 Format : UTF-8 Codec ID : S_TEXT/UTF8 Codec ID/Info : UTF-8 Plain Text Duration : 5 s 130 ms Bit rate : 79 b/s Count of elements : 2 Stream size : 51.0 Bytes (0%) Title : Forced [iTunes] Language : English Default : No Forced : No

    Text #4 ID : 7 Format : UTF-8 Codec ID : S_TEXT/UTF8 Codec ID/Info : UTF-8 Plain Text Duration : 2 h 12 min Bit rate : 64 b/s Count of elements : 1790 Stream size : 62.3 KiB (0%) Title : Full [iTunes] Language : English Default : No Forced : No

    Menu 00:00:00.000 : en:1 00:05:33.083 : en:2 00:14:23.279 : en:3 00:20:49.999 : en:4 00:26:18.243 : en:5 00:36:26.976 : en:6 00:46:02.926 : en:7 00:54:39.192 : en:8 01:05:09.280 : en:9 01:12:02.276 : en:10 01:20:19.189 : en:11 01:29:40.542 : en:12 01:36:55.894 : en:13 01:44:43.152 : en:14 01:50:30.249 : en:15 01:57:52.566 : en:16

    Релиз от: Автор релиза: Подпишись на меня, кликни по картинке > :

    mrutor.org

    Скачать торрент Человек-паук: Возвращение домой / Spider-Man: Homecoming (2017) WEB-DL 1080p

    John Carter 04-Окт-2017 22:10 (18 дней назад) Оценил на: 2 Честно сказать этот персонаж меня давно выбесивал, а сейчас вообще, комикс-герой, явно созданный для подросков, в топку это всё, минус Марвеллу! nightrider 03-Окт-2017 23:50 (19 дней назад) Оценил на: 1 неимоверный бред Yasralnavashibany 02-Окт-2017 20:35 (20 дней назад) ЦитатаКто-то писал:немного напрягает что школьники вырастают, герои с каждой частью меняются и все начинается по новому. в целом ничего свежего и удивительного в очередном творении франшизыНе поверишь, но это касается АБСОЛЮТНО всего на свете. Поколение проходит, приходит следующее - и делает и переживает то же самое, что поколение до него. Потом и оно проходит, приходит еще одно ему на смену - и все по новой. И так бесконечно. Пушистый 02-Окт-2017 08:00 (20 дней назад) по мне муть конечно, как и почти все эти марловские шедевры, хотя чет его усиленно хвалили. и эта нарисованная графика давно никаких эмоций не вызывает. OAOOpezdol 01-Окт-2017 12:00 (21 день назад) Оценил на: 6 На мой взгляд фильм откровенно рассчитан на детей и подростков, более старшим поколениям он будет куда как менее интересен, если интересен вообще. А так типичный подростковый кинчик: незамысловатый сюжетец, стандартизированный ГГ - ни такой как все, гиканутый друг ГГ, любовные переживания к девушке, которая, ВНЕЗАПНО, знает, что она ему нравится, выбор между долгом и отношениями и куча прочего. Ничего особенного и выдающегося. Как обычно куча вопросов к сюжету,ну, судя по последним выходящим фильмам, это уже норма. Больше всего мне не понравились две вещи. Первая это графонистый Человек-паук, особенно это бросается в начале фильма, когда тот бежит по дворам и крышам. Быть может когда-то и настанет момент, что будет невозможно отличить графику от реальной съемки, но пока этого нет. И вторая претензия к нашему дубляжу. Эту кому пришло в голову подобрать под костюм Паучка голос с акцентом? Серьезно? Не знаю кому как, а лично мне слух просто резало. Devijack 30-Сен-2017 01:45 (23 дня назад) немного напрягает что школьники вырастают, герои с каждой частью меняются и все начинается по новому. в целом ничего свежего и удивительного в очередном творении франшизы но убить вечер смело можно. M_a_k_s_i_m 29-Сен-2017 23:30 (23 дня назад) Оценил на: 10 Самый нелепый фильм во всей марвеловселенной. Оценка релизеру) Оператор тела 29-Сен-2017 20:20 (23 дня назад) Оценил на: 5 уныленькое балабольство...девочка мечты - афро, вокруг азиаты с латиносами...как страшно жить в таком комиксе :) Oleg D 29-Сен-2017 20:00 (23 дня назад) Оценил на: 2 Вспоминая древние фильмы с Магвайером, понимаю какой же он хороший драматический актер по сравнению с современными Спидерманами. Что касается мулатки и прочих инородцев - надо быть гуманнее - не всем же повезло родится великороссами. xxTyleRxx 29-Сен-2017 12:01 (23 дня назад) Что вы девку Питера так напали. Во первых она мулатка а не черная. Во вторых, по мне так она даже слишком хороша для него, выглядит не очень правдоподобно что она с ним постоянно общается, явно не хватает парней по-интереснее Питера которые общаются с ней. А вот новая девка которую видимо многие упустили из виду, как раз под стать Питеру, которая назвалась в конце ЭмДжей, тоесть Мэри Джейн, и она латино ))) Johnny15555 29-Сен-2017 08:25 (23 дня назад) Прочитал все комменты, увидел пишут, что фильм для детей......я не поверил как всегда.......сам посмотрел, действительно - диалоги детские, что-то напомнило мультсериал "Совершенный( Великий ) Человек-паук" - но мультсериал гораздо интереснее вышел, хоть и он для детишек. Фильм на 1 раз. Пойдёт для ознакомления, и для того, чтобы уже в следующих Мстителях знать что было до них. Ну а за раздачу конечно 10. Вот только после титров 40 минутные доп. материалы без звука, да и не так уж и охота было их смотреть. Anonymou5 29-Сен-2017 01:20 (24 дня назад) Kampbell и saya, почистил ваши комментарии, адресованы друг ко другу. Продолжать, надеюсь, не будете  saya 29-Сен-2017 00:35 (24 дня назад) Тебе хоть на пиво хватает то что тебе платят за твои тупые коменты? Кремлебот goodwin_78 28-Сен-2017 23:30 (24 дня назад) Оценил на: 10 После Мумии и Трансформеров... эта часть человека паука кажется шедевром кинематографа Shevanton 28-Сен-2017 23:05 (24 дня назад) Оценил на: 10 Интересный фильм, но возлюбленная П.Паркера - это просто жесть... МадиМал 28-Сен-2017 23:05 (24 дня назад) Как мне это развидеть ??????? По сравнению с этим фильмом "ЧП.Высокое напряжение" просто шедевр! ZVM89 28-Сен-2017 22:45 (24 дня назад) Странно что он влюбляется в чернокожую девочку. Вот если бы в чернокожего мальчика это было бы современно! stranger8 28-Сен-2017 22:35 (24 дня назад) То что ЧП сделали раздражающим школьником понятно. Решили сделать фильм в духе глуповатых сериалов для подростков, с школьниками в главной роли. Но почему они сделали его таким слабаком? Он реально без умного костюма Старка просто жалок. Да даже с ним не намного лучше. Dj_Men 28-Сен-2017 20:11 (24 дня назад) Mrak2, вообще-то сборы нового паучка больше чем 1 и 2 части Сэма Рэйми, только 3 часть собрала 890 млн (хоть её почему-то считают провальной), для своего времени та трилогия была хороша. Мне вообще все фильмы про паучка нравится. deacon104 28-Сен-2017 19:35 (24 дня назад) Оценил на: 5 Бонусы не воспроизвелись, после титров завис комп. Первый раз такое, что то не то с рипом! Суслик Маклауд 28-Сен-2017 19:10 (24 дня назад) Не слушайте *редисок*. Отличный фильм, на порядок лучше прошлых частей, хотя и они были весьма хороши. Рейтинги и сборы вам подскажут, смотреть, или нет, хотя всё равно бесплатно же. pattern 28-Сен-2017 17:40 (24 дня назад) Пресный фильм.  dan-ser1994 28-Сен-2017 15:25 (24 дня назад) Жаль что у бонусов нет русской озвучки( AeeooN 28-Сен-2017 14:51 (24 дня назад) Оценил на: 1 убого, тупо, дешево... obb.07 28-Сен-2017 13:55 (24 дня назад) Оценил на: 3 С каждой серией человек-паук всё моложе. Скоро станет грудничком,а потом будет фильм "человек-паук Начало", где он будет нигером... sergey007008 28-Сен-2017 13:35 (24 дня назад) Оценил на: 10  venskayoker 28-Сен-2017 13:00 (24 дня назад) Оценил на: 5 Ну конечно же,Паркер влюбляется в темнокожую,а как-же без толерантности.Странно,что весь набор не добавили.Главный герой должен страдать неизлечимой болезнью,либо его ближайший родственник.Синдром Дауна,болезнь Альцгеймера или аллергию на всё возможное.Лучший друг главного персонажа обязательно должен быть геем.И если в фильме не будет произнесена фраза-"it's impossible...",то разрушатся все каноны жизни в Америке.Кинцо не зашло. jin92rus 28-Сен-2017 12:15 (24 дня назад)  Martian-182 28-Сен-2017 11:35 (24 дня назад) Бонус работает, если переключить озвучку на оригинал.  Mr. Drax 28-Сен-2017 11:11 (24 дня назад) Оценил на: 10 чет для WEB-DL ки много весит )) ШТОПОР 28-Сен-2017 11:11 (24 дня назад) Оценил на: 5 На 0:51:17 пропадает украинская звуковая дорожка и появляется на 01:05:26 Bilboard 28-Сен-2017 11:11 (24 дня назад) перестал смотреть эту хрень после того как ушел Тоби Магуайер Method1990 28-Сен-2017 01:20 (25 дней назад) Оценил на: 10 Спасибо :) komruter 28-Сен-2017 01:05 (25 дней назад) Оценил на: 5 А будет рип без чёрных полос? Чарующий_тапок 28-Сен-2017 01:05 (25 дней назад) Оценил на: 1 Супер-толерантный фильм, из белых только человек паук и его враг, остальные все негры и индусы. Фильм отвратный. Dj_Men 28-Сен-2017 00:20 (25 дней назад) VaZGeN, там нет Мэри Джейн, это совсем другая девчонка. alexey828 28-Сен-2017 00:05 (25 дней назад) Оценил на: 10 Качество такое хорошее,что можно даже и не ждать BD. Исходник с Amazon'а просто шикарен. Спасибо! space 27-Сен-2017 23:45 (25 дней назад)  Antony-torz 27-Сен-2017 23:42 (25 дней назад) Оценил на: 10 Дата релиза на DVD/Blu-Ray: 17 Октября 2017 gedie 27-Сен-2017 23:30 (25 дней назад) Зачем рендерить с черными полосами? Вы же понимаете, что это бессмысленно? Sepochka76 27-Сен-2017 23:30 (25 дней назад) Оценил на: 10 на торрент-геймс 5 гигов 1080 весит) rorshash 27-Сен-2017 23:20 (25 дней назад) MediaInfo не открывается Ведро Укропа 27-Сен-2017 23:20 (25 дней назад) Амазон вроде как почётче, спасибо, забрал! pattern 27-Сен-2017 23:11 (25 дней назад) Какой-то ситком. Смуглые подруги и Флэш. Спецэффекты не ахти. 

    Файлы для обмена предоставлены пользователями сайта. Администрация не несёт ответственности за их содержание. На сервере хранятся только торрент-файлы. Это значит, что мы не храним никаких нелегальных материалов, а так же материалов охраняемых авторским правом.

    zitor.org

    Скачать торрент Человек-паук: Возвращение домой / Spider-Man: Homecoming (2017) BDRip-HEVC 1080p от HEVC CLUB

    General Unique ID : 248738010043183112078307794751217495274 (0xBB2132BC3FA55B3E8F0F1093FF846CEA) Complete name : d:HEVCSpider Man Homecoming (2017)Spider.Man.Homecoming.2017.iTunes.1080p_HEVCCLUB.mkv Format : Matroska Format version : Version 4 / Version 2 File size : 3.95 GiB Duration : 2 h 13 min Overall bit rate : 4 232 kb/s Movie name : Spider-Man: Homecoming (2017) - HEVC.CLUB Encoded date : UTC 2017-10-07 06:33:08 Writing application : mkvmerge v16.0.0 ('Protest') 64-bit Writing library : libebml v1.3.5 + libmatroska v1.4.8 Cover : Yes Attachments : Cover.jpg

    Video ID : 1 Format : HEVC Format/Info : High Efficiency Video Coding Format profile : Main [email protected]@High Codec ID : V_MPEGH/ISO/HEVC Duration : 2 h 13 min Bit rate : 3 388 kb/s Width : 1 920 pixels Height : 804 pixels Display aspect ratio : 2.40:1 Frame rate mode : Constant Frame rate : 23.976 (24000/1001) FPS Color space : YUV Chroma subsampling : 4:2:0 Bit depth : 10 bits Bits/(Pixel*Frame) : 0.092 Stream size : 3.16 GiB (80%) Title : HEVC.CLUB Writing library : x265 2.5+20-0967d0add97e:[Windows][GCC 7.2.0][64 bit] 10bit Encoding settings : cpuid=1173503 / frame-threads=3 / numa-pools=8 / wpp / pmode / no-pme / no-psnr / ssim / log-level=2 / input-csp=1 / input-res=1920x804 / interlace=0 / total-frames=0 / level-idc=41 / high-tier=1 / uhd-bd=0 / ref=6 / no-allow-non-conformance / repeat-headers / annexb / no-aud / no-hrd / info / hash=0 / no-temporal-layers / open-gop / min-keyint=23 / keyint=250 / bframes=10 / b-adapt=2 / b-pyramid / bframe-bias=0 / rc-lookahead=60 / lookahead-slices=1 / scenecut=40 / no-intra-refresh / ctu=64 / min-cu-size=8 / no-rect / no-amp / max-tu-size=32 / tu-inter-depth=3 / tu-intra-depth=3 / limit-tu=0 / rdoq-level=1 / dynamic-rd=2.00 / no-ssim-rd / signhide / no-tskip / nr-intra=0 / nr-inter=0 / no-constrained-intra / no-strong-intra-smoothing / max-merge=2 / limit-refs=0 / no-limit-modes / me=1 / subme=7 / merange=64 / temporal-mvp / weightp / weightb / no-analyze-src-pics / deblock=-3:-3 / no-sao / no-sao-non-deblock / rd=4 / no-early-skip / no-rskip / no-fast-intra / no-tskip-fast / no-cu-lossless / no-b-intra / no-splitrd-skip / rdpenalty=0 / psy-rd=1.75 / psy-rdoq=2.50 / no-rd-refine / analysis-reuse-mode=0 / no-lossless / cbqpoffs=0 / crqpoffs=0 / rc=crf / crf=22.0 / qcomp=0.80 / qpstep=6 / stats-write=0 / stats-read=0 / vbv-maxrate=50000 / vbv-bufsize=50000 / vbv-init=0.9 / crf-max=0.0 / crf-min=0.0 / ipratio=1.50 / pbratio=1.00 / aq-mode=1 / aq-strength=0.20 / no-cutree / zone-count=0 / no-strict-cbr / qg-size=32 / no-rc-grain / qpmax=69 / qpmin=0 / no-const-vbv / sar=1 / overscan=0 / videoformat=5 / range=0 / colorprim=2 / transfer=2 / colormatrix=2 / chromaloc=0 / display-window=0 / max-cll=0,0 / min-luma=0 / max-luma=1023 / log2-max-poc-lsb=8 / vui-timing-info / vui-hrd-info / slices=1 / opt-qp-pps / opt-ref-list-length-pps / no-multi-pass-opt-rps / scenecut-bias=0.05 / no-opt-cu-delta-qp / aq-motion / no-hdr / no-hdr-opt / no-dhdr10-opt / analysis-reuse-level=5 / scale-factor=0 / refine-intra=0 / refine-inter=0 / refine-mv=0 / no-limit-sao / ctu-info=0 Default : Yes Forced : Yes

    Audio #1 ID : 2 Format : AC-3 Format/Info : Audio Coding 3 Format settings, Endianness : Big Codec ID : A_AC3 Duration : 2 h 13 min Bit rate mode : Constant Bit rate : 384 kb/s Channel(s) : 6 channels Channel positions : Front: L C R, Side: L R, LFE Sampling rate : 48.0 kHz Frame rate : 31.250 FPS (1536 SPF) Bit depth : 16 bits Compression mode : Lossy Stream size : 367 MiB (9%) Title : Dub [iTunes] Language : Russian Service kind : Complete Main Default : Yes Forced : No

    Audio #2 ID : 3 Format : AAC Format/Info : Advanced Audio Codec Format profile : LC Codec ID : A_AAC-2 Duration : 2 h 13 min Bit rate : 125 kb/s Channel(s) : 2 channels Channel positions : Front: L R Sampling rate : 44.1 kHz Frame rate : 43.066 FPS (1024 SPF) Compression mode : Lossy Stream size : 119 MiB (3%) Title : Dub [iTunes] Language : Ukrainian Default : No Forced : No

    Audio #3 ID : 4 Format : AC-3 Format/Info : Audio Coding 3 Format settings, Endianness : Big Codec ID : A_AC3 Duration : 1 h 9 min Bit rate mode : Constant Bit rate : 640 kb/s Channel(s) : 6 channels Channel positions : Front: L C R, Side: L R, LFE Sampling rate : 48.0 kHz Frame rate : 31.250 FPS (1536 SPF) Bit depth : 16 bits Compression mode : Lossy Stream size : 320 MiB (8%) Title : Original Language : English Service kind : Complete Main Default : No Forced : No

    Text #1 ID : 5 Format : UTF-8 Codec ID : S_TEXT/UTF8 Codec ID/Info : UTF-8 Plain Text Duration : 2 h 12 min Bit rate : 104 b/s Count of elements : 1825 Stream size : 102 KiB (0%) Title : Full-length Language : Russian Default : No Forced : No

    Text #2 ID : 6 Format : UTF-8 Codec ID : S_TEXT/UTF8 Codec ID/Info : UTF-8 Plain Text Duration : 2 h 12 min Bit rate : 94 b/s Count of elements : 1821 Stream size : 92.2 KiB (0%) Title : Full-length Language : Ukrainian Default : No Forced : No

    Text #3 ID : 7 Format : UTF-8 Codec ID : S_TEXT/UTF8 Codec ID/Info : UTF-8 Plain Text Duration : 2 h 12 min Bit rate : 67 b/s Count of elements : 2066 Stream size : 65.8 KiB (0%) Title : Full-length Language : English Default : No Forced : No

    Text #4 ID : 8 Format : UTF-8 Codec ID : S_TEXT/UTF8 Codec ID/Info : UTF-8 Plain Text Duration : 2 h 9 min Bit rate : 0 b/s Count of elements : 17 Stream size : 825 Bytes (0%) Title : Forced Language : Russian Default : Yes Forced : Yes

    Menu 00:00:00.000 : en:Stay Tuned 00:00:10.000 : en:Studio Logos 00:00:46.000 : en:Toomes loses a job and gains a new one 00:05:06.000 : en:Marvel Logo 00:05:41.000 : en:a Film by Peter Parker 00:10:04.000 : en:Peter waits the school day out 00:14:42.000 : en:Spider-Man keeps the neighborhood friendly 00:18:15.000 : en:Spider-Man battles the Avengers 00:20:59.000 : en:Peter finds a surprise at home 00:25:53.000 : en:Ned asks for all the details 00:29:19.000 : en:Peter debates bringing Spider-Man to the party 00:32:10.000 : en:Spider-Man chases after a van 00:36:56.000 : en:Tony instructs Peter to stand down 00:39:27.000 : en:Toomes attempts to reason with his crew 00:42:33.000 : en:Ned helps Peter with a shop project 00:46:12.000 : en:Peter rejoins the team 00:50:22.000 : en:Spider-Man makes a new friend while tracking bad guys 00:54:48.000 : en:Spider-Man races back to his team 00:58:57.000 : en:The Decathlon Team celebrates at the Washington Monument 01:05:18.000 : en:Toomes contemplates his recent run of bad luck 01:06:23.000 : en:The Decathlon team is welcomed back as heroes 01:08:48.000 : en:Peter tries out interrogation mode 01:12:11.000 : en:Spider-Man commutes on the ferry 01:19:51.000 : en:Toomes calls for a bigger job 01:20:28.000 : en:Perter faces the consequences of his mistake 01:23:43.000 : en:Peter turns himself around 01:27:05.000 : en:Peter meets Liz's family 01:29:50.000 : en:Toomes gives Peter the Dad talk 01:34:21.000 : en:Peter leaves the dance early 01:36:47.000 : en:Ned gives Spider-Man directions 01:39:28.000 : en:Spider-Man locates the Vulture's lair 01:42:33.000 : en:Peter picks himself up 01:44:52.000 : en:Vulture takes to the sky 01:50:34.000 : en:Spider-Man and Vulture battle 01:54:39.000 : en:Peter says a difficult goodbye 01:56:10.000 : en:The Decathlon Team celebrates their win 01:58:02.000 : en:Tony makes Peter an offer 02:02:26.000 : en:Peter suits up 02:03:04.000 : en:End Credits 02:05:13.000 : en:Toomes encounters a former business partner 02:06:07.000 : en:End Credits Continued 02:12:38.000 : en:Patience 02:13:36.000 : en:a Film by Peter Parker (Extended Director's Cut) 02:19:13.000 : en:Deleted Scenes 02:25:20.000 : en:Midtown Technical High School News 02:28:38.000 : en:Mr. Harrington Lessons in Love 02:30:47.000 : en:Aftermath 02:35:35.000 : en:Searching for Spider-Man 02:43:34.000 : en:Spidey Stunts 02:49:27.000 : en:Jon Watts: Head of the Class

    mrutor.org

    Скачать торрент Человек-паук: Возвращение домой / Spider-Man: Homecoming (2017) BDRip 1080p от New-Team & qqss44

    Мы "ВКОНТАКТЕ"

    Информация о фильмеНазвание: Человек-паук: Возвращение домойОригинальное название: Spider-Man: HomecomingГод выпуска: 2017Жанр: Фантастика, боевик, приключенияРежиссер: Джон УоттсВ ролях: Том Холланд (II), Роберт Дауни мл., Майкл Китон, Мариса Томей, Джон Фавро, Джейкоб Баталон, Зендея, Лора Хэрриер, Тони Револори, Дональд Гловер

    О фильме: После исторической встречи с командой Мстителей Питер Паркер возвращается домой, стараясь зажить обычной жизнью под опекой своей тёти Мэй. Но теперь за Питером приглядывает ещё кое-что… Тони Старк видел Человека-Паука в деле и должен стать его наставником. Когда новый злодей Стервятник угрожает уничтожить всё, что дорого Питеру, приходит время доказать всем, что такое настоящий супергерой.

    Страна: СШАСтудия: Columbia Pictures, Marvel Studios Inc., Pascal PicturesПродолжительность: 02:13:28Перевод: Дублированный | iTunes

    ФайлФормат: MKV, BDRip 1080pВидео: MPEG-4 AVC, 7666 Кбит/с, 1920x802Aудио#1: [RUS] AC3 | 48 KHz | 5.1 (Front: L С R Side: L R) + LFE | ~384 kbpsСубтитры: русские (форсированные и полные)Релиз от:

    МИ

    Общее Уникальный идентификатор : 224531475639837992940909868818597940770 (0xA8EB3071FB4C67099A054DA138EC0E22) Полное имя : X:�0000Spider-Man.Homecoming.(2017).BDRip.1080p.(qqss44).mkv Формат : Matroska Версия формата : Version 2 Размер файла : 7,51 Гбайт Продолжительность : 2 ч. 13 м. Общий поток : 8051 Кбит/сек Название фильма : Spider.Man.Homecoming.(2017).BDRip.1080p.(qqss44) Дата кодирования : UTC 2017-10-06 12:50:02 Программа кодирования : mkvmerge v5.8.0 ('No Sleep / Pillow') built on Sep 2 2012 15:37:04 Библиотека кодирования : libebml v1.2.3 + libmatroska v1.3.0

    Видео Идентификатор : 1 Формат : AVC Формат/Информация : Advanced Video Codec Профиль формата : [email protected] Параметр CABAC формата : Да Параметр ReFrames формата : 5 кадров Идентификатор кодека : V_MPEG4/ISO/AVC Продолжительность : 2 ч. 13 м. Битрейт : 7666 Кбит/сек Ширина : 1920 пикселей Высота : 802 пикселя Соотношение сторон : 2,40:1 Режим частоты кадров : Постоянный Частота кадров : 23,976 (24000/1001) кадра/сек Цветовое пространство : YUV Субдискретизация насыщенности : 4:2:0 Битовая глубина : 8 бит Тип развёртки : Прогрессивная Бит/(Пиксели*Кадры) : 0.208 Размер потока : 7,00 Гбайт (93%) Библиотека кодирования : x264 core 152 r2851kMod ba24899 Настройки программы : cabac=1 / ref=5 / deblock=1:0:0 / analyse=0x3:0x113 / me=umh / subme=11 / psy=1 / fade_compensate=0.00 / psy_rd=1.00:0.00 / mixed_ref=1 / me_range=32 / chroma_me=1 / trellis=2 / 8x8dct=1 / cqm=0 / deadzone=21,11 / fast_pskip=0 / chroma_qp_offset=-2 / threads=12 / lookahead_threads=2 / sliced_threads=0 / nr=0 / decimate=0 / interlaced=0 / bluray_compat=0 / constrained_intra=0 / bframes=9 / b_pyramid=2 / b_adapt=2 / b_bias=0 / direct=3 / weightb=1 / open_gop=0 / weightp=2 / keyint=240 / keyint_min=23 / scenecut=40 / intra_refresh=0 / rc_lookahead=40 / rc=2pass / mbtree=0 / bitrate=7666 / ratetol=1.0 / qcomp=0.75 / qpmin=0 / qpmax=69 / qpstep=4 / cplxblur=20.0 / qblur=0.5 / vbv_maxrate=50000 / vbv_bufsize=62500 / nal_hrd=none / filler=0 / ip_ratio=1.40 / pb_ratio=1.30 / aq=3:0.90 Язык : English Default : Да Forced : Нет

    Аудио Идентификатор : 2 Формат : AC-3 Формат/Информация : Audio Coding 3 Расширение режима : CM (complete main) Параметр Endianness формата : Big Идентификатор кодека : A_AC3 Продолжительность : 2 ч. 13 м. Вид битрейта : Постоянный Битрейт : 384 Кбит/сек Каналы : 6 каналов Расположение каналов : Front: L C R, Side: L R, LFE Частота : 48,0 КГц Частота кадров : 31,250 кадров/сек (1536 spf) Метод сжатия : С потерями Размер потока : 367 Мбайт (5%) Язык : Russian Default : Да Forced : Нет

    Текст #1 Идентификатор : 3 Формат : UTF-8 Идентификатор кодека : S_TEXT/UTF8 Идентификатор кодека/Информация : UTF-8 Plain Text Заголовок : FORCED Язык : Russian Default : Да Forced : Нет

    Текст #2 Идентификатор : 4 Формат : UTF-8 Идентификатор кодека : S_TEXT/UTF8 Идентификатор кодека/Информация : UTF-8 Plain Text Заголовок : FULL Язык : Russian Default : Нет Forced : Нет

    Меню 00:00:00.000 : en:Chapter 1 00:00:48.798 : en:Chapter 2 00:01:28.046 : en:Chapter 3 00:02:03.164 : en:Chapter 4 00:02:26.646 : en:Chapter 5 00:05:35.001 : en:Chapter 6 00:06:03.446 : en:Chapter 7 00:06:29.305 : en:Chapter 8 00:08:58.120 : en:Chapter 9 00:10:57.698 : en:Chapter 10 00:12:25.870 : en:Chapter 11 00:13:49.119 : en:Chapter 12 00:17:48.108 : en:Chapter 13 00:20:50.749 : en:Chapter 14 00:21:22.072 : en:Chapter 15 00:22:00.986 : en:Chapter 16 00:24:23.587 : en:Chapter 17 00:25:52.133 : en:Chapter 18 00:26:44.519 : en:Chapter 19 00:28:12.941 : en:Chapter 20 00:29:11.708 : en:Chapter 21 00:32:25.276 : en:Chapter 22 00:33:03.231 : en:Chapter 23 00:34:14.343 : en:Chapter 24 00:34:35.198 : en:Chapter 25 00:37:10.895 : en:Chapter 26 00:38:13.833 : en:Chapter 27 00:40:53.242 : en:Chapter 28 00:41:52.218 : en:Chapter 29 00:45:03.033 : en:Chapter 30 00:46:25.324 : en:Chapter 31 00:48:24.484 : en:Chapter 32 00:51:06.313 : en:Chapter 33 00:52:41.366 : en:Chapter 34 00:55:30.285 : en:Chapter 35 00:58:41.559 : en:Chapter 36 00:59:33.611 : en:Chapter 37 01:00:02.390 : en:Chapter 38 01:00:15.445 : en:Chapter 39 01:00:29.792 : en:Chapter 40 01:00:56.235 : en:Chapter 41 01:01:19.342 : en:Chapter 42 01:03:25.551 : en:Chapter 43 01:05:08.279 : en:Chapter 44 01:06:21.978 : en:Chapter 45 01:06:47.086 : en:Chapter 46 01:07:23.289 : en:Chapter 47 01:10:11.040 : en:Chapter 48 01:11:20.776 : en:Chapter 49 01:12:53.285 : en:Chapter 50 01:14:51.987 : en:Chapter 51 01:15:45.832 : en:Chapter 52 01:16:56.320 : en:Chapter 53 01:18:42.092 : en:Chapter 54 01:19:12.247 : en:Chapter 55 01:20:22.234 : en:Chapter 56 01:21:00.730 : en:Chapter 57 01:23:33.758 : en:Chapter 58 01:27:21.319 : en:Chapter 59 01:28:49.949 : en:Chapter 60 01:32:38.219 : en:Chapter 61 01:33:23.723 : en:Chapter 62 01:34:00.092 : en:Chapter 63 01:35:21.006 : en:Chapter 64 01:36:48.886 : en:Chapter 65 01:38:46.295 : en:Chapter 66 01:40:48.000 : en:Chapter 67 01:42:08.122 : en:Chapter 68 01:43:39.838 : en:Chapter 69 01:45:07.050 : en:Chapter 70 01:46:23.835 : en:Chapter 71 01:47:19.182 : en:Chapter 72 01:48:07.522 : en:Chapter 73 01:49:07.207 : en:Chapter 74 01:50:14.733 : en:Chapter 75 01:52:24.654 : en:Chapter 76 01:54:01.251 : en:Chapter 77 01:56:02.038 : en:Chapter 78 01:58:04.077 : en:Chapter 79 01:59:28.870 : en:Chapter 80 02:00:14.624 : en:Chapter 81 02:01:11.973 : en:Chapter 82 02:02:21.917 : en:Chapter 83

    mrutor.org


    Смотрите также