Человек паук возвращение домой bdrip торрент


Скачать торрент Человек-паук: Возвращение домой / Spider-Man: Homecoming (2017) BDRip-AVC от New-Team

x264 [info]: frame I:1807 Avg QP:15.19 size: 43588 x264 [info]: frame P:49783 Avg QP:18.83 size: 12318 x264 [info]: frame B:139059 Avg QP:20.37 size: 3501

Общее Уникальный идентификатор : 227698169514184677040612420509238117067 (0xAB4D1281EC0A69C08DAAF2BB070D42CB) Полное имя : M:!Rips2017Spider-Man HomecomingBDSpider-Man.Homecoming.2017.BDRip-AVC.RUS..stalkerok..new-team.mkv Формат : Matroska Версия формата : Version 4 / Version 2 Размер файла : 1,49 Гбайт Продолжительность : 2 ч. 13 м. Общий поток : 1602 Кбит/сек Название фильма : Spider-Man: Homecoming (2017) (Rip by stalkerok) Дата кодирования : UTC 2017-10-09 13:39:47 Программа кодирования : mkvmerge v8.6.1 ('Flying') 64bit Библиотека кодирования : libebml v1.3.3 + libmatroska v1.4.4

Видео Идентификатор : 1 Формат : AVC Формат/Информация : Advanced Video Codec Профиль формата : [email protected] Параметр CABAC формата : Да Параметр ReFrames формата : 14 кадров Идентификатор кодека : V_MPEG4/ISO/AVC Продолжительность : 2 ч. 13 м. Битрейт : 1216 Кбит/сек Ширина : 924 пикселя Высота : 386 пикселей Соотношение сторон : 2,40:1 Режим частоты кадров : Постоянный Частота кадров : 23,976 (24000/1001) кадра/сек Цветовое пространство : YUV Субдискретизация насыщенности : 4:2:0 Битовая глубина : 8 бит Тип развёртки : Прогрессивная Бит/(Пиксели*Кадры) : 0.142 Размер потока : 1,13 Гбайт (76%) Заголовок : Spider-Man: Homecoming (2017) (Rip by stalkerok) Библиотека кодирования : x264 core 150 r2833kMod df79067 Настройки программы : cabac=1 / ref=14 / deblock=1:-3:-2 / analyse=0x3:0x133 / me=umh / subme=11 / psy=1 / fade_compensate=0.00 / psy_rd=1.00:0.00 / mixed_ref=1 / me_range=32 / chroma_me=1 / trellis=2 / 8x8dct=1 / cqm=0 / deadzone=21,11 / fast_pskip=0 / chroma_qp_offset=-2 / threads=12 / lookahead_threads=3 / sliced_threads=0 / nr=0 / decimate=1 / interlaced=0 / bluray_compat=0 / constrained_intra=0 / bframes=14 / b_pyramid=2 / b_adapt=2 / b_bias=0 / direct=3 / weightb=1 / open_gop=0 / weightp=2 / keyint=240 / keyint_min=23 / scenecut=40 / intra_refresh=0 / rc_lookahead=60 / rc=crf / mbtree=0 / crf=19.0000 / qcomp=0.65 / qpmin=0 / qpmax=69 / qpstep=4 / vbv_maxrate=50000 / vbv_bufsize=62500 / crf_max=0.0 / nal_hrd=none / filler=0 / ip_ratio=1.35 / pb_ratio=1.25 / aq=3:0.80 / zones=176851,179946,q=32/181238,191999,q=32 Default : Да Forced : Нет

Аудио Идентификатор : 2 Формат : AC-3 Формат/Информация : Audio Coding 3 Расширение режима : CM (complete main) Параметр Endianness формата : Big Идентификатор кодека : A_AC3 Продолжительность : 2 ч. 13 м. Вид битрейта : Постоянный Битрейт : 384 Кбит/сек Каналы : 6 каналов Расположение каналов : Front: L C R, Side: L R, LFE Частота : 48,0 КГц Частота кадров : 31,250 кадров/сек (1536 spf) Метод сжатия : С потерями Размер потока : 367 Мбайт (24%) Язык : Russian Default : Да Forced : Нет

Текст #1 Идентификатор : 3 Формат : UTF-8 Идентификатор кодека : S_TEXT/UTF8 Идентификатор кодека/Информация : UTF-8 Plain Text Продолжительность : 2 ч. 9 м. Битрейт : 1 бит/сек Count of elements : 39 Размер потока : 1,82 Кбайт (0%) Заголовок : Форсированные (вер. Ash61) Язык : Russian Default : Да Forced : Нет

Текст #2 Идентификатор : 4 Формат : UTF-8 Идентификатор кодека : S_TEXT/UTF8 Идентификатор кодека/Информация : UTF-8 Plain Text Продолжительность : 2 ч. 12 м. Битрейт : 104 бит/сек Count of elements : 1826 Размер потока : 102 Кбайт (0%) Язык : Russian Default : Нет Forced : Нет

Текст #3 Идентификатор : 5 Формат : UTF-8 Идентификатор кодека : S_TEXT/UTF8 Идентификатор кодека/Информация : UTF-8 Plain Text Продолжительность : 2 ч. 0 м. Битрейт : 1 бит/сек Count of elements : 26 Размер потока : 1,31 Кбайт (0%) Заголовок : Форсированные (вер. Ash61) Язык : Ukrainian Default : Нет Forced : Нет

Текст #4 Идентификатор : 6 Формат : UTF-8 Идентификатор кодека : S_TEXT/UTF8 Идентификатор кодека/Информация : UTF-8 Plain Text Продолжительность : 2 ч. 12 м. Битрейт : 94 бит/сек Count of elements : 1821 Размер потока : 92,2 Кбайт (0%) Язык : Ukrainian Default : Нет Forced : Нет

Меню 00:00:00.000 : :1 00:05:34.082 : :2 00:14:24.279 : :3 00:20:50.999 : :4 00:26:19.243 : :5 00:36:27.976 : :6 00:46:03.927 : :7 00:54:40.193 : :8 01:05:10.280 : :9 01:12:03.277 : :10 01:20:20.189 : :11 01:29:41.542 : :12 01:36:56.894 : :13 01:44:44.152 : :14 01:50:31.248 : :15 01:57:53.565 : :16

mrutor.org

Скачать торрент Человек-паук: Возвращение домой / Spider-Man: Homecoming (2017) BDRip 720p от k.e.n & MegaPeer

Информация о фильмеНазвание: Человек-паук: Возвращение домойОригинальное название: Spider-Man: HomecomingГод выпуска: 2017Жанр: Фантастика, боевик, приключенияРежиссер: Джон УоттсВ ролях: Том Холланд (II), Роберт Дауни мл., Майкл Китон, Мариса Томей, Джон Фавро, Джейкоб Баталон, Зендея, Лора Хэрриер, Тони Револори, Дональд Гловер

О фильме: После исторической встречи с командой Мстителей Питер Паркер возвращается домой, стараясь зажить обычной жизнью под опекой своей тёти Мэй. Но теперь за Питером приглядывает ещё кое-что… Тони Старк видел Человека-Паука в деле и должен стать его наставником. Когда новый злодей Стервятник угрожает уничтожить всё, что дорого Питеру, приходит время доказать всем, что такое настоящий супергерой.

Страна: СШАСтудия: Columbia Pictures, Marvel Studios Inc., Pascal PicturesПродолжительность: 02:13:28Перевод: Дублированный | iTunes

ФайлФормат: MKVКачество: BDRip 720p | BDRemux 1080p | Видео: AVC, 1280x534 (2.40:1), 23.976 fps, 3 792 Kbps (0.231 bit/pixel)Аудио #1: AC-3, 48.0 KHz, 6 ch, 384 Kbps, CBR (Russian)Аудио #2: AC-3, 48.0 KHz, 6 ch, 448 Kbps, CBR (English)Субтитры: Русские, английские

Скриншоты:

x24 log:

x264 [info]: frame I:1792 Avg QP:13.61 size:108739 PSNR Mean Y:49.31 U:51.42 V:51.15 Avg:49.79 Global:49.41 x264 [info]: frame P:48487 Avg QP:16.66 size: 37921 PSNR Mean Y:47.20 U:51.29 V:50.44 Avg:47.85 Global:47.31 x264 [info]: frame B:141721 Avg QP:18.54 size: 12433 PSNR Mean Y:46.42 U:49.97 V:49.35 Avg:47.06 Global:46.56

MediaInfo:

Формат : Matroska Версия формата : Version 2 Размер файла : 4,32 Гбайт Продолжительность : 2 ч. 13 м. Общий поток : 4629 Кбит/сек Название фильма : Spider-Man: Homecoming (2017) Дата кодирования : UTC 2017-10-09 18:20:14 Программа кодирования : mkvmerge v5.3.0 ('I could have danced') built on Feb 9 2012 10:38:07 Библиотека кодирования : libebml v1.2.3 + libmatroska v1.3.0 Attachments : poster 6.png

Видео Идентификатор : 1 Формат : AVC Формат/Информация : Advanced Video Codec Профиль формата : [email protected] Параметр CABAC формата : Да Параметр ReFrames формата : 12 кадров Идентификатор кодека : V_MPEG4/ISO/AVC Продолжительность : 2 ч. 13 м. Битрейт : 3792 Кбит/сек Ширина : 1280 пикселей Высота : 534 пикселя Соотношение сторон : 2,40:1 Режим частоты кадров : Постоянный Частота кадров : 23,976 (24000/1001) кадра/сек Цветовое пространство : YUV Субдискретизация насыщенности : 4:2:0 Битовая глубина : 8 бит Тип развёртки : Прогрессивная Бит/(Пиксели*Кадры) : 0.231 Размер потока : 3,45 Гбайт (80%) Библиотека кодирования : x264 core 146 r2538 121396c Настройки программы : cabac=1 / ref=12 / deblock=1:-3:-3 / analyse=0x3:0x133 / me=umh / subme=11 / psy=1 / psy_rd=1.00:0.00 / mixed_ref=1 / me_range=32 / chroma_me=1 / trellis=2 / 8x8dct=1 / cqm=0 / deadzone=21,11 / fast_pskip=0 / chroma_qp_offset=-2 / threads=12 / lookahead_threads=3 / sliced_threads=0 / nr=0 / decimate=0 / interlaced=0 / bluray_compat=0 / constrained_intra=0 / bframes=11 / b_pyramid=2 / b_adapt=2 / b_bias=0 / direct=3 / weightb=1 / open_gop=0 / weightp=2 / keyint=240 / keyint_min=23 / scenecut=40 / intra_refresh=0 / rc=2pass / mbtree=0 / bitrate=3792 / ratetol=1.0 / qcomp=0.60 / qpmin=0 / qpmax=69 / qpstep=4 / cplxblur=20.0 / qblur=0.5 / ip_ratio=1.40 / pb_ratio=1.30 / aq=1:0.70 Язык : English Default : Да Forced : Нет

Аудио #1 Идентификатор : 2 Формат : AC-3 Формат/Информация : Audio Coding 3 Расширение режима : CM (complete main) Параметр Endianness формата : Big Идентификатор кодека : A_AC3 Продолжительность : 2 ч. 13 м. Вид битрейта : Постоянный Битрейт : 384 Кбит/сек Каналы : 6 каналов Расположение каналов : Front: L C R, Side: L R, LFE Частота : 48,0 КГц Частота кадров : 31,250 кадров/сек (1536 spf) Битовая глубина : 16 бит Метод сжатия : С потерями Размер потока : 367 Мбайт (8%) Заголовок : iTunes Язык : Russian Default : Да Forced : Нет

Аудио #2 Идентификатор : 3 Формат : AC-3 Формат/Информация : Audio Coding 3 Расширение режима : CM (complete main) Параметр Endianness формата : Big Идентификатор кодека : A_AC3 Продолжительность : 2 ч. 13 м. Вид битрейта : Постоянный Битрейт : 448 Кбит/сек Каналы : 6 каналов Расположение каналов : Front: L C R, Side: L R, LFE Частота : 48,0 КГц Частота кадров : 31,250 кадров/сек (1536 spf) Битовая глубина : 16 бит Метод сжатия : С потерями Размер потока : 428 Мбайт (10%) Заголовок : Original Язык : English Default : Нет Forced : Нет

Текст #1 Идентификатор : 4 Формат : UTF-8 Идентификатор кодека : S_TEXT/UTF8 Идентификатор кодека/Информация : UTF-8 Plain Text Заголовок : Forced [iTunes] Язык : Russian Default : Да Forced : Нет

Текст #2 Идентификатор : 5 Формат : UTF-8 Идентификатор кодека : S_TEXT/UTF8 Идентификатор кодека/Информация : UTF-8 Plain Text Заголовок : Full [iTunes] Язык : Russian Default : Нет Forced : Нет

Текст #3 Идентификатор : 6 Формат : UTF-8 Идентификатор кодека : S_TEXT/UTF8 Идентификатор кодека/Информация : UTF-8 Plain Text Заголовок : Forced [iTunes] Язык : English Default : Нет Forced : Нет

Текст #4 Идентификатор : 7 Формат : UTF-8 Идентификатор кодека : S_TEXT/UTF8 Идентификатор кодека/Информация : UTF-8 Plain Text Заголовок : Full [iTunes] Язык : English Default : Нет Forced : Нет

Меню 00:00:00.000 : en:Chapter 1 00:00:48.798 : en:Chapter 2 00:01:28.046 : en:Chapter 3 00:02:03.164 : en:Chapter 4 00:02:26.646 : en:Chapter 5 00:05:35.001 : en:Chapter 6 00:06:03.446 : en:Chapter 7 00:06:29.305 : en:Chapter 8 00:08:58.120 : en:Chapter 9 00:10:57.698 : en:Chapter 10 00:12:25.870 : en:Chapter 11 00:13:49.119 : en:Chapter 12 00:17:48.108 : en:Chapter 13 00:20:50.749 : en:Chapter 14 00:21:22.072 : en:Chapter 15 00:22:00.986 : en:Chapter 16 00:24:23.587 : en:Chapter 17 00:25:52.133 : en:Chapter 18 00:26:44.519 : en:Chapter 19 00:28:12.941 : en:Chapter 20 00:29:11.708 : en:Chapter 21 00:32:25.276 : en:Chapter 22 00:33:03.231 : en:Chapter 23 00:34:14.343 : en:Chapter 24 00:34:35.198 : en:Chapter 25 00:37:10.895 : en:Chapter 26 00:38:13.833 : en:Chapter 27 00:40:53.242 : en:Chapter 28 00:41:52.218 : en:Chapter 29 00:45:03.033 : en:Chapter 30 00:46:25.324 : en:Chapter 31 00:48:24.484 : en:Chapter 32 00:51:06.313 : en:Chapter 33 00:52:41.366 : en:Chapter 34 00:55:30.285 : en:Chapter 35 00:58:41.559 : en:Chapter 36 00:59:33.611 : en:Chapter 37 01:00:02.390 : en:Chapter 38 01:00:15.445 : en:Chapter 39 01:00:29.792 : en:Chapter 40 01:00:56.235 : en:Chapter 41 01:01:19.342 : en:Chapter 42 01:03:25.551 : en:Chapter 43 01:05:08.279 : en:Chapter 44 01:06:21.978 : en:Chapter 45 01:06:47.086 : en:Chapter 46 01:07:23.289 : en:Chapter 47 01:10:11.040 : en:Chapter 48 01:11:20.776 : en:Chapter 49 01:12:53.285 : en:Chapter 50 01:14:51.987 : en:Chapter 51 01:15:45.832 : en:Chapter 52 01:16:56.320 : en:Chapter 53 01:18:42.092 : en:Chapter 54 01:19:12.247 : en:Chapter 55 01:20:22.234 : en:Chapter 56 01:21:00.730 : en:Chapter 57 01:23:33.758 : en:Chapter 58 01:27:21.319 : en:Chapter 59 01:28:49.949 : en:Chapter 60 01:32:38.219 : en:Chapter 61 01:33:23.723 : en:Chapter 62 01:34:00.092 : en:Chapter 63 01:35:21.006 : en:Chapter 64 01:36:48.886 : en:Chapter 65 01:38:46.295 : en:Chapter 66 01:40:48.000 : en:Chapter 67 01:42:08.122 : en:Chapter 68 01:43:39.838 : en:Chapter 69 01:45:07.050 : en:Chapter 70 01:46:23.835 : en:Chapter 71 01:47:19.182 : en:Chapter 72 01:48:07.522 : en:Chapter 73 01:49:07.207 : en:Chapter 74 01:50:14.733 : en:Chapter 75 01:52:24.654 : en:Chapter 76 01:54:01.251 : en:Chapter 77 01:56:02.038 : en:Chapter 78 01:58:04.077 : en:Chapter 79 01:59:28.870 : en:Chapter 80 02:00:14.624 : en:Chapter 81 02:01:11.973 : en:Chapter 82 02:02:21.917 : en:Chapter 83

Релиз: Группа в ВК &

krutor.org

Скачать торрент Человек-паук: Возвращение домой / Spider-Man: Homecoming (2017) BDRip-AVC от New-Team

x264 [info]: frame I:1807 Avg QP:15.19 size: 43588 x264 [info]: frame P:49783 Avg QP:18.83 size: 12318 x264 [info]: frame B:139059 Avg QP:20.37 size: 3501

Общее Уникальный идентификатор : 227698169514184677040612420509238117067 (0xAB4D1281EC0A69C08DAAF2BB070D42CB) Полное имя : M:!Rips2017Spider-Man HomecomingBDSpider-Man.Homecoming.2017.BDRip-AVC.RUS..stalkerok..new-team.mkv Формат : Matroska Версия формата : Version 4 / Version 2 Размер файла : 1,49 Гбайт Продолжительность : 2 ч. 13 м. Общий поток : 1602 Кбит/сек Название фильма : Spider-Man: Homecoming (2017) (Rip by stalkerok) Дата кодирования : UTC 2017-10-09 13:39:47 Программа кодирования : mkvmerge v8.6.1 ('Flying') 64bit Библиотека кодирования : libebml v1.3.3 + libmatroska v1.4.4

Видео Идентификатор : 1 Формат : AVC Формат/Информация : Advanced Video Codec Профиль формата : [email protected] Параметр CABAC формата : Да Параметр ReFrames формата : 14 кадров Идентификатор кодека : V_MPEG4/ISO/AVC Продолжительность : 2 ч. 13 м. Битрейт : 1216 Кбит/сек Ширина : 924 пикселя Высота : 386 пикселей Соотношение сторон : 2,40:1 Режим частоты кадров : Постоянный Частота кадров : 23,976 (24000/1001) кадра/сек Цветовое пространство : YUV Субдискретизация насыщенности : 4:2:0 Битовая глубина : 8 бит Тип развёртки : Прогрессивная Бит/(Пиксели*Кадры) : 0.142 Размер потока : 1,13 Гбайт (76%) Заголовок : Spider-Man: Homecoming (2017) (Rip by stalkerok) Библиотека кодирования : x264 core 150 r2833kMod df79067 Настройки программы : cabac=1 / ref=14 / deblock=1:-3:-2 / analyse=0x3:0x133 / me=umh / subme=11 / psy=1 / fade_compensate=0.00 / psy_rd=1.00:0.00 / mixed_ref=1 / me_range=32 / chroma_me=1 / trellis=2 / 8x8dct=1 / cqm=0 / deadzone=21,11 / fast_pskip=0 / chroma_qp_offset=-2 / threads=12 / lookahead_threads=3 / sliced_threads=0 / nr=0 / decimate=1 / interlaced=0 / bluray_compat=0 / constrained_intra=0 / bframes=14 / b_pyramid=2 / b_adapt=2 / b_bias=0 / direct=3 / weightb=1 / open_gop=0 / weightp=2 / keyint=240 / keyint_min=23 / scenecut=40 / intra_refresh=0 / rc_lookahead=60 / rc=crf / mbtree=0 / crf=19.0000 / qcomp=0.65 / qpmin=0 / qpmax=69 / qpstep=4 / vbv_maxrate=50000 / vbv_bufsize=62500 / crf_max=0.0 / nal_hrd=none / filler=0 / ip_ratio=1.35 / pb_ratio=1.25 / aq=3:0.80 / zones=176851,179946,q=32/181238,191999,q=32 Default : Да Forced : Нет

Аудио Идентификатор : 2 Формат : AC-3 Формат/Информация : Audio Coding 3 Расширение режима : CM (complete main) Параметр Endianness формата : Big Идентификатор кодека : A_AC3 Продолжительность : 2 ч. 13 м. Вид битрейта : Постоянный Битрейт : 384 Кбит/сек Каналы : 6 каналов Расположение каналов : Front: L C R, Side: L R, LFE Частота : 48,0 КГц Частота кадров : 31,250 кадров/сек (1536 spf) Метод сжатия : С потерями Размер потока : 367 Мбайт (24%) Язык : Russian Default : Да Forced : Нет

Текст #1 Идентификатор : 3 Формат : UTF-8 Идентификатор кодека : S_TEXT/UTF8 Идентификатор кодека/Информация : UTF-8 Plain Text Продолжительность : 2 ч. 9 м. Битрейт : 1 бит/сек Count of elements : 39 Размер потока : 1,82 Кбайт (0%) Заголовок : Форсированные (вер. Ash61) Язык : Russian Default : Да Forced : Нет

Текст #2 Идентификатор : 4 Формат : UTF-8 Идентификатор кодека : S_TEXT/UTF8 Идентификатор кодека/Информация : UTF-8 Plain Text Продолжительность : 2 ч. 12 м. Битрейт : 104 бит/сек Count of elements : 1826 Размер потока : 102 Кбайт (0%) Язык : Russian Default : Нет Forced : Нет

Текст #3 Идентификатор : 5 Формат : UTF-8 Идентификатор кодека : S_TEXT/UTF8 Идентификатор кодека/Информация : UTF-8 Plain Text Продолжительность : 2 ч. 0 м. Битрейт : 1 бит/сек Count of elements : 26 Размер потока : 1,31 Кбайт (0%) Заголовок : Форсированные (вер. Ash61) Язык : Ukrainian Default : Нет Forced : Нет

Текст #4 Идентификатор : 6 Формат : UTF-8 Идентификатор кодека : S_TEXT/UTF8 Идентификатор кодека/Информация : UTF-8 Plain Text Продолжительность : 2 ч. 12 м. Битрейт : 94 бит/сек Count of elements : 1821 Размер потока : 92,2 Кбайт (0%) Язык : Ukrainian Default : Нет Forced : Нет

Меню 00:00:00.000 : :1 00:05:34.082 : :2 00:14:24.279 : :3 00:20:50.999 : :4 00:26:19.243 : :5 00:36:27.976 : :6 00:46:03.927 : :7 00:54:40.193 : :8 01:05:10.280 : :9 01:12:03.277 : :10 01:20:20.189 : :11 01:29:41.542 : :12 01:36:56.894 : :13 01:44:44.152 : :14 01:50:31.248 : :15 01:57:53.565 : :16

krutor.org

Скачать торрент Человек-паук: Возвращение домой / Spider-Man: Homecoming (2017) BDRip 720p от ExKinoRay

Информация о фильмеНазвание: Человек-паук: Возвращение домойОригинальное название: Spider-Man: HomecomingГод выхода: 2017Жанр: Фантастика, боевик, приключенияРежиссер: Джон УоттсВ ролях: Том Холланд (II), Роберт Дауни мл., Майкл Китон, Мариса Томей, Джон Фавро, Джейкоб Баталон, Зендея, Лора Хэрриер, Тони Револори, Дональд Гловер

О фильме:После исторической встречи с командой Мстителей Питер Паркер возвращается домой, стараясь зажить обычной жизнью под опекой своей тёти Мэй. Но теперь за Питером приглядывает ещё кое-что… Тони Старк видел Человека-Паука в деле и должен стать его наставником. Когда новый злодей Стервятник угрожает уничтожить всё, что дорого Питеру, приходит время доказать всем, что такое настоящий супергерой.

Страна: СШАСтудия: Columbia Pictures, Marvel Studios Inc., Pascal PicturesПродолжительность: 02:13:27Перевод: Дублированный | iTunes

ФайлКачество: BDRip 720pВидео: MPEG-4 AVC, 1280x534, 5503 Kbit/s, 23.976 fpsЗвук: Аудио #01: 48 kHz, AC3, 5.1, 384 Kbps | Дублированный | iTunes | RUS |Аудио #02: 48 kHz, DTS, 5.1, 1510 Kbps | Оригинал | ENG |Субтитры: Русские (forced, full), английские

MI

General Unique ID : 240397359932464359074680046106967520917 (0xB4DAD8EF814A8A4B9CD6C03091F7B695) Complete name : E:VideoSpider.Man.Homecoming.2017.BDRip.720p.ExKinoRay.mkv Format : Matroska Format version : Version 4 / Version 2 File size : 6.90 GiB Duration : 2 h 13 min Overall bit rate : 7 398 kb/s Encoded date : UTC 2017-10-03 15:55:59 Writing application : mkvmerge v16.0.0 ('Protest') 64-bit Writing library : libebml v1.3.5 + libmatroska v1.4.8

Video ID : 1 Format : AVC Format/Info : Advanced Video Codec Format profile : [email protected] Format settings : CABAC / 12 Ref Frames Format settings, CABAC : Yes Format settings, RefFrames : 12 frames Codec ID : V_MPEG4/ISO/AVC Duration : 2 h 13 min Bit rate : 5 503 kb/s Width : 1 280 pixels Height : 534 pixels Display aspect ratio : 2.40:1 Frame rate mode : Constant Frame rate : 23.976 (24000/1001) FPS Color space : YUV Chroma subsampling : 4:2:0 Bit depth : 8 bits Scan type : Progressive Bits/(Pixel*Frame) : 0.336 Stream size : 5.13 GiB (74%) Writing library : x264 core 148 r2597 e86f3a1 Encoding settings : cabac=1 / ref=12 / deblock=1:0:0 / analyse=0x3:0x113 / me=umh / subme=10 / psy=1 / psy_rd=1.05:0.10 / mixed_ref=1 / me_range=32 / chroma_me=1 / trellis=2 / 8x8dct=1 / cqm=0 / deadzone=21,11 / fast_pskip=0 / chroma_qp_offset=-2 / threads=12 / lookahead_threads=1 / sliced_threads=0 / nr=0 / decimate=1 / interlaced=0 / bluray_compat=0 / constrained_intra=0 / bframes=6 / b_pyramid=2 / b_adapt=2 / b_bias=0 / direct=3 / weightb=1 / open_gop=0 / weightp=2 / keyint=250 / keyint_min=23 / scenecut=40 / intra_refresh=0 / rc=2pass / mbtree=0 / bitrate=5503 / ratetol=1.0 / qcomp=0.70 / qpmin=0 / qpmax=69 / qpstep=4 / cplxblur=20.0 / qblur=0.5 / ip_ratio=1.40 / pb_ratio=1.30 / aq=2:1.00 Language : English Default : Yes Forced : No

Audio #1 ID : 2 Format : AC-3 Format/Info : Audio Coding 3 Format settings, Endianness : Big Codec ID : A_AC3 Duration : 2 h 13 min Bit rate mode : Constant Bit rate : 384 kb/s Channel(s) : 6 channels Channel positions : Front: L C R, Side: L R, LFE Sampling rate : 48.0 kHz Frame rate : 31.250 FPS (1536 SPF) Bit depth : 16 bits Compression mode : Lossy Stream size : 367 MiB (5%) Title : iTunes Language : Russian Service kind : Complete Main Default : Yes Forced : No

Audio #2 ID : 3 Format : DTS Format/Info : Digital Theater Systems Mode : 16 Format settings, Endianness : Big Codec ID : A_DTS Duration : 2 h 13 min Bit rate mode : Constant Bit rate : 1 509 kb/s Channel(s) : 6 channels Channel positions : Front: L C R, Side: L R, LFE Sampling rate : 48.0 kHz Frame rate : 93.750 FPS (512 SPF) Bit depth : 24 bits Compression mode : Lossy Stream size : 1.41 GiB (20%) Title : Original Language : English Default : No Forced : No

Text #1 ID : 4 Format : UTF-8 Codec ID : S_TEXT/UTF8 Codec ID/Info : UTF-8 Plain Text Duration : 2 h 9 min Bit rate : 0 b/s Count of elements : 17 Stream size : 825 Bytes (0%) Title : Forced [iTunes] Language : Russian Default : Yes Forced : No

Text #2 ID : 5 Format : UTF-8 Codec ID : S_TEXT/UTF8 Codec ID/Info : UTF-8 Plain Text Duration : 2 h 12 min Bit rate : 104 b/s Count of elements : 1825 Stream size : 102 KiB (0%) Title : Full [iTunes] Language : Russian Default : No Forced : No

Text #3 ID : 6 Format : UTF-8 Codec ID : S_TEXT/UTF8 Codec ID/Info : UTF-8 Plain Text Duration : 5 s 130 ms Bit rate : 79 b/s Count of elements : 2 Stream size : 51.0 Bytes (0%) Title : Forced [iTunes] Language : English Default : No Forced : No

Text #4 ID : 7 Format : UTF-8 Codec ID : S_TEXT/UTF8 Codec ID/Info : UTF-8 Plain Text Duration : 2 h 12 min Bit rate : 64 b/s Count of elements : 1790 Stream size : 62.3 KiB (0%) Title : Full [iTunes] Language : English Default : No Forced : No

Menu 00:00:00.000 : en:1 00:05:33.083 : en:2 00:14:23.279 : en:3 00:20:49.999 : en:4 00:26:18.243 : en:5 00:36:26.976 : en:6 00:46:02.926 : en:7 00:54:39.192 : en:8 01:05:09.280 : en:9 01:12:02.276 : en:10 01:20:19.189 : en:11 01:29:40.542 : en:12 01:36:55.894 : en:13 01:44:43.152 : en:14 01:50:30.249 : en:15 01:57:52.566 : en:16

Релиз от: Автор релиза: Подпишись на меня, кликни по картинке > :

krutor.org

Скачать торрент Человек-паук: Возвращение домой / Spider-Man: Homecoming (2017) BDRip-AVC от New-Team

Наша группа ВКонтакте Присоединяйтесь!Человек-паук: Возвращение домойSpider-Man: Homecoming

«Homework can wait. The city can't»

Страна: СШАЖанр: фантастика, боевик, приключения

Год выпуска: 2017Продолжительность: 02:12:31

Перевод: Профессиональный (полное дублирование) [iTunes]Субтитры: русские (форсированные, полные)Оригинальная аудиодорожка: нет

Режиссер: Джон Уоттс / Jon Watts

В ролях: Том Холланд, Роберт Дауни мл., Майкл Китон, Мариса Томей, Джон Фавро, Джейкоб Баталон, Зендея, Лора Хэрриер, Тони Револори, Дональд Гловер, Гвинет Пэлтроу, Боким Вудбайн

Описание: После исторической встречи с командой Мстителей Питер Паркер возвращается домой, стараясь зажить обычной жизнью под опекой своей тёти Мэй. Но теперь за Питером приглядывает ещё кое-что... Тони Старк видел Человека-Паука в деле и должен стать его наставником. Когда новый злодей Стервятник угрожает уничтожить всё, что дорого Питеру, приходит время доказать всем, что такое настоящий супергерой.

Релиз:

Автор рипа: stalkerok

Сэмпл

Качество видео: BDRip-AVC [Spider-Man: Homecoming (2017) BD-Remux - BLUEBIRD]Формат видео: MKVВидео кодек: AVCАудио кодек: AACВидео: 680 Кбит/сек, 728*304 (2,40:1), в 23,976 (24000/1001) кадра/сек, AVCАудио: русский, 98,0 Кбит/сек, 48,0 КГц, 2 канала, AAC (LC)Навигация по главам: есть

x264/MediaInfo

x264 [info]: frame I:1857 Avg QP:18.79 size: 22733 x264 [info]: frame P:44241 Avg QP:20.99 size: 7204 x264 [info]: frame B:145902 Avg QP:23.16 size: 2190

Общее Уникальный идентификатор : 208926463503184329612687787274089520119 (0x9D2DC5F1FADDCB46BC92B3F64FD3DBF7) Полное имя : M:!Rips2017Spider-Man HomecomingBDSpider-Man.Homecoming.2017.BDRip-AVC.RUS..stalkerok.new-team.mkv Формат : Matroska Версия формата : Version 4 / Version 2 Размер файла : 745 Мбайт Продолжительность : 2 ч. 13 м. Общий поток : 780 Кбит/сек Название фильма : Spider-Man: Homecoming (2017) (Rip by stalkerok) Дата кодирования : UTC 2017-10-10 12:08:42 Программа кодирования : mkvmerge v8.6.1 ('Flying') 64bit Библиотека кодирования : libebml v1.3.3 + libmatroska v1.4.4

Видео Идентификатор : 1 Формат : AVC Формат/Информация : Advanced Video Codec Профиль формата : [email protected] Параметр CABAC формата : Да Параметр ReFrames формата : 16 кадров Идентификатор кодека : V_MPEG4/ISO/AVC Продолжительность : 2 ч. 13 м. Битрейт : 680 Кбит/сек Ширина : 728 пикселей Высота : 304 пикселя Соотношение сторон : 2,40:1 Режим частоты кадров : Постоянный Частота кадров : 23,976 (24000/1001) кадра/сек Цветовое пространство : YUV Субдискретизация насыщенности : 4:2:0 Битовая глубина : 8 бит Тип развёртки : Прогрессивная Бит/(Пиксели*Кадры) : 0.128 Размер потока : 649 Мбайт (87%) Заголовок : Spider-Man: Homecoming (2017) (Rip by stalkerok) Библиотека кодирования : x264 core 150 r2833kMod df79067 Настройки программы : cabac=1 / ref=16 / deblock=1:-3:-2 / analyse=0x3:0x133 / me=umh / subme=11 / psy=1 / fade_compensate=0.00 / psy_rd=1.00:0.00 / mixed_ref=1 / me_range=32 / chroma_me=1 / trellis=2 / 8x8dct=1 / cqm=0 / deadzone=21,11 / fast_pskip=0 / chroma_qp_offset=-2 / threads=9 / lookahead_threads=2 / sliced_threads=0 / nr=0 / decimate=1 / interlaced=0 / bluray_compat=0 / constrained_intra=0 / bframes=16 / b_pyramid=2 / b_adapt=2 / b_bias=0 / direct=3 / weightb=1 / open_gop=0 / weightp=2 / keyint=240 / keyint_min=23 / scenecut=40 / intra_refresh=0 / rc_lookahead=60 / rc=crf / mbtree=0 / crf=20.0000 / qcomp=0.65 / qpmin=0 / qpmax=69 / qpstep=4 / vbv_maxrate=50000 / vbv_bufsize=62500 / crf_max=0.0 / nal_hrd=none / filler=0 / ip_ratio=1.35 / pb_ratio=1.25 / aq=3:0.90 / zones=176851,179946,q=35/181238,191999,q=35 Default : Да Forced : Нет

Аудио Идентификатор : 2 Формат : AAC Формат/Информация : Advanced Audio Codec Профиль формата : LC Идентификатор кодека : A_AAC Продолжительность : 2 ч. 13 м. Битрейт : 98,0 Кбит/сек Каналы : 2 канала Расположение каналов : Front: L R Частота : 48,0 КГц Частота кадров : 46,875 кадров/сек (1024 spf) Метод сжатия : С потерями Задержка видео : 9 мс. Размер потока : 93,6 Мбайт (13%) Язык : Russian Default : Да Forced : Нет

Текст #1 Идентификатор : 3 Формат : UTF-8 Идентификатор кодека : S_TEXT/UTF8 Идентификатор кодека/Информация : UTF-8 Plain Text Продолжительность : 2 ч. 9 м. Битрейт : 1 бит/сек Count of elements : 39 Размер потока : 1,82 Кбайт (0%) Заголовок : Форсированные (вер. Ash61) Язык : Russian Default : Да Forced : Нет

Текст #2 Идентификатор : 4 Формат : UTF-8 Идентификатор кодека : S_TEXT/UTF8 Идентификатор кодека/Информация : UTF-8 Plain Text Продолжительность : 2 ч. 12 м. Битрейт : 104 бит/сек Count of elements : 1826 Размер потока : 102 Кбайт (0%) Язык : Russian Default : Нет Forced : Нет

Меню 00:00:00.000 : :1 00:05:34.082 : :2 00:14:24.279 : :3 00:20:50.999 : :4 00:26:19.243 : :5 00:36:27.976 : :6 00:46:03.927 : :7 00:54:40.193 : :8 01:05:10.280 : :9 01:12:03.277 : :10 01:20:20.189 : :11 01:29:41.542 : :12 01:36:56.894 : :13 01:44:44.152 : :14 01:50:31.248 : :15 01:57:53.565 : :16

mrutor.org

Скачать торрент Человек-паук: Возвращение домой / Spider-Man: Homecoming (2017) BDRip от MegaPeer

brimazenok 19-Окт-2017 04:30 (3 дня назад) Antony-torz, спасибо за объяснения. Похоже на троллинг зрителей со стороны киностудий, бгг  Madcap 18-Окт-2017 09:55 (4 дня назад) brimazenok, изначально да. Но теперь такого разграничения нет. Сюжет фильма тому явное доказательство. Тут ведь речь идёт о

Скрытый текст

выпускнике Питере Паркере. Вообще, я к тому, что непонятно, что такое "возвращение домой". brimazenok 18-Окт-2017 04:10 (5 дней назад) "Homecoming - это бал выпускников." - в смысле, встреча бывших выпускников, наверное. А то могут подумать, что выпускной бал имеется в виду, а это не совсем так. Madcap 16-Окт-2017 16:05 (6 дней назад) Я вот не пойму, почему локализаторы так лажанули с названием. Кто возвращается домой, что за дом? Homecoming - это бал выпускников. Сам сюжет и растяжка с этой надписью в школе очень непрозрачно на это намекают. Человек-паук: Выпускной бал ( ну или бал выпускников)звучит не хуже и отражает саму суть фильма. brimazenok 08-Окт-2017 01:50 (15 дней назад) Оценил на: 5 Ну и чем же это принципиально хуже какого-нить "Железного человека", тем более он здесь есть? Нормальное подростковое кино, его стерильность и одноклеточность хотя бы понятна. Разумеется, логики ноль, мозгов ноль, зато приколов довольно много, ну и графоний местами забавный, а хороший актер Майкл Китон даже здесь хорош. Платить деньги за просмотр этого? Нет, спасибо, да и взрослым на детскую толерастию смотреть без слез невозможно. Но тинейджерам должен нормально зайти, а кто же еще нынче основное бабло в кинотеатры тащит, не мы же. Infectant 06-Окт-2017 18:45 (16 дней назад) Если как пишут что "Высокое напряжение" было шедевральным, то это я точно смотреть не буду, так как тот мне вообще не понравился. МадиМал 06-Окт-2017 17:50 (16 дней назад) "Новый человек паук 2: Высокое напряжение" был просто шедеврален по сравнению с этим унылым Г !!! Харизма персонажей отсутствует напрочь, логики нет, сцена с кораблем ваще убивает здравый смысл (все видели "Титаник"как он утонул от царапины на днище,а здесь целый паром на 2 части пропилили и он поплыл дальше!!!! Он что ,из говна? )  LiquidDnB 06-Окт-2017 15:50 (16 дней назад) Посмотрел фильм в три подхода, как то не зашёл. Как по мне, старый паучок с Тоби Магуайреом в главной роли в миллиарды раз лучше. pattern 06-Окт-2017 14:00 (16 дней назад) Дауни уже надоел. Злостный ублюдок 06-Окт-2017 08:10 (16 дней назад) Оценил на: 1 Не смог осилить, даже под пиво. Откуда такой рейтинг? И да, судя по обилию негров в фильме, следующую часть будет играть чернокожий спайдер-мен. Z10 05-Окт-2017 17:20 (17 дней назад) Чо как фильм то? Совсем для детей или можно смореть? iii!!! 03-Окт-2017 22:05 (19 дней назад) Оценил на: 10 Смешат обезьяны которые скачали фильм на халяву и еще чем то возмущаются ставя при оценки vandoom 02-Окт-2017 21:35 (20 дней назад) у меня все время крутится в голове сцена где капитан спрашивает паука откуда он, но вместо квинса он отвечает - мехико сеньёро! miller_ 02-Окт-2017 14:15 (20 дней назад) Оценил на: 8 старк типа занятой пофигист,на все ему срать) жирный тоже на пафосе. пацан и то девку упустил,даже не чмокнул ее ни разу(и это блин в подростковом фильме) эхехе:с хехех... но сойдет,думал хуже будет) bgm_mann 02-Окт-2017 13:40 (20 дней назад) Оценил на: 1 Выдержал 10 минут. Шлак. 1/10. мудрый мудрец 01-Окт-2017 16:25 (21 день назад) Оценил на: 7 Посмотреть на раз сойдет и юмор какой-никакой есть. Уж лучше чем пираты и трансформеры, те вообще не стал досматривать. оценка фильму. 00bugs00 30-Сен-2017 12:25 (22 дня назад) Оценил на: 10 Не соглашусь с некоторыми коментами внизу, Один из лучших фильмов последних пяти лет от Марвел, пожалуй еще Логан у них выстрелил, а все остальное, эти перезагрузки и перелив из пустого в порожнее меня очень разочаровывал. Твердая десятка так держать Shved008 30-Сен-2017 03:00 (23 дня назад) Оценил на: 10 И ещё раз вас благодарю за сабы отдельным файлом! CooI 29-Сен-2017 22:20 (23 дня назад) Обожаю фильмы по комиксам, не важно каким, главное чтоб про супер героев... Но это, просто что-то ужасное... Переписанная история человека-паука под мстителей, ущербные малолетки в качестве главных героев, тупой юмор и т.д. все это вас ждет в этом фильме... Марвел, как так??? На кого расчитана эта шляпа??? Keeneclipse 29-Сен-2017 20:25 (23 дня назад) Оценил на: 1 Бездарный коммерческий продукт. Ни ребёнок, ни я не смогли досмотреть до конца без перемотки. Адмирал 29-Сен-2017 00:25 (24 дня назад) совершенно не вкатил фильм, шутки наиглупейшие), автору спасибо. Emel 28-Сен-2017 08:40 (24 дня назад) Оценил на: 10  

Файлы для обмена предоставлены пользователями сайта. Администрация не несёт ответственности за их содержание. На сервере хранятся только торрент-файлы. Это значит, что мы не храним никаких нелегальных материалов, а так же материалов охраняемых авторским правом.

mrutor.org

Скачать торрент Человек-паук: Возвращение домой / Spider-Man: Homecoming (2017) BDRip 1080p от New-Team & qqss44

Мы "ВКОНТАКТЕ"

Информация о фильмеНазвание: Человек-паук: Возвращение домойОригинальное название: Spider-Man: HomecomingГод выпуска: 2017Жанр: Фантастика, боевик, приключенияРежиссер: Джон УоттсВ ролях: Том Холланд (II), Роберт Дауни мл., Майкл Китон, Мариса Томей, Джон Фавро, Джейкоб Баталон, Зендея, Лора Хэрриер, Тони Револори, Дональд Гловер

О фильме: После исторической встречи с командой Мстителей Питер Паркер возвращается домой, стараясь зажить обычной жизнью под опекой своей тёти Мэй. Но теперь за Питером приглядывает ещё кое-что… Тони Старк видел Человека-Паука в деле и должен стать его наставником. Когда новый злодей Стервятник угрожает уничтожить всё, что дорого Питеру, приходит время доказать всем, что такое настоящий супергерой.

Страна: СШАСтудия: Columbia Pictures, Marvel Studios Inc., Pascal PicturesПродолжительность: 02:13:28Перевод: Дублированный | iTunes

ФайлФормат: MKV, BDRip 1080pВидео: MPEG-4 AVC, 7666 Кбит/с, 1920x802Aудио#1: [RUS] AC3 | 48 KHz | 5.1 (Front: L С R Side: L R) + LFE | ~384 kbpsСубтитры: русские (форсированные и полные)Релиз от:

МИ

Общее Уникальный идентификатор : 224531475639837992940909868818597940770 (0xA8EB3071FB4C67099A054DA138EC0E22) Полное имя : X:�0000Spider-Man.Homecoming.(2017).BDRip.1080p.(qqss44).mkv Формат : Matroska Версия формата : Version 2 Размер файла : 7,51 Гбайт Продолжительность : 2 ч. 13 м. Общий поток : 8051 Кбит/сек Название фильма : Spider.Man.Homecoming.(2017).BDRip.1080p.(qqss44) Дата кодирования : UTC 2017-10-06 12:50:02 Программа кодирования : mkvmerge v5.8.0 ('No Sleep / Pillow') built on Sep 2 2012 15:37:04 Библиотека кодирования : libebml v1.2.3 + libmatroska v1.3.0

Видео Идентификатор : 1 Формат : AVC Формат/Информация : Advanced Video Codec Профиль формата : [email protected] Параметр CABAC формата : Да Параметр ReFrames формата : 5 кадров Идентификатор кодека : V_MPEG4/ISO/AVC Продолжительность : 2 ч. 13 м. Битрейт : 7666 Кбит/сек Ширина : 1920 пикселей Высота : 802 пикселя Соотношение сторон : 2,40:1 Режим частоты кадров : Постоянный Частота кадров : 23,976 (24000/1001) кадра/сек Цветовое пространство : YUV Субдискретизация насыщенности : 4:2:0 Битовая глубина : 8 бит Тип развёртки : Прогрессивная Бит/(Пиксели*Кадры) : 0.208 Размер потока : 7,00 Гбайт (93%) Библиотека кодирования : x264 core 152 r2851kMod ba24899 Настройки программы : cabac=1 / ref=5 / deblock=1:0:0 / analyse=0x3:0x113 / me=umh / subme=11 / psy=1 / fade_compensate=0.00 / psy_rd=1.00:0.00 / mixed_ref=1 / me_range=32 / chroma_me=1 / trellis=2 / 8x8dct=1 / cqm=0 / deadzone=21,11 / fast_pskip=0 / chroma_qp_offset=-2 / threads=12 / lookahead_threads=2 / sliced_threads=0 / nr=0 / decimate=0 / interlaced=0 / bluray_compat=0 / constrained_intra=0 / bframes=9 / b_pyramid=2 / b_adapt=2 / b_bias=0 / direct=3 / weightb=1 / open_gop=0 / weightp=2 / keyint=240 / keyint_min=23 / scenecut=40 / intra_refresh=0 / rc_lookahead=40 / rc=2pass / mbtree=0 / bitrate=7666 / ratetol=1.0 / qcomp=0.75 / qpmin=0 / qpmax=69 / qpstep=4 / cplxblur=20.0 / qblur=0.5 / vbv_maxrate=50000 / vbv_bufsize=62500 / nal_hrd=none / filler=0 / ip_ratio=1.40 / pb_ratio=1.30 / aq=3:0.90 Язык : English Default : Да Forced : Нет

Аудио Идентификатор : 2 Формат : AC-3 Формат/Информация : Audio Coding 3 Расширение режима : CM (complete main) Параметр Endianness формата : Big Идентификатор кодека : A_AC3 Продолжительность : 2 ч. 13 м. Вид битрейта : Постоянный Битрейт : 384 Кбит/сек Каналы : 6 каналов Расположение каналов : Front: L C R, Side: L R, LFE Частота : 48,0 КГц Частота кадров : 31,250 кадров/сек (1536 spf) Метод сжатия : С потерями Размер потока : 367 Мбайт (5%) Язык : Russian Default : Да Forced : Нет

Текст #1 Идентификатор : 3 Формат : UTF-8 Идентификатор кодека : S_TEXT/UTF8 Идентификатор кодека/Информация : UTF-8 Plain Text Заголовок : FORCED Язык : Russian Default : Да Forced : Нет

Текст #2 Идентификатор : 4 Формат : UTF-8 Идентификатор кодека : S_TEXT/UTF8 Идентификатор кодека/Информация : UTF-8 Plain Text Заголовок : FULL Язык : Russian Default : Нет Forced : Нет

Меню 00:00:00.000 : en:Chapter 1 00:00:48.798 : en:Chapter 2 00:01:28.046 : en:Chapter 3 00:02:03.164 : en:Chapter 4 00:02:26.646 : en:Chapter 5 00:05:35.001 : en:Chapter 6 00:06:03.446 : en:Chapter 7 00:06:29.305 : en:Chapter 8 00:08:58.120 : en:Chapter 9 00:10:57.698 : en:Chapter 10 00:12:25.870 : en:Chapter 11 00:13:49.119 : en:Chapter 12 00:17:48.108 : en:Chapter 13 00:20:50.749 : en:Chapter 14 00:21:22.072 : en:Chapter 15 00:22:00.986 : en:Chapter 16 00:24:23.587 : en:Chapter 17 00:25:52.133 : en:Chapter 18 00:26:44.519 : en:Chapter 19 00:28:12.941 : en:Chapter 20 00:29:11.708 : en:Chapter 21 00:32:25.276 : en:Chapter 22 00:33:03.231 : en:Chapter 23 00:34:14.343 : en:Chapter 24 00:34:35.198 : en:Chapter 25 00:37:10.895 : en:Chapter 26 00:38:13.833 : en:Chapter 27 00:40:53.242 : en:Chapter 28 00:41:52.218 : en:Chapter 29 00:45:03.033 : en:Chapter 30 00:46:25.324 : en:Chapter 31 00:48:24.484 : en:Chapter 32 00:51:06.313 : en:Chapter 33 00:52:41.366 : en:Chapter 34 00:55:30.285 : en:Chapter 35 00:58:41.559 : en:Chapter 36 00:59:33.611 : en:Chapter 37 01:00:02.390 : en:Chapter 38 01:00:15.445 : en:Chapter 39 01:00:29.792 : en:Chapter 40 01:00:56.235 : en:Chapter 41 01:01:19.342 : en:Chapter 42 01:03:25.551 : en:Chapter 43 01:05:08.279 : en:Chapter 44 01:06:21.978 : en:Chapter 45 01:06:47.086 : en:Chapter 46 01:07:23.289 : en:Chapter 47 01:10:11.040 : en:Chapter 48 01:11:20.776 : en:Chapter 49 01:12:53.285 : en:Chapter 50 01:14:51.987 : en:Chapter 51 01:15:45.832 : en:Chapter 52 01:16:56.320 : en:Chapter 53 01:18:42.092 : en:Chapter 54 01:19:12.247 : en:Chapter 55 01:20:22.234 : en:Chapter 56 01:21:00.730 : en:Chapter 57 01:23:33.758 : en:Chapter 58 01:27:21.319 : en:Chapter 59 01:28:49.949 : en:Chapter 60 01:32:38.219 : en:Chapter 61 01:33:23.723 : en:Chapter 62 01:34:00.092 : en:Chapter 63 01:35:21.006 : en:Chapter 64 01:36:48.886 : en:Chapter 65 01:38:46.295 : en:Chapter 66 01:40:48.000 : en:Chapter 67 01:42:08.122 : en:Chapter 68 01:43:39.838 : en:Chapter 69 01:45:07.050 : en:Chapter 70 01:46:23.835 : en:Chapter 71 01:47:19.182 : en:Chapter 72 01:48:07.522 : en:Chapter 73 01:49:07.207 : en:Chapter 74 01:50:14.733 : en:Chapter 75 01:52:24.654 : en:Chapter 76 01:54:01.251 : en:Chapter 77 01:56:02.038 : en:Chapter 78 01:58:04.077 : en:Chapter 79 01:59:28.870 : en:Chapter 80 02:00:14.624 : en:Chapter 81 02:01:11.973 : en:Chapter 82 02:02:21.917 : en:Chapter 83

krutor.org


Смотрите также