Новый человек паук torrent


rutor.org :: Новый Человек-паук / The Amazing Spider-Man (2012) BDRip от New-Team | D

Новый Человек-паук / The Amazing Spider-Man (2012)

Страна: СШАЖанр: фантастика, боевик, приключенияСлоган: «Новый герой, новая история, новая любовь»Год выпуска: 2012Продолжительность: 02:16:17Перевод: Профессиональный (дублированный)Cубтитры: нетРежиссер: Марк Уэбб / Marc Webb

В ролях: Эндрю Гарфилд, Эмма Стоун, Рис Иванс, Дэнис Лири, Мартин Шин, Салли Филд, Эмбет Дэвидц, Кэмпбелл Скотт, Ирфан Кхан, Крис Зилка

Описание: В детстве Питер Паркер был оставлен своими родителями, и поэтому воспитывался дядей и тётей. Шли годы, Питер был обычным примерным школьником, подвергался нападкам хулиганов и был влюблён в свою одноклассницу Гвен Стэйси, которая сама втайне отвечала ему взаимностью. Но после укуса генетически изменённого паука, Питер получает невероятные сверхспособности и его жизнь меняется навсегда. Однако его не перестаёт мучить вопрос о том, что случилось с его родителями. Он знакомится с давним другом и партнёром своего отца — генетиком Куртом Коннорсом, который вместе с отцом Питера разрабатывал формулу регенерации. Питер помогает её закончить, а Коннорс, всю жизнь мечтавший восстановить свою правую руку, вводит формулу себе и становится Ящером. Осознавая свою вину, Питер начинает новую жизнь в образе таинственного супергероя Человека-паука и становится грозой преступников, одновременно пытаясь найти способ остановить Коннорса.

Качество видео: BDRip / источник: BDRemuxФормат видео: AVI

Видео: 720x304 (2.37:1), 23.976 fps, XviD build 65, 1132 kbps avg, 0.22 bit/pixelАудио: AC3 Dolby Digital, 48 kHz, 6 ch, 384 kbps | DubСемпл: скачать

Релиз от: Автор рипа:

Скриншоты

Интересные факты

  • Классический персонаж вселенной Marvel был придуман Стэном Ли и Стивом Дитко. Впервые супергерой появился в издании «Amazing Fantasy» в 1962 году. Персонаж произвел такой фурор, что вскоре был переименован в «Удивительного Человека-Паука» (Amazing Spider-Man). В новом амплуа герой вновь появился на страницах комиксов в марте 1963 года.
  • Хорошо известная фанатам серии о Человеке-Пауке Гвен Стэйси впервые появилась на страницах комиксов в декабре 1965 года, в 31-м выпуске об Удивительном Человеке-Пауке.
  • Ящер — классический злодей вселенной Marvel. Впервые читателей с ним познакомили в 1963 году на страницах шестого выпуска об Удивительном Человеке-Пауке.
  • Съемки фильма проходили в павильонах студии Sony Pictures и на натурных площадках Лос-Анджелеса. Несколько недель съемочная группа провела в студии Universal, используя павильонную инсталляцию улиц Нью-Йорка, а также натурную площадку озера Фолс.
  • Лабораторию Oscorp выстроили в тридцатом павильоне студии Sony — она стала самой крупной площадкой. Судя по планировке, помещение занимало около 1300 м2. На постройку и декорирование ушло 12 недель.
  • В интерьерах школы Мидтауна снималось много сцен с трюками и спецэффектами. Поэтому было решено в точности и почти полностью воссоздать их на территории павильона N15 на киностудии Sony. Одна из крупнейших инсталляций включала четыре учебных зала, пять коридоров, туалет, кабинет директора и офис секретаря.
  • Экстерьеры школы снимались на территории двух действующих школ в Южной Калифорнии.
  • Школьная библиотека по сценарию должна была стать площадкой для захватывающего и весьма динамичного поединка, и требовала подготовки отдельной съемочной площадки. Для заполнения библиотечных полок реквизиторы приготовили фальшивые книги — настоящие обложки, заполненные пенопластом. Если выстроить их в один ряд, получилась бы линия длиной более 900 метров.
  • После окончания съемок в Лос-Анджелесе съемочная группа переехала в Нью-Йорк. Съемки велись в экстерьерах Вест Сайда, Манхэттена, Виндзорской площади в Бруклине и под навесным мостом в Вудсайде (район Квинс).
  • Линзы для костюма Человека-Паука были выполнены сотрудниками компании, которые занимаются разработкой оптики для военных и космонавтов. Линзы были окрашены в синий цвет, обработаны специальным антибликовым слоем. На поверхность был нанесен рисунок шестигранника золотой краской.
  • На создание сетемётов авторов вдохновили тонкие кожаные напульсники, популярные в 60-х и 70-х, которые были призваны защитить стекло наручных часов от повреждений.
  • Готовясь к роли доктора Коннорса, Ивансу пришлось серьезно изучить образ жизни одноруких людей. Кроме того, актер частенько наведывался в научные библиотеки, наблюдая за учеными за работой. Он провел много времени, изучая синдромы мутаций и наблюдая за жизнью рептилий.
  • На место режиссера также рассматривались Гэри Росс, Майкл Бэй, Джеймс Кэмерон, Кэтрин Бигилоу, Дэвид Финчер и Уэс Андерсон.
  • Перед тем как Эндрю Гарфилд был утвержден на главную роль, Тэйлор Лотнер, Джош Хатчерсон, Джозеф Гордон-Левитт, Логан Лерман, Роберт Паттинсон, Джейми Белл, Дэниэл Рэдклифф, Майкл Ангарано, Майкл Сера, Олден Эйренрайк, Зак Эфрон, Аарон Тейлор-Джонсон, Завьер Сэмюэл, Джим Стёрджесс и Антон Ельчин рассматривались на эту роль.
  • На роль доктора Курта Коннорса изначально рассматривался Майкл Фассбендер, но, в конечном счете, он ушел играть Магнето в «Люди Икс: Первый класс» (2011). Позже ходили слухи, о том, что эту роль мог получить Кристоф Вальц, с которым они вместе играли в фильме «Бесславные ублюдки» (2009).
  • Эндрю Гарфилд был утвержден на главную роль в начале июля 2010 года.
  • И Тоби Магуайр и Эндрю Гарфилд начинали с фильмов Терри Гиллиама, прежде чем получили роль Питера Паркера/Человека-паука. Магуайр снялся в «Страх и ненависть в Лас-Вегасе» (1998), а Гарфилд в фильме «Воображариум доктора Парнаса» (2009), и в том и в другом фильме так же снимался Джонни Депп.
  • При выборе Эндрю Гарфилда на роль Питера Паркера, режиссер Марк Уэбб сказал: «Хотя его имя может быть новым для многих, те, кто знает работы этого молодого актера поймут его необычайный талант. В нем присутствует редкое сочетание ума, остроумия и человечности. Запомните мои слова, вы полюбите Эндрю Гарфилда в роли Питера Паркера».
  • Эшли Грин, Миа Васиковска, Скаут Тэйлор-Комптон, Тереза Палмер, Эмбер Хёрд, Дианна Агрон, Бруклин Декер, Имоджен Путс, Линдси Лохан, Эмма Робертс, Эмили Браунинг, Лили Коллинз, Анна Кендрик, Офелия Ловибонд, Сара Пэкстон, Мэри Элизабет Уинстэд, Джорджина Хэйг, Хилари Дафф и Доминик МакЭллигот рассматривались на роль Гвен Стейси, но в итоге её получила Эмма Стоун.
  • В этом фильме впервые показывается как доктор Курт Коннорс (Рис Иванс) превращается в Ящера. Хотя Курт Коннорс появлялся в оригинальном фильме Сэма Рэйми, там его играл Дилан Бейкер, этот персонаж никогда не превращался в Ящера, несмотря на явные намеки.
  • Мартин Шин второй раз играл роль персонажа, которого до этого уже играл Клифф Робертсон. Ранее это было, когда они играли Джона Ф. Кеннеди в мини-сериале «Кеннеди» (1983) и в фильме «PT 109» (1963) соответственно.
  • Эмма Стоун (Гвен Стэйси) и Салли Филд (тетя Мэй) родились в один день — 6 ноября.
  • Это первый фильм о Человеке-пауке, в котором не показывается его возлюбленная Мэри-Джейн Уотсон (которую в трех оригинальных фильмах играет Кирстен Данст). Вместо этого в качестве девушки Питера Паркера появляется Гвен Стейси (которую в третьем фильме сыграла Брайс Даллас Ховард).
  • Все четыре фильма о Человеке-пауке сняты на съемочной площадке Universal Studios в Голливуде. По иронии судьбы сложилось так, что часть съемочной площадки сгорела 1 июня 2008 года, и получилось, что три первых фильма снимались на старой площадке, а четвертый фильм уже на новой.
  • Первоначально, редактор Daily Bugle Джей Джей Джеймсон был в сценарии и Дж. К. Симмонс собирался сыграть эту роль, так же как и в фильме Рэйми. Позже Джон Слэттери, Сэм Эллиотт и Р. Ли Эрми рассматривались на эту роль. Однако, после фокусировки внимания на средней школе, часть сценария о газете была вырезана.
  • Продюсер фильма Лора Зискин скончалась 12 июня 2011 года.
  • Рис Иванс отказался от дублеров и настоял на том, чтобы самому исполнять трюки Ящера.
  • Для роли Ящера Рис Иванс носил специальный костюм для захвата движения: «У меня был зеленый костюм, и еще картонная голова, и огромные когти. Это была самая безумная вещь, которую я когда-либо делал…».
  • Авторы фильма отметили, что на создание фильма повлияла ранняя работа Стива Дитко в «Человек-паук» (2002), и комикс Брайан Бендиса «Современный Человек-Паук», а так же фильм «Бэтмен: Начало» (2005).
  • Энн Хэтэуэй, которая собиралась сниматься в этом фильме в роли Фелиции Харди, в итоге снялась в фильме «Темный рыцарь: Возрождение легенды» (2012) в роли Женщины-кошки (Селины Кайл).
  • Фильм стал первым в Голливуде, снятым на камеру «RED Epic».
  • Эндрю Гарфилд признался, что пустил слезу, когда впервые надел костюм Человека-паука.
  • Ирфан Кхан получил роль доктора Рата благодаря своей игре в сериале «Лечение» (2008).
  • В этом фильме капитан Джордж Стейси выступает категорически против деятельности Человека-паука, а Гвен Стэйси одновременно и знает об этом и поддерживает Питера в роли Человека-паука. Это резко контрастирует с комиксами, где Джордж Стейси был сторонником паука, и признался на смертном одре, что ему было известно о личности Питера Паркера, в то время как Гвен обвинила Человека-паука в смерти ее отца, и Питер никогда не раскрывал ей секрет своей личности.
  • Чтобы подготовиться к роли Человека-паука, Эндрю Гарфилд изучал движения пауков и старался использовать это по максимуму: «Паркер — мальчик/паук в плане того как он движется, и при том не только в костюме».
  • В этом фильме Человек-паук использует специальные устройства, чтобы стрелять паутиной, созданные по образу тех, что он использует в комиксах. Марк Уэбб объяснил, что это было сделано специально для демонстрации интеллекта Питера Паркера: «Мы хотели подчеркнуть, что эти устройства Питер сделал сам, и что он особенный по своей природе, даже если он не ощущает себя таким».
  • По словам дизайнера Ким Баррет, костюм Человека-паука был специально разработан так, чтобы напоминать костюм акробата: «Мы хотели сделать костюм таким, чтобы в нем тело выглядело более длинным и гибким, и символ паука на груди тоже был использован, чтобы подчеркнуть это».
  • Друг Дэниса Лири — Джефф Гарлин (фанат Человека-паука) сказал ему: «Первый раз, когда я тебя встретил, я подумал, что ты Джордж Стейси!». Это вдохновило Лири на прохождение прослушивания для роли капитана Стейси.
  • Создатели фильма решили постараться снять большую часть трюков вживую, чтобы меньше использовать компьютерную анимацию. Марк Уэбб объяснил это тем, что они хотели сделать фильм более реалистичным. Во время съемок в Нью-Йорке Риверсайд-драйв была на сотни футов застроена вспомогательными конструкциями, а Энди Армстронг построил установку для автомобиля с множеством тросов в помощь визуализаторам.
  • Изначально Сэм Рэйми собирался заниматься режиссурой фильма «Новый Человек-паук», со следующими актерами: Тоби Магуайр (Питер Паркер), Кирстен Данст (Мэри Джейн Уотсон), Розмари Харрис (Мэй Паркер), Дж. К. Симмонс (Дж. Джон Джеймсон), Билл Нанн (Джо «Робби» Робертсон), Брайс Даллас Ховард (Гвен Стейси), Джеймс Кромуэлл (капитан Джордж Стейси) и Дилан Бейкер (доктор Курт Коннорс), все подписались сыграть свои роли. Тоби Магуайр получил бы самый большой гонорар из этой команды актеров, который составил бы 50 млн. долларов, правда не за один фильм, а за четвертого и пятого Человека-паука вместе. Но в итоге Рэйми и Sony не сошлись во мнениях, как лучше рассказать новую историю о Человеке-пауке. Рэйми покинул проект и вместе с ним ушел Магуайр. В начале января 2010 года Sony объявила, что они решили обновить франшизу с помощью новой истории и новых актеров.
  • Сэм Рэйми хотел включить в фильм только одного злодея — Дилана Бейкера в роли доктора Курта Коннорса, чтобы он наконец-то превратился в Ящера. Бейкер согласился сниматься, но Sony запретила Рэйми использовать Ящера как злодея, потому что они хранили его для роли злодея в сценарии, написанном Вандербилтом, в котором не было никаких связей с продолжением от Рэйми (в итоге по этому сценарию сняли «Нового Человека-паука»). Это произошло потому, что они были не уверены в том, что именно Рэйми будет заниматься этим проектом. После такого запрета Рэйми решил использовать Стервятника, но Sony не хотели делать Стервятника главным злодеем. Им казалось, что он не был ни серьезным соперником, ни достаточно популярным злодеем для Человека-паука. И они боялись, что после выхода фильма в прокат, слишком много непроданных игрушек в виде Стервятника будет лежать на полках магазинов. Это разногласие в конечном итоге заставило Сэма Рэйми покинуть проект. Как ни странно, главным противником Человека-паука в последнем фильме все же стал Ящер.
  • Марк Уэбб описывает основную тему фильма как «недостающее звено в каждом из нас: у Питера нет родителей, и он заполняет эту пустоту Человеком-пауком. Курт не так силен, как Человек-паук, но он хочет вернуть свою руку и заполнить эту пустоту, и, по сути, он становится большим хулиганом».
  • Когда Питер впервые заходит в комнату Гвен, прямо у окна, через которое он входит, стоит стопка книг. Верхняя книга в стопке это роман «Seabiscuit» (Фаворит). Тоби Магуайр, сыгравший роль Питера в оригинальной трилогии, так же исполнял роль главного героя в экранизации романа «Фаворит» (2003).
  • Во время одной из сцен в спальне Питера можно заметить фотографию актера Дональда Гловера. В 2010 году, когда фильм только был анонсирован и еще проходил кастинг на роль Человека-паука, Гловер организовал целую твиттер-кампанию для того, чтобы попасть на прослушивание.
  • Широко известная реплика Бена Паркера «с большой силой приходит большая ответственность» ни разу не была произнесена в фильме.
  • Когда Человек-паук проносится по Нью-Йорку, раскачиваясь на своей паутине, в один момент он кричит: «Hey, I`m swinging here!» (Эй, я качаюсь здесь!). Это ссылка на известную в Нью-Йорке импровизацию Дастина Хоффмана из «Полуночный ковбой» (1969) «Hey, I«m walking here!» (Эй, я здесь иду!)
  • Когда Питер толкает Флэша у шкафчиков слышно «крик Вильгельма».
  • Офис газеты «Daily Bugle» (и все связные с ним персонажи) не фигурируют в этом фильме, в первом из всех фильмов про Человека-паука. Тем не менее, ближе к концу фильма выпуск новостей с неистовым Ящером идет с логотипом «Daily Bugle» в нижнем углу экрана.
  • В одной из финальных сцен, в комнате Питера Паркера, можно заметить постер к фильму Альфреда Хичкока — «Окно во двор» (Rear Window).
  • Ближе к концу фильма, когда Питер Паркер открывает дверь, чтобы поговорить с Гвен, Питер открывает стеклянную дверь веранды и номер дома раскрашен в золотой и черный цвета. Когда он закрывает дверь, цифры просто белого цвета.
  • Когда доктор Коннорс становится Ящером, он становится куда более массивным, чем в своем обычном состоянии. Логично, что его одежда при этом должна порваться, а он остаться голым. Тем не менее, после первого превращения его показывают в халате.
  • Когда Питер впервые разговаривает с Гвен в школьном коридоре, он снимает оба наушника, а в следующей сцене видно, что в правом ухе наушник остался, и на протяжении всего их разговора заметны свисающие провода.
  • После ужина с семьей Стейси Питер и Гвен целуются на крыше. Мама Гвен зовет ее в дом. Прежде чем уйти она оборачивается, чтобы увидеть, как Питер прыгает с крыши и устремляется на вой сирен. У него нет его рюкзака. В следующей сцене, рюкзак появляется, Питер достает из него свой костюм.
  • Когда Питер впервые сталкивается со своей силой в ванной, количество зубной пасты на зеркале меняется от кадра к кадру.
  • Когда Человек-паук спасает Джека из внедорожника, свисающего с моста, он дает Джеку свою маску. Когда он вытащил мальчика из машины, тот все еще в маске, после чего, когда они поднялись на мост, маска уже на Человеке-пауке. Не понятно, каким образом он надел маску, если одной рукой он держал Джека, а другой контролировал паутину, на которой они висели.
  • Когда в доме доктора Коннорса Питер протягивает ему чашку кофе, видно, что он держит кружку сверху, а в следующем кадре он уже держит ее снизу.
  • main-rutor.org

    Скачать Новый Человек-паук через торрент

    Категория: Фильмы 7675 0 Торрент добавлен: 15-04-2015 Рейтинг:

    Жанр: Фэнтези, боевик, триллер, приключения Производство: США Продолжительность: 01:59:49 Режиссер: Марк Уэбб / Marc Webb В ролях: Эндрю Гарфилд, Эмма Стоун, Рис Иванс, Дэнис Лири, Мартин Шин, Салли Филд, Эмбет Дэвидц, Кэмпбелл Скотт, Ирфан Кхан, Крис Зилка

    Новый фильм повествует о старой истории одинокого, не совсем успешного в жизни и делах, молодого человека. Хороший парень безнадежно, давно и тайно влюблен в девушку своих грез – свою одноклассницу. История картины банальна, знакома, но, по-прежнему захватывает своим развитием сюжета. В этом фильма на прошлом сюжете построена новая любовь, новые отношения, раскрыты характеры и эмоции новых героев. А новый сюжет закручен еще интереснее и азартней предыдущего.

    Трейлер к фильму Новый Человек-паук

    Новый Человек-паук скачать торрент

    Кодек: MPEG-4Качество: Blu-RayВидео: AVC Video,25393 kbps,1920*1080p / 23.976 fps / 16:9 / High Profile 4.1Звук: Аудио: Dolby Digital Audio,Russian,640 kbps,5.1 / 48 kHz / 640 kbps 64,45 Gb

    скачать

    Качество: BDRip (источник: Blu-ray Disc) Видео: 1920x800 (2,40:1), 23.976 fps, 6874 kbps Звук: AC-3, 6 ch, 640 kbps (Rus) Профессиональный (дублированный)

    7,76 Gb

    скачать

    3DКонтейнер: MKVФормат 3D: Half OverUnder / Вертикальная анаморфная стереопараПорядок ракурсов: левый ракурс первыйКодек: x264Качество: BDRip 1080 3-DВидео: AVC / 23,976 fps / 1920х1080p / 5746 KbpsЗвук: - Русский / AC3 / 48 KHz / 5.1 ch / 640 Kbps

    7,45 Gb

    Кодек: XviDКачество: HDRipВидео: 720x304, 23.976 fps, ~1139 kbpsЗвук: 48 kHz, 6 ch, ~384 kbps(AC3)Проф. (полное дублирование)

    скачать

    Вы находитесь на странице, где можете совершенно бесплатно скачать фильм Новый Человек-паук в хорошем качестве через торрент, в любом формате, который больше всего вам на данный момент подходит. Скачивание осуществляется через торрент, что означает максимально высокую скорость загрузки. Желаем Вам приятного просмотра!. Не забудь поделиться своими впечатлениями после того как посмотришь фильм Новый Человек-паук.

    Информация Посетители, находящиеся в группе Гости, не могут оставлять комментарии к данной публикации.

    psp-gu.ru

    Обсуждение Фильмов - Новый Человек-паук

    Фильмы: Новый Человек-паук / The Amazing Spider-Man (2012) Подробнее

    Новая интерпретация истории о человеке-пауке. Обычного школьника Питера Паркера, которого все считали неудачником и занудой, в один прекрасный день кусает паук-мутант, после чего с нескладным юношей происходит фантастическая метаморфоза.

    Darth Vader 166

    Возраст:7 Мужской

    Сообщений: 384 Ждём!!! lady gaga 1

    Возраст:7 не указан

    Сообщений: 21

    костюм фигня, и ваще пытатся выехать из за отличного бренда делая на него копию-пародию ето не то ... хм

    фильм будет супер Rez13 103

    Возраст:25 Женский

    Сообщений: 251

    Нет идеальных людей, но есть хорошие люди как я)

    обожаю паука, жаль конечно что начали снимать сначала, ну что же поделаешь, жду Ayaz ZORO 60

    Возраст:216 не указан

    Сообщений: 78 жаль только что другой актер играет паучка! italianezz

    Возраст:29 Мужской

    Сообщений: 33

    Жаль только, что все чаще на роль супергероя выбирают какого-нибудь сосунка...

    SSSWW 753

    Возраст:25 Мужской

    Сообщений: 2605

    Санта-паук-барбара )))

    Darth Vader 166

    Возраст:7 Мужской

    Сообщений: 384

    Ferord пишет:

    Санта-паук-барбара )))

    Better late than never

    Darth Vader пишет:

    Ferord пишет:

    Санта-паук-барбара )))

    Всеми руками и ногами полностью согласен

    Trainsman 122

    Возраст:23 Мужской

    Сообщений: 183

    Жду недождусь уже))А посмотреть смогу лиш ближе к октябрю. Когда на двд выйдет (

    Только позитив

    Думаю все интересное вы уже посмотрели на скринах и сполерахНо надеюсь что я ошибаюсь.

    От судьбы не убежишь особенно со сломанными ногами...

    alien360 49

    Возраст:36 не указан

    Сообщений: 60

    Trainsman пишет:

    Жду недождусь уже)) А посмотреть смогу лиш ближе к октябрю. Когда на двд выйдет ( А в кинотеатр сходить ,религия не позволяет...???

    Знаменитые вещи не всегда так хороши, как о них говорят

    Уверен, что новый паучок будет не хуже старого

    Trainsman пишет:

    Жду недождусь уже)) А посмотреть смогу лиш ближе к октябрю. Когда на двд выйдет ( а в кино что не как?

    Продолжение будет 2014 года

    Lok31 112

    Возраст:28 Мужской

    Сообщений: 100

    Дорогу Хулиганам!

    Заценим как выйдит twall 57

    Возраст:27 Мужской

    Сообщений: 938

    Ну и зачем дразнить людей подпольным детищем каких то +ебков, кода Дата выхода в России (или в Мире): 05.07.2012 Дата выхода на DVD: 30.10.2012 !

    Nocturnal 198

    Возраст:7 Мужской

    Сообщений: 29485

    twall, вы о чем вообще? Кто кого дразнит? В этом разделе размешаются предстоящие новинки, это для того чтобы люди были в курсе и знали даты премьер ожидаемых ими фильмов, могли посмотреть трейлеры и кадры.

    Будьте добры соблюдать простые правила поведения на сайте!

    http://embed.prostopleer.com/list?id=1061970YlVz

    Админ 11 17

    Возраст:8 не указан

    Сообщений: 4629

    По непонятным причинам фильм стали показывать в ряде кинотеатров до официальной даты проката в России.

    Множество вопросов таких как: проблемы со скачиванием торрент файла; нет звука или изображения; фильм скачался на английском; что значит CamRip, Telesync, DVDRip; и многое другое - смотрим здесь !!! F.A.Q. !!! Задаем вопросы на форуме! Личные сообщения - для личных вопросов! Rubin Good 3

    Возраст:28 Мужской

    Сообщений: 65

    Старый Человек Паук всё же на много лучше нового...

    saskin

    Karma:+0 / -2

    [+] [-]

    Возраст:Не указан не указан

    Сообщений: 2 ОТСТОЙ ПОЛНЕЙШИЙ! тупо переснятый человек ПУК! Два раза были моменты WOW: когда ребенка спас и еще один раз, фсе осталmное тупо переснятая версия первого человека Пука которая намного лучше!!! saskin

    Karma:+0 / -2

    [+] [-]

    Возраст:Не указан не указан

    Сообщений: 2

    Хорошо что в кинотеатр не пошел!

    ●Sam● 30 497

    Возраст:27 Мужской

    Сообщений: 1325

    Любитель хороших фильмов, а так же сериалов.

    alexromanov123 пишет:

    Продолжение будет 2014 года Ох бро,ну ты и обрадовал)))

    10-ка любимых сериалов 1 )Во все тяжкие 2 )Игра престолов 3 )Настоящий детектив 4 )Ходячие мертвецы 5 )Остаться в живых 6 )Стрела 7 )Спартак(Кровь и песок,Боги арены) 8 )Декстер 9 )Сверхъестественное 10 )Флэш

    Верь своему сердцу...

    Блин не пойму нафига римейк сделали на еще не совсем старенький фильм...мож еще Аватара переделают...сняли бы лучше римейк на "Гайвер1-2" например...а то чет походу вообще идеи кончились в голливуде... Lucario

    Возраст:26 Мужской

    Сообщений: 179

    Чубрик пишет:

    Блин не пойму нафига римейк сделали на еще не совсем старенький фильм...мож еще Аватара переделают...сняли бы лучше римейк на "Гайвер1-2" например...а то чет походу вообще идеи кончились в голливуде...

    Какой ремейк, ау, Вы о чем? Это совершенно другая история паучка, построенная на первых оригинальных комиксах!

    Скажу, что фильм получился просто опупительным. Гарфилд максимально передал паучка из комиксов! 5+ Надеюсь на продолжение!

    caxapok 29

    Возраст:30 Мужской

    Сообщений: 312 Думал будет жалкая копия,но....нет,отлично переснят на новый лад,новую историю.5+++

    Вы не можете оставлять больше 10 комментариев в сутки!

    www.fast-torrent.ru

    Высокое напряжение (2014) через торрент

    16 февраля 2016 08:08 Новый Человек-паук: Высокое напряжение / The Amazing Spider-Man 2: Rise of Electro (2014) HDRip от Scarabey | Лицензия .torrent   [Информация о файле (нажмите для просмотра)] Перевод: Профессиональный (полное дублирование)Видео: 720x304 (2.37:1), 23.976 fps, XviD build 73 ~1749 kbps avg, 0.33 bit/pixelАудио: 48 kHz, AC3 Dolby Digital, 3/2 (L,C,R,l,r) + LFE ch, ~448.00 kbps avg 2,18 Gb 598 12 16 февраля 2016 08:08 Новый Человек-паук: Высокое напряжение / The Amazing Spider-Man 2 (2014) BDRip от New-Team | D | Лицензия .torrent   [Информация о файле (нажмите для просмотра)] Перевод: Профессиональный (дублированный)|Лицензия - Blu-ray CEE|Видео: 720x304 (2.35:1), 23.976 fps, XviD 65 ~1811 kbps avg, 0.345 bit/pixelАудио: 48 kHz, AC3 Dolby Digital, 3/2 (L,C,R,l,r) + LFE ch, 384.00 kbps Constant |Дубляж, 2,18 Gb 89 6 16 февраля 2016 08:08 Новый Человек-паук: Высокое напряжение / The Amazing Spider-Man 2 (2014) BDRip от New-Team | D | Лицензия .torrent   [Информация о файле (нажмите для просмотра)] Перевод: Профессиональный (дублированный)|Лицензия - Blu-ray CEE|Видео: 720x304 (2.35:1), 23.976 fps, XviD 65 ~1265 kbps avg, 0.241 bit/pixelАудио: 48 kHz, AC3 Dolby Digital, 2/0 (L,R) ch, 192 kbps Constant |Дубляж, 1,45 Gb 192 4 16 февраля 2016 08:08 Новый Человек-паук: Высокое напряжение / The Amazing Spider-Man 2 (2014) BDRip 720p от ExKinoRay | Лицензия .torrent   [Информация о файле (нажмите для просмотра)] Качество: BDRip (720p)Видео: MPEG-4 AVC, 7273 Кбит/с, 1280x534, 23.976 кадр/сАудио: Русский, украинский, казахский (AC3, 6 ch, 640 Кбит/с), английский (DTS, 6 ch, 1536 Кбит/с), (AC3, 6 ch, 448 Кбит/с), (AC3, 2 ch, 192 Кбит/с)Перевод: ДублированныйСубтитры: Русские, украинские, английскиеВидео: Идентификатор : 1 Формат : AVC Формат/Информация : Advanced Video Codec Профиль формата : [email protected] Параметр CABAC формата : Да Параметр ReFrames формата : 9 кадров Идентификатор кодека : V_MPEG4/ISO/AVC Продолжительность : 2 ч. 21 м. Битрейт : 7273 Кбит/сек Ширина : 1280 пикселей Высота : 534 пикселя Соотношение сторон : 2,40:1 Режим частоты кадров : Постоянный Частота кадров : 23,976 кадра/сек Цветовое пространство : YUV Субдискретизация насыщенности : 4:2:0 Битовая глубина : 8 бит Тип развёртки : Прогрессивная Бит/(Пиксели*Кадры) : 0.444 Размер потока : 6,97 Гбайт (62%) Заголовок : Novyi.Chelovek-pauk.Vysokoe.napryazhenie Библиотека кодирования : x264 core 142 r2431 ac76440 Настройки программы : cabac=1 / ref=9 / deblock=1:-3:-3 / analyse=0x3:0x133 / me=tesa / subme=11 / psy=1 / psy_rd=1.00:0.15 / mixed_ref=1 / me_range=32 / chroma_me=1 / trellis=2 / 8x8dct=1 / cqm=0 / deadzone=21,11 / fast_pskip=0 / chroma_qp_offset=-3 / threads=8 / lookahead_threads=1 / sliced_threads=0 / nr=0 / decimate=0 / interlaced=0 / bluray_compat=0 / constrained_intra=0 / bframes=9 / b_pyramid=2 / b_adapt=2 / b_bias=0 / direct=3 / weightb=1 / open_gop=0 / weightp=2 / keyint=240 / keyint_min=23 / scenecut=40 / intra_refresh=0 / rc_lookahead=60 / rc=2pass / mbtree=1 / bitrate=7273 / ratetol=1.0 / qcomp=0.60 / qpmin=0 / qpmax=69 / qpstep=4 / cplxblur=20.0 / qblur=0.5 / vbv_maxrate=62500 / vbv_bufsize=78125 / nal_hrd=none / filler=0 / ip_ratio=1.40 / aq=1:1.00 Язык : English Default : Да Forced : ДаАудио #1: Идентификатор : 2 Формат : AC-3 Формат/Информация : Audio Coding 3 Расширение режима : CM (complete main) Параметр Endianness формата : Big Идентификатор кодека : A_AC3 Продолжительность : 2 ч. 21 м. Вид битрейта : Постоянный Битрейт : 640 Кбит/сек Каналы : 6 каналов Расположение каналов : Front: L C R, Side: L R, LFE Частота : 48,0 КГц Битовая глубина : 16 бит Метод сжатия : С потерями Размер потока : 648 Мбайт (6%) Заголовок : DUB - Blu-Ray CEE Язык : Russian Default : Да Forced : ДаАудио #2: Идентификатор : 3 Формат : AC-3 Формат/Информация : Audio Coding 3 Расширение режима : CM (complete main) Параметр Endianness формата : Big Идентификатор кодека : A_AC3 Продолжительность : 2 ч. 21 м. Вид битрейта : Постоянный Битрейт : 640 Кбит/сек Каналы : 6 каналов Расположение каналов : Front: L C R, Side: L R, LFE Частота : 48,0 КГц Битовая глубина : 16 бит Метод сжатия : С потерями Размер потока : 648 Мбайт (6%) Заголовок : DUB - Blu-Ray CEE Язык : Ukrainian Default : Нет Forced : НетАудио #3: Идентификатор : 4 Формат : AC-3 Формат/Информация : Audio Coding 3 Расширение режима : CM (complete main) Параметр Endianness формата : Big Идентификатор кодека : A_AC3 Продолжительность : 2 ч. 21 м. Вид битрейта : Постоянный Битрейт : 640 Кбит/сек Каналы : 6 каналов Расположение каналов : Front: L C R, Side: L R, LFE Частота : 48,0 КГц Битовая глубина : 16 бит Метод сжатия : С потерями Размер потока : 648 Мбайт (6%) Заголовок : DUB - Blu-Ray CEE Язык : Kazakh Default : Нет Forced : НетАудио #4: Идентификатор : 5 Формат : DTS Формат/Информация : Digital Theater Systems Режим : 16 Параметр Endianness формата : Big Идентификатор кодека : A_DTS Продолжительность : 2 ч. 21 м. Вид битрейта : Постоянный Битрейт : 1509 Кбит/сек Каналы : 6 каналов Расположение каналов : Front: L C R, Side: L R, LFE Частота : 48,0 КГц Битовая глубина : 24 бит Метод сжатия : С потерями Задержка видео : 11 мс. Размер потока : 1,49 Гбайт (13%) Заголовок : Original Язык : English Default : Нет Forced : НетАудио #5: Идентификатор : 6 Формат : AC-3 Формат/Информация : Audio Coding 3 Расширение режима : CM (complete main) Параметр Endianness формата : Big Идентификатор кодека : A_AC3 Продолжительность : 2 ч. 21 м. Вид битрейта : Постоянный Битрейт : 448 Кбит/сек Каналы : 6 каналов Расположение каналов : Front: L C R, Side: L R, LFE Частота : 48,0 КГц Битовая глубина : 16 бит Метод сжатия : С потерями Размер потока : 454 Мбайт (4%) Заголовок : Deive Язык : English Default : Нет Forced : НетАудио #6: Идентификатор : 7 Формат : AC-3 Формат/Информация : Audio Coding 3 Профиль формата : Dolby Digital Расширение режима : CM (complete main) Параметр Endianness формата : Big Идентификатор кодека : A_AC3 Продолжительность : 2 ч. 21 м. Вид битрейта : Постоянный Битрейт : 192 Кбит/сек Каналы : 2 канала Расположение каналов : Front: L R Частота : 48,0 КГц Битовая глубина : 16 бит Метод сжатия : С потерями Размер потока : 194 Мбайт (2%) Заголовок : Commentary Язык : English Default : Нет Forced : Нет 11,22 Gb 23 1 16 февраля 2016 08:08 Новый Человек-паук: Высокое напряжение / The Amazing Spider-Man 2 (2014) BDRip 720p от Leonardo and Scarabey | Лицензия .torrent   [Информация о файле (нажмите для просмотра)] Перевод: Профессиональный (полное дублирование) ЛицензияФормат: MKVВидео кодек: MPEG-4 AVC Аудио кодек: AC3Видео: AVC, 1280x534 (2.40:1) at 23.976 fps, AVC at 3480 kbps avg, 0.212 bit/pixelАудио: Russian: 48 kHz; AC3 5.1; 640.00 kbps avgСубтитры: Русские, английские 4,15 Gb 163 5 16 февраля 2016 08:08 Новый Человек-паук: Высокое напряжение / The Amazing Spider-Man 2 (2014) BDRip-AVC от Leo.pard and Scarabey | Лицензия .torrent   [Информация о файле (нажмите для просмотра)] Перевод: Профессиональный (дублированный) лицензияФормат: MKVВидео: x264, 736x304 (2.40:1), 700 Kbps, 23.976 fpsАудио: AAC, 72 Kbps, 48 KHz, 2 channelsСубтитры: Русские (форсированные, полные), украинские (форсированные), английские (Full, SDH, SDH-Colored) 784,1 Mb 59 5 16 февраля 2016 08:08 Новый Человек-паук: Высокое напряжение / The Amazing Spider-Man 2: Rise of Electro (2014) BDRip 1080p 3D от Interfilm .torrent   [Информация о файле (нажмите для просмотра)] Перевод: Профессиональный дублированный (лицензия)Кодек: MKVКачество: BDRip 1080pВидео: 1920x1080 at 23.976 fps, [email protected], ~14300 kbps avgЗвук: Aудио#1: Russian: 48 kHz, AC3, 3/2 (L,C,R,l,r) + LFE ch, ~640.00 kbps avg |Дубляж, Blu-ray CEE| Аудио#2: English: 48 kHz, DTS, 3/2 (L,C,R,l,r) + LFE ch, ~1536.00 kbps avg Aудио#3: English: 48 kHz, AC3, 2/0 (L,R) ch, ~192.00 kbps avg |Commentary with Writers Alex Kurtzman and Jeff Pinkner and Producers Matt Tolmach and Avi Arad| Aудио#4: English: 48 kHz, AC3, 3/2 (L,C,R,l,r) + LFE ch, ~448.00 kbps avg |Deive| 17,13 Gb 20 5 16 февраля 2016 08:08 Новый Человек-паук: Высокое напряжение / The Amazing Spider-Man 2 (2014) BDRip-AVC от HELLYWOOD | Лицензия .torrent   [Информация о файле (нажмите для просмотра)] Перевод: Профессиональный (полное дублирование) [BD CEE]Субтитры: Русские (полные + форс.), русские (комментарии), украинские (форс.), английские (Full + SDH + SDH-Colored + Songs + Comments)Качество: BDRip-AVCФормат: MKVВидео: х.264, 912x380 (2,40:1), 23.976 fps, 1287 kbps, 0.155 bit/pixelАудио: 48 kHz, AC3 Dolby Digital, 2/0 (L,R) ch, 192.00 kbps 1,47 Gb 33 2 16 февраля 2016 08:08 Новый Человек-паук: Высокое напряжение / The Amazing Spider-Man 2 (2014) BDRip 720p от HELLYWOOD | Лицензия .torrent   [Информация о файле (нажмите для просмотра)] Перевод: Профессиональный (полное дублирование) [BD CEE]Субтитры: Русские (полные + форс.), русские (комментарии), украинские (форс.), английские (Full + SDH + SDH-Colored + Songs + Comments)Качество: BDRip 720pФормат: MKVВидео: х.264, 1280x534 (2,40:1), 23.976 fps, 6181 Кbps, 0.377 bit/pixelАудио#1: 48 kHz, AC3 Dolby Digital, 3/2 (L,C,R,l,r) + LFE ch, 640.00 kbps |RUSАудио#2: 48 kHz, AC3 Dolby Digital, 3/2 (L,C,R,l,r) + LFE ch, 640.00 kbps |UKRАудио#3: 48 kHz, AC3 Dolby Digital, 3/2 (L,C,R,l,r) + LFE ch, 640.00 kbps |ENG 8,01 Gb 9 2 16 февраля 2016 08:08 Новый Человек-паук: Высокое напряжение / The Amazing Spider-Man 2 (2014) BDRip-AVC от HELLYWOOD | Лицензия .torrent   [Информация о файле (нажмите для просмотра)] Перевод: Профессиональный (полное дублирование) [BD CEE]Субтитры: Русские (полные + форс.), русские (комментарии), украинские (форс.), английские (Full + SDH + SDH-Colored + Songs + Comments)Качество: BDRip-AVCФормат: MKVВидео: х.264, 1056x440 (2,40:1), 23,976 fps, 2051 kbps, 0.184 bit/pixelАудио#1: 48 kHz, AC3 Dolby Digital, 3/2 (L,C,R,l,r) + LFE ch, 448.00 kbps |RUSАудио#2: 48 kHz, AC3 Dolby Digital, 3/2 (L,C,R,l,r) + LFE ch, 448.00 kbps |ENG 2,92 Gb 22 1 16 февраля 2016 08:08 Новый Человек-паук: Высокое напряжение / The Amazing Spider-Man 2 (2014) BDRip-AVC от HQCLUB | Лицензия .torrent   [Информация о файле (нажмите для просмотра)] Перевод: Профессиональный (полное дублирование) + Оригинал (английский)Субтитры: русские (полные, форсированные), английские (полные, полные SDH, полные SDH Colored)Формат: MKVКачество: BDRip-AVC (источник / Blu-ray Disc EUR / 1080p)Видео: 1024x426 (2.40:1), 23.976 fps, MPEG-4 AVC, ~2180 kbps avg, 0.208 bit/pixelАудио #1: 48 kHz, AC3 Dolby Digital, 3/2 (L,C,R,l,r) + LFE ch, ~384 kbps (DUB)Аудио #2: 48 kHz, AC3 Dolby Digital, 3/2 (L,C,R,l,r) + LFE ch, ~384 kbps (ENG)Аудио #3: 48 kHz, AC3 Dolby Digital, 3/2 (L,C,R,l,r) + LFE ch, ~384 kbps (UKR.DUB)(отдельно)Видео: Идентификатор : 1 Формат : AVC Формат/Информация : Advanced Video Codec Профиль формата : [email protected] Параметр CABAC формата : Да Параметр ReFrames формата : 15 кадров Идентификатор кодека : V_MPEG4/ISO/AVC Продолжительность : 2 ч. 21 м. Битрейт : 2180 Кбит/сек Ширина : 1024 пикселя Высота : 426 пикселей Соотношение сторон : 2,40:1 Режим частоты кадров : Постоянный Частота кадров : 23,976 кадра/сек Цветовое пространство : YUV Субдискретизация насыщенности : 4:2:0 Битовая глубина : 8 бит Тип развёртки : Прогрессивная Бит/(Пиксели*Кадры) : 0.208 Размер потока : 2,10 Гбайт (72%) Заголовок : Новый Человек-паук: Высокое напряжение / The Amazing Spider-Man 2 (2014) BDRip-AVC by HQCLUB [Elheym] Библиотека кодирования : x264 core 142 r2453 ea0ca51 Настройки программы : cabac=1 / ref=15 / deblock=1:-3:-2 / analyse=0x3:0x113 / me=umh / subme=11 / psy=1 / psy_rd=1.00:0.00 / mixed_ref=1 / me_range=32 / chroma_me=1 / trellis=2 / 8x8dct=1 / cqm=0 / deadzone=21,11 / fast_pskip=1 / chroma_qp_offset=-4 / threads=6 / lookahead_threads=1 / sliced_threads=0 / nr=0 / decimate=1 / interlaced=0 / bluray_compat=0 / constrained_intra=0 / bframes=12 / b_pyramid=2 / b_adapt=2 / b_bias=0 / direct=3 / weightb=1 / open_gop=0 / weightp=2 / keyint=240 / keyint_min=23 / scenecut=40 / intra_refresh=0 / rc_lookahead=40 / rc=2pass / mbtree=1 / bitrate=2180 / ratetol=1.0 / qcomp=0.60 / qpmin=10 / qpmax=69 / qpstep=4 / cplxblur=20.0 / qblur=0.5 / vbv_maxrate=50000 / vbv_bufsize=62500 / nal_hrd=none / filler=0 / ip_ratio=1.40 / aq=1:0.90 Язык : English Default : Да Forced : НетАудио #1: Идентификатор : 2 Формат : AC-3 Формат/Информация : Audio Coding 3 Расширение режима : CM (complete main) Параметр Endianness формата : Big Идентификатор кодека : A_AC3 Продолжительность : 2 ч. 21 м. Вид битрейта : Постоянный Битрейт : 384 Кбит/сек Каналы : 6 каналов Расположение каналов : Front: L C R, Side: L R, LFE Частота : 48,0 КГц Битовая глубина : 16 бит Метод сжатия : С потерями Размер потока : 389 Мбайт (13%) Заголовок : АС3 5.1 @ 384 kbps - Dub, EUR Язык : Russian Default : Нет Forced : НетАудио #2: Идентификатор : 3 Формат : AC-3 Формат/Информация : Audio Coding 3 Расширение режима : CM (complete main) Параметр Endianness формата : Big Идентификатор кодека : A_AC3 Продолжительность : 2 ч. 21 м. Вид битрейта : Постоянный Битрейт : 384 Кбит/сек Каналы : 6 каналов Расположение каналов : Front: L C R, Side: L R, LFE Частота : 48,0 КГц Битовая глубина : 16 бит Метод сжатия : С потерями Размер потока : 389 Мбайт (13%) Заголовок : АС3 5.1 @ 384 kbps - Original Язык : English Default : Нет Forced : Нет 2,92 Gb 14 2 16 февраля 2016 08:08 Новый Человек-паук: Высокое напряжение / The Amazing Spider-Man 2 (2014) BDRip 1080p от Ash61 | 3D-Video | halfOU | Лицензия .torrent   [Информация о файле (нажмите для просмотра)] Перевод: Профессиональный дублированный (лицензия)Качество: BDRip (byAsh61)Контейнер: MKVВидео: AVC / 23,976 fps /1920х1080p / 11.5 MbpsАудио: #1 - Русский / AC3 / 48 KHz / 5.1 ch / 640 Kbps (Дубляж - BD CEE)Субтитры: (SRT) 13,57 Gb 30 4 16 февраля 2016 08:08 Новый Человек-паук: Высокое напряжение / The Amazing Spider-Man 2 (2014) BDRip 720p от Hot-Film | Лицензия .torrent   [Информация о файле (нажмите для просмотра)] Перевод: Профессиональный (дублированный) [Лицензия]Качество: BDRip 720pВидео: 1280x534 (2.40:1) at 23.976 fps, AVC at 3183 kbps avg, 0.194 bit/pixelАудио: Русский, английский (АС3, 6 ch, 448 Кбит/с)Субтитры: Русские (форс, полные), Английские 4,03 Gb 45 1 16 февраля 2016 08:08 Новый Человек-паук: Высокое напряжение / The Amazing Spider-Man 2: Rise of Electro (2014) BDRemux 1080p от NovaLan | Лицензия .torrent   [Информация о файле (нажмите для просмотра)] Перевод: Дублированный(Лицензия)Кодек: H.264Качество: Blu-Ray Remux 1080pВидео: MPEG-4 AVC, 22893 Кбит/с, 1920х1080, 23.976 кадр/сЗвук: Русский (AC3, 6 ch, 640 Кбит/с), украинский (AC3, 6 ch, 640 Кбит/с), английский (DTS-HD MA, 6 ch, 2373 Кбит/с), (AC3, 2 ch, 192 Кбит/с)Субтитры: Русские, английскиеВидео: Идентификатор : 1 Формат : AVC Формат/Информация : Advanced Video Codec Профиль формата : [email protected] Параметр CABAC формата : Да Параметр ReFrames формата : 2 кадра Параметр GOP формата : M=1, N=10 Идентификатор кодека : V_MPEG4/ISO/AVC Продолжительность : 2 ч. 21 м. Вид битрейта : Переменный Битрейт : 22,7 Мбит/сек Ширина : 1920 пикселей Высота : 1080 пикселей Соотношение сторон : 16:9 Частота кадров : 23,976 кадра/сек Цветовое пространство : YUV Субдискретизация насыщенности : 4:2:0 Битовая глубина : 8 бит Тип развёртки : Прогрессивная Бит/(Пиксели*Кадры) : 0.456 Размер потока : 22,4 Гбайт (85%) Заголовок : The Amazing Spider-Man 2: Rise of Electro 2014 - NovaLan Default : Да Forced : НетАудио #1: Идентификатор : 2 Формат : AC-3 Формат/Информация : Audio Coding 3 Расширение режима : CM (complete main) Параметр Endianness формата : Big Идентификатор кодека : A_AC3 Продолжительность : 2 ч. 21 м. Вид битрейта : Постоянный Битрейт : 640 Кбит/сек Каналы : 6 каналов Расположение каналов : Front: L C R, Side: L R, LFE Частота : 48,0 КГц Битовая глубина : 16 бит Метод сжатия : С потерями Размер потока : 648 Мбайт (2%) Язык : Russian Default : Да Forced : НетАудио #2: Идентификатор : 3 Формат : AC-3 Формат/Информация : Audio Coding 3 Расширение режима : CM (complete main) Параметр Endianness формата : Big Идентификатор кодека : A_AC3 Продолжительность : 2 ч. 21 м. Вид битрейта : Постоянный Битрейт : 640 Кбит/сек Каналы : 6 каналов Расположение каналов : Front: L C R, Side: L R, LFE Частота : 48,0 КГц Битовая глубина : 16 бит Метод сжатия : С потерями Размер потока : 648 Мбайт (2%) Язык : Ukrainian Default : Нет Forced : НетАудио #3: Идентификатор : 4 Формат : DTS Формат/Информация : Digital Theater Systems Профиль формата : MA / Core Идентификатор кодека : A_DTS Продолжительность : 2 ч. 21 м. Вид битрейта : Переменный Битрейт : 2059 Кбит/сек / 1510 Кбит/сек Каналы : 6 каналов Расположение каналов : Front: L C R, Side: L R, LFE Частота : 48,0 КГц Битовая глубина : 16 бит Метод сжатия : Без потерь / Lossy Язык : English Default : Нет Forced : НетАудио #4: Идентификатор : 5 Формат : AC-3 Формат/Информация : Audio Coding 3 Профиль формата : Dolby Digital Расширение режима : CM (complete main) Параметр Endianness формата : Big Идентификатор кодека : A_AC3 Продолжительность : 2 ч. 21 м. Вид битрейта : Постоянный Битрейт : 192 Кбит/сек Каналы : 2 канала Расположение каналов : Front: L R Частота : 48,0 КГц Битовая глубина : 16 бит Метод сжатия : С потерями Размер потока : 194 Мбайт (1%) Язык : English Default : Нет Forced : Нет 26,45 Gb 5 1 16 февраля 2016 08:08 Новый Человек-паук: Высокое напряжение / The Amazing Spider-Man 2: Rise of Electro (2014) BDRip 1080p .torrent   [Информация о файле (нажмите для просмотра)] Перевод: Профессиональный (полное дублирование) Blu-ray CEEСубтитры: Русские {Forced, Full, Commentary}, английские {Full, SDH, SDH-Colored}Формат: MatroskaВидео: 1920x800 at 23.976 fps, [email protected], ~11135 kbps avgАудио#3: English: 48 kHz, DTS, 3/2 (L,C,R,l,r) + LFE ch, ~1536.00 kbps avg 14,41 Gb 71 16 16 февраля 2016 08:08 Новый Человек-паук: Высокое напряжение / The Amazing Spider-Man 2 (2014) BDRip 720p от HQ-ViDEO | Лицензия .torrent   [Информация о файле (нажмите для просмотра)] Перевод: Профессиональный дублированный /Лицензия BD-CEE/Субтитры: Русские (форс. + полные), АнглийскиеВидео: x.264, 1280x534 (2.40:1), ~6348 kbps avg, 23,976 fpsАудио #1: AC3 Dolby Digital, 48 KHz, ~640 kbps, 3/2 (L,C,R,l,r) + LFE ch/RUS/Аудио #2: AC3 Dolby Digital, 48 KHz, ~640 kbps, 3/2 (L,C,R,l,r) + LFE ch/UKR/Аудио #3: AC3 Dolby Digital, 48 KHz, ~640 kbps, 3/2 (L,C,R,l,r) + LFE ch/ENG/ 8,18 Gb 17 3 16 февраля 2016 08:07 Новый Человек-паук: Высокое напряжение 2D, 3D / The Amazing Spider-Man 2: Rise of Electro (2014) BDRemux от ExKinoRay | 3D-Video | Лицензия .torrent   [Информация о файле (нажмите для просмотра)] Качество: Blu-Ray Remux (1080p)Видео: MPEG-4 AVC, 20992 Кбит/с, 1920х1080, 23.976 кадр/сАудио: Русский, украинский, казахский (AC3, 6 ch, 448 Кбит/с), английский (DTS-HD MA, 6 ch, 2373 Кбит/с)Перевод: ДублированныйСубтитры: Русские, латышские, литовские, эстонские, английские 35,15 Gb 8 2 16 февраля 2016 08:07 Новый Человек-паук: Высокое напряжение / The Amazing Spider-Man 2 (2014) Blu-ray 3D 1080p от HDClub .torrent   [Информация о файле (нажмите для просмотра)] Видео: MPEG-4 AVC Video 20992 kbps 1080p / 23,976 fps / 16:9 / High Profile 4.1Аудио: DTS-HD Master Audio English 2373 kbps 5.1 / 48 kHz / 2373 kbps / 16-bit (DTS Core: 5.1 / 48 kHz / 1509 kbps / 16-bit) Dolby Digital Audio Czech 448 kbps 5.1 / 48 kHz / 448 kbps Dolby Digital Audio Kazakh 448 kbps 5.1 / 48 kHz / 448 kbps Dolby Digital Audio Russian 448 kbps 5.1 / 48 kHz / 448 kbps Dolby Digital Audio Ukrainian 448 kbps 5.1 / 48 kHz / 448 kbps Dolby Digital Audio English 192 kbps 2.0 / 48 kHz / 192 kbps / Dolby Surround 39,45 Gb 7 4 16 февраля 2016 08:07 Новый Человек-паук: Высокое напряжение / The Amazing Spider-Man 2: Rise of Electro (2014) HDRip от Scarabey | iTunes .torrent   [Информация о файле (нажмите для просмотра)] Перевод: Профессиональный (полное дублирование) - iTunesВидео: 720x304 (2.37:1), 23.976 fps, XviD build 73 ~1811 kbps avg, 0.34 bit/pixelАудио: 48 kHz, AC3 Dolby Digital, 3/2 (L,C,R,l,r) + LFE ch, ~384 kbps 2,18 Gb 5 2 16 февраля 2016 08:07 Новый Человек-паук: Высокое напряжение / The Amazing Spider-Man 2: Rise of Electro (2014) BDRip 720p от NNNB | 60 fps | iTunes .torrent   [Информация о файле (нажмите для просмотра)] Перевод: Дублированный (iTunes)Качество: BDRip 720p (исходник Blu-ray Disc)Видео: 1280x534, 5360 Кбит/сек, 59.940 кадр/сек, AVC, x264, [email protected], 2.40:1, 0.131 Бит/[Пиксели*Кадры]Аудио 1: AC-3, 384 Кбит/сек, 6 канала(ов), 48,0 КГц - Дублированный / РусскийАудио 2: AC-3, 640 Кбит/сек, 6 канала(ов), 48,0 КГц - Оригинал / АнглийскийСубтитры: Русские | Полные, Английские | Полные 6,32 Gb 53 5 16 февраля 2016 08:07 Новый Человек-паук: Высокое напряжение / The Amazing Spider-Man 2: Rise of Electro (2014) BDRip-AVC от ExKinoRay | iTunes .torrent   [Информация о файле (нажмите для просмотра)] Качество: BDRip (AVC) (исх. The.Amazing.Spider.Man.2.Rise.of.Electro.2014.BDRemux.1080p.NovaLan)Видео: MPEG-4 AVC, 2385 Кбит/с, 1024x426Аудио: Русский, английский (AC3, 6 ch, 384 Кбит/с)Перевод: ДублированныйСубтитры: Русские (форсированные, полные), английские 3,12 Gb 17 1 16 февраля 2016 08:07 Новый Человек-паук: Высокое напряжение / The Amazing Spider-Man 2 (2014) BDRip-AVC | iPad | D | iTunes .torrent   [Информация о файле (нажмите для просмотра)] Перевод: Русский дублированныйКодек: H.264Качество: BDRip-AVC [576p]Видео: 1024x428 (2.40:1) at 23.976 fps, AVC at 3000 kbpsЗвук: 1: АAС 2.0 140 kbps - Русский дублированный (iTunes) 2: АAС 2.0 140 kbps - АнглийскийСубтитры: Русский, Английский 3,35 Gb 4 3 16 февраля 2016 08:07 Новый Человек-паук: Высокое напряжение / The Amazing Spider-Man 2: Rise of Electro (2014) BDRip 1080p | iTunes .torrent   [Информация о файле (нажмите для просмотра)] Перевод: Дублированный (iTunes)Кодек: MPEG-4 AVCКачество: BDRip 1080pВидео: 11135 Кбит/с, 1920x800Звук: Русский (AC3, 6 ch, 384 Кбит/с), украинский (AC3, 2 ch, 192 Кбит/с), английский (DTS, 6 ch, 1509 Кбит/с)Субтитры: Русские, английскиеВидео: Идентификатор : 1 Формат : AVC Формат/Информация : Advanced Video Codec Профиль формата : [email protected] Параметр CABAC формата : Да Параметр ReFrames формата : 5 кадров Идентификатор кодека : V_MPEG4/ISO/AVC Продолжительность : 2 ч. 21 м. Битрейт : 11,1 Мбит/сек Ширина : 1920 пикселей Высота : 800 пикселей Соотношение сторон : 2,40:1 Режим частоты кадров : Постоянный Частота кадров : 23,976 кадра/сек Цветовое пространство : YUV Субдискретизация насыщенности : 4:2:0 Битовая глубина : 8 бит Тип развёртки : Прогрессивная Бит/(Пиксели*Кадры) : 0.302 Размер потока : 10,8 Гбайт (82%) Библиотека кодирования : x264 core 138 r2356 a1d3d17 Настройки программы : cabac=1 / ref=5 / deblock=1:-3:-3 / analyse=0x3:0x113 / me=umh / subme=10 / psy=1 / psy_rd=1.00:0.05 / mixed_ref=1 / me_range=32 / chroma_me=1 / trellis=2 / 8x8dct=1 / cqm=0 / deadzone=21,11 / fast_pskip=0 / chroma_qp_offset=-2 / threads=18 / lookahead_threads=1 / sliced_threads=0 / nr=0 / decimate=1 / interlaced=0 / bluray_compat=0 / constrained_intra=0 / bframes=5 / b_pyramid=2 / b_adapt=2 / b_bias=0 / direct=3 / weightb=1 / open_gop=0 / weightp=2 / keyint=250 / keyint_min=23 / scenecut=40 / intra_refresh=0 / rc=2pass / mbtree=0 / bitrate=11135 / ratetol=1.0 / qcomp=0.70 / qpmin=0 / qpmax=69 / qpstep=4 / cplxblur=20.0 / qblur=0.5 / ip_ratio=1.40 / pb_ratio=1.30 / aq=2:1.00 Язык : English Default : Нет Forced : НетАудио #1: Идентификатор : 2 Формат : AC-3 Формат/Информация : Audio Coding 3 Расширение режима : CM (complete main) Параметр Endianness формата : Big Идентификатор кодека : A_AC3 Продолжительность : 2 ч. 21 м. Вид битрейта : Постоянный Битрейт : 384 Кбит/сек Каналы : 6 каналов Расположение каналов : Front: L C R, Side: L R, LFE Частота : 48,0 КГц Битовая глубина : 16 бит Метод сжатия : С потерями Размер потока : 389 Мбайт (3%) Заголовок : DUB (iTunes) Язык : Russian Default : Да Forced : НетАудио #2: Идентификатор : 3 Формат : AC-3 Формат/Информация : Audio Coding 3 Расширение режима : CM (complete main) Параметр Endianness формата : Big Идентификатор кодека : A_AC3 Продолжительность : 2 ч. 21 м. Вид битрейта : Постоянный Битрейт : 192 Кбит/сек Каналы : 2 канала Расположение каналов : Front: L R Частота : 48,0 КГц Битовая глубина : 16 бит Метод сжатия : С потерями Размер потока : 194 Мбайт (1%) Заголовок : DUB (iTunes) Язык : Ukrainian Default : Нет Forced : НетАудио #3: Идентификатор : 4 Формат : DTS Формат/Информация : Digital Theater Systems Режим : 16 Параметр Endianness формата : Big Идентификатор кодека : A_DTS Продолжительность : 2 ч. 21 м. Вид битрейта : Постоянный Битрейт : 1509 Кбит/сек Каналы : 6 каналов Расположение каналов : Front: L C R, Side: L R, LFE Частота : 48,0 КГц Битовая глубина : 24 бит Метод сжатия : С потерями Размер потока : 1,49 Гбайт (11%) Язык : English Default : Нет Forced : Нет 13,08 Gb 70 7 16 февраля 2016 08:07 Новый Человек-паук: Высокое напряжение / The Amazing Spider-Man 2: Rise of Electro (2014) BDRip 720p | iTunes .torrent   [Информация о файле (нажмите для просмотра)] Перевод: Дублированный (iTunes)Кодек: MPEG-4 AVCКачество: BDRip 720pВидео: 5066 Кбит/с, 1280x534Звук: Русский (AC3, 6 ch, 384 Кбит/с), украинский (AC3, 2 ch, 192 Кбит/с), английский (DTS, 6 ch, 1509 Кбит/с)Субтитры: Русские, английскиеВидео: Идентификатор : 1 Формат : AVC Формат/Информация : Advanced Video Codec Профиль формата : [email protected] Параметр CABAC формата : Да Параметр ReFrames формата : 10 кадров Идентификатор кодека : V_MPEG4/ISO/AVC Продолжительность : 2 ч. 21 м. Битрейт : 5066 Кбит/сек Ширина : 1280 пикселей Высота : 534 пикселя Соотношение сторон : 2,40:1 Режим частоты кадров : Постоянный Частота кадров : 23,976 кадра/сек Цветовое пространство : YUV Субдискретизация насыщенности : 4:2:0 Битовая глубина : 8 бит Тип развёртки : Прогрессивная Бит/(Пиксели*Кадры) : 0.309 Размер потока : 4,87 Гбайт (69%) Библиотека кодирования : x264 core 138 r2356 a1d3d17 Настройки программы : cabac=1 / ref=10 / deblock=1:-3:-3 / analyse=0x3:0x113 / me=umh / subme=10 / psy=1 / psy_rd=1.00:0.05 / mixed_ref=1 / me_range=32 / chroma_me=1 / trellis=2 / 8x8dct=1 / cqm=0 / deadzone=21,11 / fast_pskip=0 / chroma_qp_offset=-2 / threads=18 / lookahead_threads=1 / sliced_threads=0 / nr=0 / decimate=1 / interlaced=0 / bluray_compat=0 / constrained_intra=0 / bframes=5 / b_pyramid=2 / b_adapt=2 / b_bias=0 / direct=3 / weightb=1 / open_gop=0 / weightp=2 / keyint=250 / keyint_min=23 / scenecut=40 / intra_refresh=0 / rc=2pass / mbtree=0 / bitrate=5066 / ratetol=1.0 / qcomp=0.70 / qpmin=0 / qpmax=69 / qpstep=4 / cplxblur=20.0 / qblur=0.5 / ip_ratio=1.40 / pb_ratio=1.30 / aq=2:1.00 Язык : English Default : Да Forced : НетАудио #1: Идентификатор : 2 Формат : AC-3 Формат/Информация : Audio Coding 3 Расширение режима : CM (complete main) Параметр Endianness формата : Big Идентификатор кодека : A_AC3 Продолжительность : 2 ч. 21 м. Вид битрейта : Постоянный Битрейт : 384 Кбит/сек Каналы : 6 каналов Расположение каналов : Front: L C R, Side: L R, LFE Частота : 48,0 КГц Битовая глубина : 16 бит Метод сжатия : С потерями Размер потока : 389 Мбайт (5%) Заголовок : DUB (iTunes) Язык : Russian Default : Да Forced : НетАудио #2: Идентификатор : 3 Формат : AC-3 Формат/Информация : Audio Coding 3 Расширение режима : CM (complete main) Параметр Endianness формата : Big Идентификатор кодека : A_AC3 Продолжительность : 2 ч. 21 м. Вид битрейта : Постоянный Битрейт : 192 Кбит/сек Каналы : 2 канала Расположение каналов : Front: L R Частота : 48,0 КГц Битовая глубина : 16 бит Метод сжатия : С потерями Размер потока : 194 Мбайт (3%) Заголовок : DUB (iTunes) Язык : Ukrainian Default : Нет Forced : НетАудио #3: Идентификатор : 4 Формат : DTS Формат/Информация : Digital Theater Systems Режим : 16 Параметр Endianness формата : Big Идентификатор кодека : A_DTS Продолжительность : 2 ч. 21 м. Вид битрейта : Постоянный Битрейт : 1509 Кбит/сек Каналы : 6 каналов Расположение каналов : Front: L C R, Side: L R, LFE Частота : 48,0 КГц Битовая глубина : 24 бит Метод сжатия : С потерями Размер потока : 1,49 Гбайт (21%) Язык : English Default : Нет Forced : Нет 7,07 Gb 98 4 16 февраля 2016 08:07 Новый Человек-паук: Высокое напряжение / The Amazing Spider-Man 2 (2014) WEBDLRip-AVC | iPhone | iTunes .torrent   [Информация о файле (нажмите для просмотра)] Перевод: Русский дублированныйКодек: H.264Качество: WEBDLRip-AVC [480p]Видео: [email protected] (2.40:1) at 23.976 fps, AVC at 2000 kbpsЗвук: 1: АAС 2.0 140 kbps - Русский дублированный (iTunes) 2: АAС 2.0 140 kbps - АнглийскийСубтитры: Русский, Английский 2,29 Gb 10 1 16 февраля 2016 08:07 Новый Человек-паук: Высокое напряжение / The Amazing Spider-Man 2: Rise of Electro (2014) WEB-DL 720p | iTunes .torrent   [Информация о файле (нажмите для просмотра)] Формат: MKVКачество: WEB-DL 720pВидео: 1280x532 at 23.976 fps, MPEG-4 AVC, ~4000 kbps avgСубтитры: Russian (Forced, iTunes), Russian (iTunes), English (iTunes) 4,93 Gb 46 2

    gig-torrent.net


    Смотрите также