Скачать фильм ольга 2017 через торрент


2 / Серии 1-20 из 20 [2017 HDTVRip] + скачать через торрент

Раздают: 29 [ 1 MB/s ] Качают: 21 [ 2 MB/s ]
Размер: 5.66 GB | Добавлен: 18 д. назад | Торрент скачан:207 раз
Реклама Дарим 3000 рублей за регистрацию, не упусти свой шанс получить шикарный бонус!!!

04-09-2017 11:26 Ольга Скачать торрент  

Ольга
  • Год выпуска: 2017
  • Страна: Россия
  • Жанр: комедия
  • Продолжительность: ~ 00:26:00 (Серия)
  • Перевод: Не требуется
  • Режиссер: Алексей Нужный, Игорь Волошин

  • В ролях: Яна Троянова, Василий Кортуков, Алина Алексеева, Мухаммед Абу-Ризик, Алина Алексеева (II), Василий Кортуков, Максим Костромыкин, Филипп Ершов, Александр Шам, Светлана Костюкова, Ирина Цывина, Сергей Гусенков
  • Главная героиня воспитывает двух детей от разных браков, заботится об отце-алкоголике и пытается наладить личную жизнь. Старшая дочь Анька учится в ПТУ, думает, что она единственный адекватный член семьи и в её жизни все будет по-другому, младший сын Тимофей, чей отец вернулся к первой семье в Азербайджан, считает, что он уже мужчина, хотя ему всего лишь 11 лет, отец Ольги, бывший футболист, крепко выпивает и постоянно врет, а сестра Ленка пытается жить за счет мужчин, в основном — женатых. Вечно спасая родственников от неприятностей, Ольга живет чужой жизнью и редко думает о себе — до тех пор, пока в нее не влюбляется молодой и положительный водитель газели «Ритуал» Гриша.
  • Качество: HDTVRip
  • Формат: : AVI
  • Видео кодек: XviD
  • Аудио кодек: AC-3
  • Видео: 1650 Кбит/сек, 720*400 (16:9), в 25,000 кадров/сек, MPEG-4 Visual (XviD)
  • Аудио №1: 192 Кбит/сек, 48,0 КГц, 16 бит, 2 канала, AC-3
  • Релиз от: 25KuzmichОбщееПолное имя : F:\Olga.s02.2017.HDTVRip.25Kuzmich\Olga.s02.e01.HDTVRip.25Kuzmich.aviФормат : AVIФормат/Информация : Audio Video InterleaveРазмер файла : 302 МбайтПродолжительность : 22 м. 50 с.Общий поток : 1852 Кбит/секПрограмма кодирования : VirtualDubMod 1.5.10.3 | www.virtualdub-fr.org || (build 2550/release)Библиотека кодирования : VirtualDubMod build 2550/release

    ВидеоИдентификатор : 0Формат : MPEG-4 VisualПрофиль формата : Advanced [email protected]Параметр BVOP формата : 1Параметр QPel формата : НетПараметр GMC формата : Без точки переходаПараметр матрицы формата : Default (MPEG)Идентификатор кодека : XVIDИдентификатор кодека/Подсказка : XviDПродолжительность : 22 м. 50 с.Битрейт : 1650 Кбит/секШирина : 720 пикселейВысота : 400 пикселейСоотношение сторон : 16:9Частота кадров : 25,000 кадров/секЦветовое пространство : YUVСубдискретизация насыщенности : 4:2:0Битовая глубина : 8 битТип развёртки : ПрогрессивнаяМетод сжатия : С потерямиБит/(Пиксели*Кадры) : 0.229Размер потока : 269 Мбайт (89%)Библиотека кодирования : XviD 1.2.1 (UTC 2008-12-04)

    АудиоИдентификатор : 1Формат : AC-3Формат/Информация : Audio Coding 3Параметр Endianness формата : BigИдентификатор кодека : 2000Продолжительность : 22 м. 50 с.Вид битрейта : ПостоянныйБитрейт : 192 Кбит/секКаналы : 2 каналаРасположение каналов : Front: L RЧастота : 48,0 КГцЧастота кадров : 31,250 кадров/сек (1536 SPF)Битовая глубина : 16 битМетод сжатия : С потерямиРазмер потока : 31,4 Мбайт (10%)Выравнивание : Разделение по промежуткамПродолжительность промежутка : 40 мс. (1,00 видеокадр)Время предзагрузки промежутка : 500 мс.ServiceKind/String : Complete Main

    Скриншоты:                      Раздача ведётся путём добавления новых серий. Добавлена 20 серия (05.10.2017).Просьба перекачать торрент файл.
  • Скачать Ольга через торрент https://st.kp.yandex.net/images/film_iphone/iphone360_940680.jpg Скачать фильм Ольга через торрент бесплантно в хорошем качестве qw.png Главная героиня воспитывает двух детей от разных браков, заботится об отце-алкоголике и пытается наладить личную жизнь. Старшая ... 2017-10-05 23:40 9.6 10 42

    Loading...

    Loading...

    Последний раз редактировалось: GEKADOL (2017-10-05 23:40), всего редактировалось 26 раз(а)

    Рекламный пират

    04-09-2017 14:14 Ольга Скачать торрент  

    Спасибо большое,очень понравился этот сериал,буду загружать по выходу их на сайте))))

    04-09-2017 17:10 Ольга Скачать торрент  

    04-09-2017 17:43 Ольга Скачать торрент  

    обещали 2 серии а есть одна, хотел посмотреть на тнт через торрент стрим а оно лагает(скорости хватает). как будь то сигнал на спутнике кривой

    15-09-2017 07:26 Ольга Скачать торрент  

    Где ольга в 720р ? вчера ещё ждал

    27-09-2017 16:16 Ольга Скачать торрент  

    где можно первый сезон скачать или посмотреть?

    28-09-2017 03:20 Ольга Скачать торрент  

    b2kbarada писал(а):

    где можно первый сезон скачать или посмотреть?

    Вот Ольга Сезон 1

    05-10-2017 08:36 Ольга Скачать торрент  

    Чет как то мрачно закончился сезон

    Дорогой пользователь! Огромная просьба, поблагодарите релизера, оцените раздачу и оставьте свои комментарий, если Вы скачали Ольга через торрент бесплатно! Внесите свою лепту в развитие PiratBit!

    Комментировать посты могут только пользователи прошедшие не сложную регистрацию

    Ольга через торрент Скачать бесплатно Ольга Ольга скачать торрент Ольга смотреть онлайн Cкачать фильм Ольга бесплатно Ольга скачать торрент в хорошем качестве Ольга смотреть онлайн бесплатно в хорошем качестве

    Вы не можете начинать темыВы не можете отвечать на сообщенияВы не можете редактировать свои сообщенияВы не можете удалять свои сообщенияВы не можете голосовать в опросахВы не можете прикреплять файлы к сообщениямВы можете скачивать файлы

    piratbit.ru

    Скачать торрент Ольга [S01-02] (2016-2017) WEB-DLRip от Generalfilm

    Информация о фильмеОригинальное название: ОльгаГод выпуска: 2016Жанр: Комедия, драмаРежиссёр: Алексей Нужный, Игорь ВолошинВ ролях: Яна Троянова, Василий Кортуков, Алина Алексеева, Ксения Суркова, Сергей Романович, Максим Костромыкин, Фархад Гусейнов, Борис Дергачев, Александр Шам, Александр Никольский

    О фильме: Ольга — обычная русская женщина, которая одна «воспитывает» детей от разных браков, отца-алкоголика и бесшабашную сестру. При этом она остаётся жизнерадостной, сохраняет оптимизм и верит в «светлое» будущее.

    Страна: РоссияСтудия: Good Story MediaПродолжительность: 40 x ~ 00:23:00Перевод: Не требуется

    ФайлФормат: MP4Качество: WEB-DLRip \| КПК Видео: MPEG-4 AVC (x264), 640x360, ~500 kbps, 25.000 fpsАудио: AAC LC, 48.0 KHz, 2 ch, 128 KbpsСубтитры: Нет

    Семпл

    MI

    Complete name : E:KinoOl'ga.AVC.KPK.GFOl'ga.S01.2016.AVC.WEB-DLRip.KPK.GFOl'ga.s01e20.2016.AVC.WEB-DLRip.KPK.GF.mp4 Format : MPEG-4 Codec ID : M4V (isom/iso2/avc1) File size : 106 MiB Duration : 23mn 17s Overall bit rate mode : Variable Overall bit rate : 634 Kbps Writing application : Lavf53.19.0

    Video ID : 1 Format : AVC Format/Info : Advanced Video Codec Format profile : [email protected] Format settings, CABAC : Yes Format settings, ReFrames : 8 frames Codec ID : avc1 Codec ID/Info : Advanced Video Coding Duration : 23mn 17s Bit rate : 500 Kbps Width : 640 pixels Height : 360 pixels Display aspect ratio : 16:9 Frame rate mode : Constant Frame rate : 25.000 fps Color space : YUV Chroma subsampling : 4:2:0 Bit depth : 8 bits Scan type : Progressive Bits/(Pixel*Frame) : 0.087 Stream size : 83.3 MiB (79%) Writing library : x264 core 146 r2538 121396c Encoding settings : cabac=1 / ref=8 / deblock=1:-1:-1 / analyse=0x3:0x133 / me=umh / subme=10 / psy=1 / psy_rd=1.00:0.00 / mixed_ref=1 / me_range=24 / chroma_me=1 / trellis=2 / 8x8dct=1 / cqm=0 / deadzone=21,11 / fast_pskip=1 / chroma_qp_offset=-2 / threads=12 / lookahead_threads=2 / sliced_threads=0 / nr=0 / decimate=1 / interlaced=0 / bluray_compat=0 / constrained_intra=0 / bframes=8 / b_pyramid=2 / b_adapt=2 / b_bias=0 / direct=3 / weightb=1 / open_gop=0 / weightp=2 / keyint=250 / keyint_min=126 / scenecut=40 / intra_refresh=0 / rc_lookahead=40 / rc=2pass / mbtree=1 / bitrate=500 / ratetol=1.0 / qcomp=0.60 / qpmin=0 / qpmax=69 / qpstep=4 / cplxblur=20.0 / qblur=0.5 / ip_ratio=1.40 / aq=1:1.00 Menus : 3

    Audio ID : 2 Format : AAC Format/Info : Advanced Audio Codec Format profile : LC Codec ID : 40 Duration : 23mn 17s Bit rate mode : Variable Bit rate : 128 Kbps Channel(s) : 2 channels Channel positions : Front: L R Sampling rate : 48.0 KHz Frame rate : 46.875 fps (1024 spf) Compression mode : Lossy Stream size : 21.2 MiB (20%) Default : Yes Alternate group : 1 Menus : 3

    Релиз от:

    krutor.org

    Скачать торрент Ольга [S02] (2017) WEB-DLRip от ivandubskoj

    Информация о фильмеОригинальное название: ОльгаГод выпуска: 2017Жанр: КомедияРежиссер: Алексей Нужный, Игорь ВолошинВ ролях: Яна Троянова, Ксения Суркова, Сергей Романович, Мухаммед Абу-Ризик, Алина Алексеева (II), Василий Кортуков, Максим Костромыкин, Филипп Ершов, Александр Шам, Светлана Костюкова, Ирина Цывина, Сергей Гусенков, Тимофей Зайцев

    О фильме: Главная героиня воспитывает двух детей от разных браков, заботится об отце-алкоголике и пытается наладить личную жизнь. Старшая дочь Анька учится в ПТУ, думает, что она единственный адекватный член семьи и в её жизни все будет по-другому, младший сын Тимофей, чей отец вернулся к первой семье в Азербайджан, считает, что он уже мужчина, хотя ему всего лишь 11 лет, отец Ольги, бывший футболист, крепко выпивает и постоянно врет, а сестра Ленка пытается жить за счет мужчин, в основном — женатых. Вечно спасая родственников от неприятностей, Ольга живет чужой жизнью и редко думает о себе — до тех пор, пока в нее не влюбляется молодой и положительный водитель газели «Ритуал» Гриша.

    Страна: Россия, Good Story MediaПродолжительность: ~ 00:23:00 / Серия

    ФайлКодек: XviDКачество: WEB-DLRipВидео: XviD, ~ 1800 Кбит/с, 720x400, 25 кадр/сАудио: MP3, 2 ch, 128 Кбит/с

    MediaInfo

    General Complete name : Ol'ga.s02.e01.2017.WEB-DLRip.avi Format : AVI Format/Info : Audio Video Interleave File size : 323 MiB Duration : 23mn 20s Overall bit rate : 1 938 Kbps Writing application : VirtualDubMod 1.5.10.3 | (build 2550/release) Writing library : VirtualDubMod build 2550/release

    Video ID : 0 Format : MPEG-4 Visual Format profile : Advanced [email protected] Format settings, BVOP : 1 Format settings, QPel : No Format settings, GMC : No warppoints Format settings, Matrix : Custom Codec ID : XVID Codec ID/Hint : XviD Duration : 23mn 20s Bit rate : 1 800 Kbps Width : 720 pixels Height : 400 pixels Display aspect ratio : 16:9 Frame rate : 25.000 fps Color space : YUV Chroma subsampling : 4:2:0 Bit depth : 8 bits Scan type : Progressive Compression mode : Lossy Bits/(Pixel*Frame) : 0.250 Stream size : 300 MiB (93%) Writing library : XviD 73

    Audio ID : 1 Format : MPEG Audio Format version : Version 1 Format profile : Layer 3 Codec ID : 55 Codec ID/Hint : MP3 Duration : 23mn 20s Bit rate mode : Constant Bit rate : 128 Kbps Channel(s) : 2 channels Sampling rate : 48.0 KHz Compression mode : Lossy Stream size : 21.4 MiB (7%) Alignment : Aligned on interleaves Interleave, duration : 40 ms (1.00 video frame) Interleave, preload duration : 504 ms Writing library : LAME3.99r Encoding settings : -m s -V 4 -q 0 -lowpass 17 -b 128

    Автор рипа - ivandubskoj

    krutor.org

    Скачать торрент Ольга [S02] (2017) HDTV 1080p от Generalfilm

    Оригинальное название: ОльгаГод выпуска: 2017Жанр: КомедияВыпущено: Россия, Good Story MediaРежиссер: Алексей Нужный, Игорь ВолошинВ ролях: Яна Троянова, Ксения Суркова, Сергей Романович, Мухаммед Абу-Ризик, Алина Алексеева (II), Василий Кортуков, Максим Костромыкин, Филипп Ершов, Александр Шам, Светлана Костюкова, Ирина Цывина, Сергей Гусенков, Тимофей ЗайцевРейтинг:О фильме: Главная героиня воспитывает двух детей от разных браков, заботится об отце-алкоголике и пытается наладить личную жизнь. Старшая дочь Анька учится в ПТУ, думает, что она единственный адекватный член семьи и в её жизни все будет по-другому, младший сын Тимофей, чей отец вернулся к первой семье в Азербайджан, считает, что он уже мужчина, хотя ему всего лишь 11 лет, отец Ольги, бывший футболист, крепко выпивает и постоянно врет, а сестра Ленка пытается жить за счет мужчин, в основном — женатых. Вечно спасая родственников от неприятностей, Ольга живет чужой жизнью и редко думает о себе — до тех пор, пока в нее не влюбляется молодой и положительный водитель газели «Ритуал» Гриша.Формат: MKVКачество: HDTV \(1080p\)Видео: AVC, 1920x1080 (16:9), 25.000 fps, 7 051 Kbps (0.136 bit/pixel)Аудио: АС3, 2 ch, 192 Кбит/сПродолжительность: 21 x ~ 00:26:00Язык: РусскийРелиз от

    ОтчетМедиаИнфо

    General Unique ID : 186708659619502140489573342946295359939 (0x8C76C7A3D736860B83DAAA4923ED29C3) Complete name : E:ol'ga S02.2017.HDTV.1080i.R.G.Generalfilmol'ga.s02.e09.2017.HDTV 1080p.by.White Smoke.R.G.Generalfilm.mkv Format : Matroska Format version : Version 4 / Version 2 File size : 1.10 GiB Duration : 21 min Overall bit rate mode : Constant Overall bit rate : 7 234 kb/s Movie name : ol'ga.s02.e09.2017.HDTV 1080p.by.White Smoke.R.G.Generalfilm.mkv Encoded date : UTC 2017-09-14 19:49:47 Writing application : mkvmerge v6.8.0 ('Theme for Great Cities') 64bit built on Mar 2 2014 21:34:26 Writing library : libebml v1.3.0 + libmatroska v1.4.1

    Video ID : 1 Format : AVC Format/Info : Advanced Video Codec Format profile : [email protected] Format settings, CABAC : Yes Format settings, ReFrames : 3 frames Codec ID : V_MPEG4/ISO/AVC Duration : 21 min Bit rate mode : Constant Bit rate : 7 051 kb/s Width : 1 920 pixels Height : 1 080 pixels Display aspect ratio : 16:9 Frame rate mode : Constant Frame rate : 25.000 FPS Standard : PAL Color space : YUV Chroma subsampling : 4:2:0 Bit depth : 8 bits Scan type : Progressive Bits/(Pixel*Frame) : 0.136 Stream size : 1.05 GiB (95%) Default : Yes Forced : No Color range : Limited Color primaries : BT.709 Transfer characteristics : BT.709 Matrix coefficients : BT.709

    Audio ID : 2 Format : AC-3 Format/Info : Audio Coding 3 Mode extension : CM (complete main) Format settings, Endianness : Big Codec ID : A_AC3 Duration : 21 min Bit rate mode : Constant Bit rate : 192 kb/s Channel(s) : 2 channels Channel positions : Front: L R Sampling rate : 48.0 kHz Frame rate : 31.250 FPS (1536 spf) Compression mode : Lossy Stream size : 29.8 MiB (3%) Default : Yes Forced : No

    krutor.org


    Смотрите также