Девятые врата фильм 1999 скачать торрент в хорошем качестве


rutor.org :: Девятые врата / The Ninth Gate (1999) BDRip-AVC от Rulya74 ::: Скачать торрент

Девятые врата / The Ninth Gate (1999) BDRip-AVC

Информация о фильмеНазвание: Девятые вратаОригинальное название: The Ninth GateГод выхода: 1999Жанр: триллер, детективРежиссер: Роман Полански

В ролях: Джонни Депп, Фрэнк Ланджелла, Лена Улин, Эмманюэль Сенье, Барбара Джеффорд, Джек Тейлор, Хосе Лопес Родеро, Тони Амони, Джеймс Руссо, Уилли Холт...

О фильме: Дин Корсо, один из лучших специалистов по поиску, оценке и скупке раритетных изданий, принимает от владельца крупнейшей в мире библиотеки оккультных книг необычный, но крайне выгодный заказ: определить подлинность венца собрания, фолианта XVII века под названием «Девять врат в царство призраков», с помощью которого, по преданию, можно вызвать самого Люцифера. Ему предстоит полное опасностей и тайн путешествие по Европе.

Но только тогда, когда на пути к разгадке тайны «Девятых врат» начинают попадаться трупы тех, с кем Дин Корсо встречался совсем недавно, ему открывается зловещая правда. Он понимает, что в этой дьявольской игре на кон поставлена не только жизнь его, но и душа…

Страна: Испания, Франция, СШАПродолжительность: 02:13:14Перевод: Дублированный

ФайлКодек: x.264Качество: BDRip-AVCВидео: 912x384 (2,40:1), 23,976 fps, 1368 kbps, 0.163 bit/pixelЗвук: 48 kHz, AC3 Dolby Digital, 2 ch, ~192.00 kbpsСубтитры: Русские, Английские (отключаемые)

&

MediaInfo

Общее Уникальный идентификатор : 231538775057650991254121319395120460965 (0xAE30BEFAF8CD6EC18A6EF617EF1D34A5) Полное имя : D:The Ninth Gate.1999.BDRip-AVC.mkv Формат : Matroska Версия формата : Version 4 / Version 2 Размер файла : 1,45 Гбайт Продолжительность : 2 ч. 13 м. Общий поток : 1562 Кбит/сек Название фильма : Девятые врата / The Ninth Gate (1999) BDRip-AVC rip by Rulya74 Дата кодирования : UTC 2014-01-10 07:48:46 Программа кодирования : mkvmerge v6.6.0 ('The Edge Of The In Between') built on Dec 1 2013 17:55:00 Библиотека кодирования : libebml v1.3.0 + libmatroska v1.4.1

Видео Идентификатор : 1 Формат : AVC Формат/Информация : Advanced Video Codec Профиль формата : [email protected] Параметр CABAC формата : Да Параметр ReFrames формата : 14 кадров Идентификатор кодека : V_MPEG4/ISO/AVC Продолжительность : 2 ч. 13 м. Битрейт : 1368 Кбит/сек Ширина : 912 пикселей Высота : 384 пикселя Соотношение сторон : 2,40:1 Режим частоты кадров : Постоянный Частота кадров : 23,976 кадра/сек Цветовое пространство : YUV Субдискретизация насыщенности : 4:2:0 Битовая глубина : 8 бит Тип развёртки : Прогрессивная Бит/(Пиксели*Кадры) : 0.163 Размер потока : 1,25 Гбайт (86%) Библиотека кодирования : x264 core 138 r2358 9e941d1 Настройки программы : cabac=1 / ref=14 / deblock=1:-3:-3 / analyse=0x3:0x2 / me=umh / subme=11 / psy=1 / psy_rd=1.00:0.00 / mixed_ref=1 / me_range=48 / chroma_me=1 / trellis=2 / 8x8dct=1 / cqm=0 / deadzone=21,11 / fast_pskip=0 / chroma_qp_offset=-2 / threads=4 / lookahead_threads=1 / sliced_threads=0 / nr=0 / decimate=1 / interlaced=0 / bluray_compat=0 / constrained_intra=0 / bframes=16 / b_pyramid=2 / b_adapt=1 / b_bias=0 / direct=3 / weightb=1 / open_gop=0 / weightp=2 / keyint=240 / keyint_min=23 / scenecut=40 / intra_refresh=0 / rc_lookahead=40 / rc=2pass / mbtree=1 / bitrate=1368 / ratetol=1.0 / qcomp=0.60 / qpmin=0 / qpmax=69 / qpstep=4 / cplxblur=20.0 / qblur=0.5 / vbv_maxrate=62500 / vbv_bufsize=78125 / nal_hrd=none / ip_ratio=1.40 / aq=1:1.00 Default : Да Forced : Нет

Аудио Идентификатор : 2 Формат : AC-3 Формат/Информация : Audio Coding 3 Расширение режима : CM (complete main) Параметр Endianness формата : Big Идентификатор кодека : A_AC3 Продолжительность : 2 ч. 13 м. Вид битрейта : Постоянный Битрейт : 192 Кбит/сек Каналы : 2 канала Расположение каналов : Front: L R Частота : 48,0 КГц Битовая глубина : 16 бит Метод сжатия : С потерями Размер потока : 183 Мбайт (12%) Заголовок : Дублированный Язык : Russian Default : Да Forced : Нет

Текст #1 Идентификатор : 3 Формат : UTF-8 Идентификатор кодека : S_TEXT/UTF8 Идентификатор кодека/Информация : UTF-8 Plain Text Язык : Russian Default : Да Forced : Нет

Текст #2 Идентификатор : 4 Формат : UTF-8 Идентификатор кодека : S_TEXT/UTF8 Идентификатор кодека/Информация : UTF-8 Plain Text Язык : English Default : Нет Forced : Нет

Меню 00:00:00.000 : :Chapter 01 00:00:00.792 : :Chapter 02 00:00:30.572 : :Chapter 03 00:09:45.001 : :Chapter 04 00:18:08.671 : :Chapter 05 00:22:41.734 : :Chapter 06 00:32:16.226 : :Chapter 07 00:37:34.169 : :Chapter 08 00:44:55.860 : :Chapter 09 00:53:45.556 : :Chapter 10 01:02:16.232 : :Chapter 11 01:10:30.017 : :Chapter 12 01:21:04.276 : :Chapter 13 01:28:07.240 : :Chapter 14 01:34:33.334 : :Chapter 15 01:42:53.667 : :Chapter 16 01:51:42.696 : :Chapter 17 02:05:30.815 : :Chapter 18

main-rutor.org

Скачать фильм Девятые врата через торрент в хорошем качестве бесплатно DVDRip

Размер: 1.46 GB | Добавлен: 5 лет 6 мес. назад | Торрент скачан:342 раза
Реклама Дарим 3000 рублей за регистрацию, не упусти свой шанс получить шикарный бонус!!!

15-04-2012 10:29 Девятые врата Скачать торрент  

Девятые врата / The Ninth Gate

Год выпуска: 1999Страна: США, Франция, ИспанияЖанр: ужасы, детектив, триллерПродолжительность: 02:13:14Перевод: Дубляж (Лицензия)

Режиссер: Роман Полански

Бюджет: $38 000 000Премьера в мире: 25 августа 1999

В ролях: [font=Arial]Джонни Депп

, Фрэнк Ланджелла, Лена Улин, Эмманюэль Сенье, Барбара Джеффорд, Джек Тейлор, Хосе Лопес Родеро, Тони Амони, Джеймс Руссо, Уилли Холт

Описание: Дин Корсо, один из лучших специалистов по поиску, оценке и скупке раритетных изданий, принимает от владельца крупнейшей в мире библиотеки оккультных книг необычный, но крайне выгодный заказ: определить подлинность венца собрания, фолианта XVII века под названием «Девять врат в царство призраков», с помощью которого, по преданию, можно вызвать самого Люцифера. Ему предстоит полное опасностей и тайн путешествие по Европе.

Качество: DVDRipФормат: AVIВидео кодек: XviDАудио кодек: AC3Видео: 720x304 (2.37:1), 25 fps, XviD MPEG-4 ~1485 kbps avg, 0.27 bit/pixelАудио#1: 48 kHz, AC3 Dolby Digital, 2/0 (L,R) ch, ~192 kbps

Скачать Девятые врата через торрент http://pic.pb.wtf/images/2000/x2iy2uik4k.jpg Скачать фильм Девятые врата через торрент бесплантно в хорошем качестве Описание: Дин Корсо, один из лучших специалистов по поиску, оценке и скупке раритетных изданий, принимает от владельца крупнейшей в мире ... 2012-04-15 10:29 10 10 8

Loading...

Loading...

% Раздел Тема Автор DL S | L
Фильмы [HD 720p, 1080p] (Хороший звук DUB, MVO) [ 21.79 GB ] Девятые врата / The Ninth Gate [1999 BDRip 1080p by msltel] DUB 3 x MVO 2 x DVO 4 x AVO msltel Скачать
Фильмы [HD 720p, 1080p] (Хороший звук DUB, MVO) [ 8.32 GB ] Девятые врата / The Ninth Gate [1999 BDRip 720p by msltel] DUB 3 x MVO 2 x DVO 4 x AVO msltel Скачать
Фильмы [HD 720p, 1080p] (Хороший звук DUB, MVO) [ 7.76 GB ] Девятые врата / The Ninth Gate [1999 BDRip 1080p] DUB+MVO bober100 Скачать
R.G.Resident - Фильмы, Видео [ 3.36 GB ] Девятые врата / The Ninth Gate [1999 BDRip-AVC от R.G. Resident] -Lexx- Скачать
Фильмы [HD 720p, 1080p] (Хороший звук DUB, MVO) [ 7.39 GB ] Девятые врата / The Ninth Gate [1999 BDRip 720p] Kavasar Скачать
Фильмы [HD 720p, 1080p] (Хороший звук DUB, MVO) [ 11.76 GB ] Девятые врата / The Ninth Gate [1999 BDRip 1080p] DUB + MVO Arhangell Скачать
Фильмы до 2000 г. [ 2.18 GB ] Девятые врата / The Ninth Gate [1999 Мистический BDRip лицензия] CJ_Kastaneda Скачать

Рекламный пират

31-01-2014 15:16 Девятые врата Скачать торрент  

Отличный фильм...

07-11-2014 19:54 Девятые врата Скачать торрент  

Скорости дайте плиз для отличного фильма

22-06-2015 15:53 Девятые врата Скачать торрент  

Будьте добры, встаньте на раздачу пожалуйста

22-06-2015 16:02 Девятые врата Скачать торрент  

Barbas писал(а):

Будьте добры, встаньте на раздачу пожалуйста

Не актуально.

Дорогой пользователь! Огромная просьба, поблагодарите релизера, оцените раздачу и оставьте свои комментарий, если Вы скачали Девятые врата через торрент бесплатно! Внесите свою лепту в развитие PiratBit!

Комментировать посты могут только пользователи прошедшие не сложную регистрацию

Девятые врата через торрент Скачать бесплатно Девятые врата Девятые врата скачать торрент Девятые врата смотреть онлайн Cкачать фильм Девятые врата бесплатно Девятые врата скачать торрент в хорошем качестве Девятые врата смотреть онлайн бесплатно в хорошем качестве

Вы не можете начинать темыВы не можете отвечать на сообщенияВы не можете редактировать свои сообщенияВы не можете удалять свои сообщенияВы не можете голосовать в опросахВы не можете прикреплять файлы к сообщениямВы можете скачивать файлы

piratbit.ru

Скачать фильм Девятые врата через торрент в хорошем качестве бесплатно 1080p

ОбщееУникальный идентификатор : 172309119775531035515314406286863374903 (0x81A18783436CC6C580B2EF4E5CB01A37)Полное имя : E:\The.Ninth.Gate.1999.BDRip.1080p.mkvФормат : MatroskaВерсия формата : Version 2Размер файла : 11,8 ГбайтПродолжительность : 2 ч. 13 м.Общий поток : 12,6 Мбит/секНазвание фильма : The Ninth Gate (1999) [Olympus HDFilms]Дата кодирования : UTC 2009-08-20 22:22:45Программа кодирования : mkvmerge v2.9.7 ('Tenderness') built on Jul 1 2009 18:43:35Библиотека кодирования : libebml v0.7.7 + libmatroska v0.8.1

ВидеоИдентификатор : 1Формат : AVCФормат/Информация : Advanced Video CodecПрофиль формата : [email protected]Параметр CABAC формата : ДаПараметр ReFrames формата : 5 кадровИдентификатор кодека : V_MPEG4/ISO/AVCПродолжительность : 2 ч. 13 м.Битрейт : 9000 Кбит/секШирина : 1920 пикселейВысота : 814 пикселейСоотношение сторон : 2,35:1Режим частоты кадров : ПостоянныйЧастота кадров : 23,976 кадра/секЦветовое пространство : YUVСубдискретизация насыщенности : 4:2:0Битовая глубина : 8 битТип развёртки : ПрогрессивнаяБит/(Пиксели*Кадры) : 0.240Размер потока : 8,15 Гбайт (69%)Заголовок : 9mbps x264 1080pБиблиотека кодирования : x264 core 68 r1183M f21daffНастройки программы : cabac=1 / ref=5 / deblock=1:-3:-3 / analyse=0x3:0x133 / me=umh / subme=9 / psy_rd=1.0:0.0 / mixed_ref=1 / me_range=32 / chroma_me=1 / trellis=2 / 8x8dct=1 / cqm=0 / deadzone=21,11 / chroma_qp_offset=-2 / threads=12 / nr=0 / decimate=1 / mbaff=0 / bframes=3 / b_pyramid=1 / b_adapt=2 / b_bias=0 / direct=3 / wpredb=1 / keyint=250 / keyint_min=25 / scenecut=40 / rc=2pass / bitrate=9000 / ratetol=1.0 / qcomp=0.60 / qpmin=10 / qpmax=51 / qpstep=4 / cplxblur=20.0 / qblur=0.5 / vbv_maxrate=50000 / vbv_bufsize=50000 / ip_ratio=1.40 / pb_ratio=1.30 / aq=1:0.80Язык : EnglishDefault : ДаForced : Нет

Аудио #1Идентификатор : 2Формат : AC-3Формат/Информация : Audio Coding 3Расширение режима : CM (complete main)Параметр Endianness формата : BigИдентификатор кодека : A_AC3Продолжительность : 2 ч. 13 м.Вид битрейта : ПостоянныйБитрейт : 384 Кбит/секКаналы : 6 каналовРасположение каналов : Front: L C R, Side: L R, LFEЧастота : 48,0 КГцЧастота кадров : 31,250 кадров/сек (1536 spf)Битовая глубина : 16 битМетод сжатия : С потерямиРазмер потока : 366 Мбайт (3%)Заголовок : 384kbps 6ch AC-3 [Dublyaj]Язык : RussianDefault : ДаForced : Нет

Аудио #2Идентификатор : 3Формат : DTSФормат/Информация : Digital Theater SystemsРежим : 16Параметр Endianness формата : BigИдентификатор кодека : A_DTSПродолжительность : 2 ч. 13 м.Вид битрейта : ПостоянныйБитрейт : 1510 Кбит/секКаналы : 6 каналовРасположение каналов : Front: L C R, Side: L R, LFEЧастота : 48,0 КГцЧастота кадров : 93,750 кадра/сек (512 spf)Битовая глубина : 24 битМетод сжатия : С потерямиРазмер потока : 1,41 Гбайт (12%)Заголовок : 1510kbps 6ch DTS [Mnogogolosyy]Язык : RussianDefault : НетForced : Нет

Аудио #3Идентификатор : 4Формат : DTSФормат/Информация : Digital Theater SystemsРежим : 16Параметр Endianness формата : BigИдентификатор кодека : A_DTSПродолжительность : 2 ч. 13 м.Вид битрейта : ПостоянныйБитрейт : 1509 Кбит/секКаналы : 6 каналовРасположение каналов : Front: L C R, Side: L R, LFEЧастота : 48,0 КГцЧастота кадров : 93,750 кадра/сек (512 spf)Битовая глубина : 24 битМетод сжатия : С потерямиРазмер потока : 1,40 Гбайт (12%)Заголовок : 1510kbps 6ch DTSЯзык : EnglishDefault : НетForced : Нет

Аудио #4Идентификатор : 5Формат : AC-3Формат/Информация : Audio Coding 3Профиль формата : Dolby DigitalРасширение режима : CM (complete main)Параметр Endianness формата : BigИдентификатор кодека : A_AC3Продолжительность : 2 ч. 13 м.Вид битрейта : ПостоянныйБитрейт : 224 Кбит/секКаналы : 2 каналаРасположение каналов : Front: L RЧастота : 48,0 КГцЧастота кадров : 31,250 кадров/сек (1536 spf)Битовая глубина : 16 битМетод сжатия : С потерямиРазмер потока : 213 Мбайт (2%)Заголовок : 224kbps 2ch AC-3 [Commentary]Язык : EnglishDefault : НетForced : Нет

Текст #1Идентификатор : 6Формат : VobSubРежим смешивания : zlibИдентификатор кодека : S_VOBSUBИдентификатор кодека/Информация : Picture based subtitle format used on DVDsЯзык : RussianDefault : НетForced : Нет

Текст #2Идентификатор : 7Формат : VobSubРежим смешивания : zlibИдентификатор кодека : S_VOBSUBИдентификатор кодека/Информация : Picture based subtitle format used on DVDsЗаголовок : FullЯзык : EnglishDefault : НетForced : Нет

Текст #3Идентификатор : 8Формат : VobSubРежим смешивания : zlibИдентификатор кодека : S_VOBSUBИдентификатор кодека/Информация : Picture based subtitle format used on DVDsЯзык : EnglishDefault : НетForced : Нет

piratbit.ru

Скачать фильм Девятые врата через торрент в хорошем качестве бесплатно 720p by msltel] DUB

ОбщееУникальный идентификатор : 204626825510041358493696058082033727137 (0x99F1B16CDEA1854588D622532AFCF6A1)Полное имя : D:\Video\Девятые врата.1999.BDRip.720p by msltel.mkvФормат : MatroskaВерсия формата : Version 4 / Version 2Размер файла : 8,32 ГбайтПродолжительность : 2 ч. 13 м.Общий поток : 8944 Кбит/секНазвание фильма : Rip by msltelДата кодирования : UTC 2017-09-27 04:41:56Программа кодирования : mkvmerge v8.2.0 ('World of Adventure') 64bitБиблиотека кодирования : libebml v1.3.1 + libmatroska v1.4.2

ВидеоИдентификатор : 1Формат : AVCФормат/Информация : Advanced Video CodecПрофиль формата : [email protected]Параметр CABAC формата : ДаПараметр RefFrames формата : 9 кадровИдентификатор кодека : V_MPEG4/ISO/AVCПродолжительность : 2 ч. 13 м.Битрейт : 4844 Кбит/секШирина : 1280 пикселейВысота : 544 пикселяСоотношение сторон : 2,35:1Режим частоты кадров : ПостоянныйЧастота кадров : 23,976 (24000/1001) кадра/секЦветовое пространство : YUVСубдискретизация насыщенности : 4:2:0Битовая глубина : 8 битТип развёртки : ПрогрессивнаяБит/(Пиксели*Кадры) : 0.290Размер потока : 4,51 Гбайт (54%)Библиотека кодирования : x264 core 146 r2538 121396cНастройки программы : cabac=1 / ref=9 / deblock=1:-3:-2 / analyse=0x3:0x113 / me=umh / subme=11 / psy=1 / psy_rd=1.00:0.15 / mixed_ref=1 / me_range=32 / chroma_me=1 / trellis=2 / 8x8dct=1 / cqm=0 / deadzone=21,11 / fast_pskip=0 / chroma_qp_offset=-3 / threads=6 / lookahead_threads=1 / sliced_threads=0 / nr=0 / decimate=1 / interlaced=0 / bluray_compat=0 / constrained_intra=0 / bframes=7 / b_pyramid=2 / b_adapt=2 / b_bias=0 / direct=1 / weightb=1 / open_gop=0 / weightp=2 / keyint=230 / keyint_min=23 / scenecut=40 / intra_refresh=0 / rc_lookahead=40 / rc=crf / mbtree=0 / crf=18.0 / qcomp=0.60 / qpmin=0 / qpmax=69 / qpstep=4 / vbv_maxrate=62500 / vbv_bufsize=78125 / crf_max=0.0 / nal_hrd=none / filler=0 / ip_ratio=1.40 / pb_ratio=1.30 / aq=1:1.00Язык : EnglishDefault : ДаForced : Нет

Аудио #1Идентификатор : 2Формат : AC-3Формат/Информация : Audio Coding 3Параметр Endianness формата : BigИдентификатор кодека : A_AC3Продолжительность : 2 ч. 13 м.Вид битрейта : ПостоянныйБитрейт : 384 Кбит/секКаналы : 6 каналовРасположение каналов : Front: L C R, Side: L R, LFEЧастота : 48,0 КГцЧастота кадров : 31,250 кадров/сек (1536 SPF)Битовая глубина : 16 битМетод сжатия : С потерямиРазмер потока : 366 Мбайт (4%)Заголовок : DUBЯзык : RussianServiceKind/String : Complete MainDefault : ДаForced : Нет

Аудио #2Идентификатор : 3Формат : AC-3Формат/Информация : Audio Coding 3Параметр Endianness формата : BigИдентификатор кодека : A_AC3Продолжительность : 2 ч. 13 м.Вид битрейта : ПостоянныйБитрейт : 448 Кбит/секКаналы : 6 каналовРасположение каналов : Front: L C R, Side: L R, LFEЧастота : 48,0 КГцЧастота кадров : 31,250 кадров/сек (1536 SPF)Битовая глубина : 16 битМетод сжатия : С потерямиРазмер потока : 427 Мбайт (5%)Заголовок : MVOЯзык : RussianServiceKind/String : Complete MainDefault : НетForced : Нет

Аудио #3Идентификатор : 4Формат : AC-3Формат/Информация : Audio Coding 3Параметр Endianness формата : BigИдентификатор кодека : A_AC3Продолжительность : 2 ч. 13 м.Вид битрейта : ПостоянныйБитрейт : 192 Кбит/секКаналы : 2 каналаРасположение каналов : Front: L RЧастота : 48,0 КГцЧастота кадров : 31,250 кадров/сек (1536 SPF)Битовая глубина : 16 битМетод сжатия : С потерямиРазмер потока : 183 Мбайт (2%)Заголовок : MVO.HTBЯзык : RussianServiceKind/String : Complete MainDefault : НетForced : Нет

Аудио #4Идентификатор : 5Формат : AC-3Формат/Информация : Audio Coding 3Параметр Endianness формата : BigИдентификатор кодека : A_AC3Продолжительность : 2 ч. 13 м.Вид битрейта : ПостоянныйБитрейт : 192 Кбит/секКаналы : 2 каналаРасположение каналов : Front: L RЧастота : 48,0 КГцЧастота кадров : 31,250 кадров/сек (1536 SPF)Битовая глубина : 16 битМетод сжатия : С потерямиРазмер потока : 183 Мбайт (2%)Заголовок : MVO.TB3Язык : RussianServiceKind/String : Complete MainDefault : НетForced : Нет

Аудио #5Идентификатор : 6Формат : AC-3Формат/Информация : Audio Coding 3Параметр Endianness формата : BigИдентификатор кодека : A_AC3Продолжительность : 2 ч. 13 м.Вид битрейта : ПостоянныйБитрейт : 448 Кбит/секКаналы : 6 каналовРасположение каналов : Front: L C R, Side: L R, LFEЧастота : 48,0 КГцЧастота кадров : 31,250 кадров/сек (1536 SPF)Битовая глубина : 16 битМетод сжатия : С потерямиРазмер потока : 427 Мбайт (5%)Заголовок : DVO.HTB+Язык : RussianServiceKind/String : Complete MainDefault : НетForced : Нет

Аудио #6Идентификатор : 7Формат : AC-3Формат/Информация : Audio Coding 3Параметр Endianness формата : BigИдентификатор кодека : A_AC3Продолжительность : 2 ч. 13 м.Вид битрейта : ПостоянныйБитрейт : 192 Кбит/секКаналы : 2 каналаРасположение каналов : Front: L RЧастота : 48,0 КГцЧастота кадров : 31,250 кадров/сек (1536 SPF)Битовая глубина : 16 битМетод сжатия : С потерямиРазмер потока : 183 Мбайт (2%)Заголовок : DVO.TB6Язык : RussianServiceKind/String : Complete MainDefault : НетForced : Нет

Аудио #7Идентификатор : 8Формат : AC-3Формат/Информация : Audio Coding 3Параметр Endianness формата : BigИдентификатор кодека : A_AC3Продолжительность : 2 ч. 13 м.Вид битрейта : ПостоянныйБитрейт : 448 Кбит/секКаналы : 6 каналовРасположение каналов : Front: L C R, Side: L R, LFEЧастота : 48,0 КГцЧастота кадров : 31,250 кадров/сек (1536 SPF)Битовая глубина : 16 битМетод сжатия : С потерямиРазмер потока : 427 Мбайт (5%)Заголовок : Андрей ГавриловЯзык : RussianServiceKind/String : Complete MainDefault : НетForced : Нет

Аудио #8Идентификатор : 9Формат : AC-3Формат/Информация : Audio Coding 3Параметр Endianness формата : BigИдентификатор кодека : A_AC3Продолжительность : 2 ч. 13 м.Вид битрейта : ПостоянныйБитрейт : 448 Кбит/секКаналы : 6 каналовРасположение каналов : Front: L C R, Side: L R, LFEЧастота : 48,0 КГцЧастота кадров : 31,250 кадров/сек (1536 SPF)Битовая глубина : 16 битМетод сжатия : С потерямиРазмер потока : 427 Мбайт (5%)Заголовок : Юрий ЖивовЯзык : RussianServiceKind/String : Complete MainDefault : НетForced : Нет

Аудио #9Идентификатор : 10Формат : AC-3Формат/Информация : Audio Coding 3Параметр Endianness формата : BigИдентификатор кодека : A_AC3Продолжительность : 2 ч. 13 м.Вид битрейта : ПостоянныйБитрейт : 448 Кбит/секКаналы : 6 каналовРасположение каналов : Front: L C R, Side: L R, LFEЧастота : 48,0 КГцЧастота кадров : 31,250 кадров/сек (1536 SPF)Битовая глубина : 16 битМетод сжатия : С потерямиРазмер потока : 427 Мбайт (5%)Заголовок : Юрий СербинЯзык : RussianServiceKind/String : Complete MainDefault : НетForced : Нет

Аудио #10Идентификатор : 11Формат : AC-3Формат/Информация : Audio Coding 3Параметр Endianness формата : BigИдентификатор кодека : A_AC3Продолжительность : 2 ч. 13 м.Вид битрейта : ПостоянныйБитрейт : 448 Кбит/секКаналы : 6 каналовРасположение каналов : Front: L C R, Side: L R, LFEЧастота : 48,0 КГцЧастота кадров : 31,250 кадров/сек (1536 SPF)Битовая глубина : 16 битМетод сжатия : С потерямиРазмер потока : 427 Мбайт (5%)Заголовок : Владимир СонькинЯзык : RussianServiceKind/String : Complete MainDefault : НетForced : Нет

Аудио #11Идентификатор : 12Формат : AC-3Формат/Информация : Audio Coding 3Параметр Endianness формата : BigИдентификатор кодека : A_AC3Продолжительность : 2 ч. 13 м.Вид битрейта : ПостоянныйБитрейт : 448 Кбит/секКаналы : 6 каналовРасположение каналов : Front: L C R, Side: L R, LFEЧастота : 48,0 КГцЧастота кадров : 31,250 кадров/сек (1536 SPF)Битовая глубина : 16 битМетод сжатия : С потерямиРазмер потока : 427 Мбайт (5%)Заголовок : originalЯзык : EnglishServiceKind/String : Complete MainDefault : НетForced : Нет

Текст #1Идентификатор : 13Формат : UTF-8Идентификатор кодека : S_TEXT/UTF8Идентификатор кодека/Информация : UTF-8 Plain TextПродолжительность : 2 ч. 7 м.Битрейт : 59 бит/секElementCount : 1111Размер потока : 55,3 Кбайт (0%)Заголовок : русскиеЯзык : RussianDefault : НетForced : Нет

Текст #2Идентификатор : 14Формат : UTF-8Идентификатор кодека : S_TEXT/UTF8Идентификатор кодека/Информация : UTF-8 Plain TextПродолжительность : 2 ч. 2 м.Битрейт : 39 бит/секElementCount : 1022Размер потока : 35,4 Кбайт (0%)Заголовок : английскиеЯзык : EnglishDefault : НетForced : Нет

Меню00:00:00.000 : en:Chapter 0100:09:45.001 : en:Chapter 0200:18:08.671 : en:Chapter 0300:22:41.734 : en:Chapter 0400:32:16.226 : en:Chapter 0500:37:34.169 : en:Chapter 0600:44:55.860 : en:Chapter 0700:53:45.556 : en:Chapter 0801:02:16.232 : en:Chapter 0901:10:30.017 : en:Chapter 1001:21:04.276 : en:Chapter 1101:28:07.240 : en:Chapter 1201:34:33.334 : en:Chapter 1301:42:53.667 : en:Chapter 1401:51:42.696 : en:Chapter 1502:05:30.815 : en:Chapter 16

piratbit.ru


Смотрите также