Дочь бога фильм 2016 скачать торрент в хорошем качестве hd 1080


Скачать торрент Дочь бога / Exposed (2016) BDRemux 1080p от ExKinoRay

Информация о фильмеНазвание: Дочь БогаОригинальное название: ExposedГод выхода: 2016Жанр: ДрамаРежиссер: Деклан ДэйлВ ролях: Киану Ривз, Ана де Армас, Мира Сорвино, Биг Дэдди Кэйн, Кристофер МакДональд, Лаура Гомез, Клара Вонг, Майкл Рисполи, Дения Браче, Венус Эриель, Дэнни Хоч, Жанетт Дилон, Сэнди Техада, Гилберт Круз, Дэнни Гузман, Эриель Р. Пачеко, Пабло Гонзалез, Энтони Руис, Гейб Варгас, Исмаэль Круз

О фильме:В метро происходит жуткое преступление: убит детектив по имени Джошуа. За поиски убийцы берется его напарник, Скотт Галбан. Возле трупа лежал фотоаппарат, снимки на котором Скотт смотрит постоянно, пытаясь найти зацепку. Он находит свидетелей, но убийца быстрее: свидетели умирают один за другим до беседы со Скоттом. Осталась лишь Изабель, которая видела убийство, а теперь боится смерти.

Страна: СШАСтудия: Company Films, Emmett/Furla Films, Fortitude International, Palm-Star Entertainment, Remark FilmsПродолжительность: 01:41:53Перевод: Профессиональный многоголосый (закадровый) | iTunes

ФайлКодек: MPEG-4Качество: BDRemux 1080pВидео: 1920x1080, 31.9 Mbit/s, 23.976 fpsЗвук: Аудио #01: 48 kHz, AC3, 5.1, 384 Kbps | Профессиональный многоголосый (закадровый) | iTunes |Аудио #02: 48 kHz, DTS-HD MA, 5.1, 2277 kbps | Оригинал |Субтитры: Русские, английские

MI

General Unique ID : 214901668448682547245998287285660159389 (0xA1AC8E4B4B80E3DA807F552F12240D9D) Complete name : H:VideoExposed.2016.BDREMUX.1080p.ExKinoRay.mkv Format : Matroska Format version : Version 4 / Version 2 File size : 24.6 GiB Duration : 1 h 41 min Overall bit rate mode : Variable Overall bit rate : 34.6 Mb/s Movie name : build by ***селезень*** Encoded date : UTC 2016-09-29 17:26:36 Writing application : mkvmerge v8.3.0 ('Over the Horizon') 64bit Writing library : libebml v1.3.1 + libmatroska v1.4.2

Video ID : 1 Format : AVC Format/Info : Advanced Video Codec Format profile : [email protected] Format settings, CABAC : Yes Format settings, ReFrames : 4 frames Format settings, GOP : M=3, N=24 Codec ID : V_MPEG4/ISO/AVC Duration : 1 h 41 min Bit rate mode : Variable Bit rate : 31.9 Mb/s Maximum bit rate : 37.0 Mb/s Width : 1 920 pixels Height : 1 080 pixels Display aspect ratio : 16:9 Frame rate mode : Constant Frame rate : 24.000 FPS Standard : NTSC Color space : YUV Chroma subsampling : 4:2:0 Bit depth : 8 bits Scan type : Progressive Bits/(Pixel*Frame) : 0.641 Stream size : 22.7 GiB (92%) Title : build by ***селезень*** Language : English Default : No Forced : No Color range : Limited Color primaries : BT.709 Transfer characteristics : BT.709 Matrix coefficients : BT.709

Audio #1 ID : 2 Format : AC-3 Format/Info : Audio Coding 3 Mode extension : CM (complete main) Format settings, Endianness : Big Codec ID : A_AC3 Duration : 1 h 41 min Bit rate mode : Constant Bit rate : 384 kb/s Channel(s) : 6 channels Channel positions : Front: L C R, Side: L R, LFE Sampling rate : 48.0 kHz Frame rate : 31.250 FPS (1536 spf) Compression mode : Lossy Stream size : 280 MiB (1%) Title : iTunes Language : Russian Default : Yes Forced : No

Audio #2 ID : 3 Format : DTS Format/Info : Digital Theater Systems Format profile : MA / Core Mode : 16 Format settings, Endianness : Big Codec ID : A_DTS Duration : 1 h 41 min Bit rate mode : Variable / Constant Bit rate : 2 277 kb/s / 1 509 kb/s Channel(s) : 6 channels Channel positions : Front: L C R, Side: L R, LFE Sampling rate : 48.0 kHz Frame rate : 93.750 FPS (512 spf) Bit depth : 16 bits Compression mode : Lossless / Lossy Stream size : 1.62 GiB (7%) Title : Original Language : English Default : No Forced : No

Text #1 ID : 4 Format : UTF-8 Codec ID : S_TEXT/UTF8 Codec ID/Info : UTF-8 Plain Text Duration : 1 h 32 min Bit rate : 64 b/s Count of elements : 1003 Stream size : 43.6 KiB (0%) Title : full Language : Russian Default : No Forced : No

Text #2 ID : 5 Format : UTF-8 Codec ID : S_TEXT/UTF8 Codec ID/Info : UTF-8 Plain Text Duration : 1 h 31 min Bit rate : 41 b/s Count of elements : 975 Stream size : 27.5 KiB (0%) Title : full Language : English Default : No Forced : No

Menu 00:00:00.000 : en:Chapter 01 00:06:04.458 : en:Chapter 02 00:11:40.625 : en:Chapter 03 00:17:12.375 : en:Chapter 04 00:23:18.625 : en:Chapter 05 00:30:05.458 : en:Chapter 06 00:35:59.792 : en:Chapter 07 00:45:04.458 : en:Chapter 08 00:49:15.417 : en:Chapter 09 00:56:11.250 : en:Chapter 10 01:01:18.042 : en:Chapter 11 01:06:22.417 : en:Chapter 12 01:10:49.458 : en:Chapter 13 01:16:26.500 : en:Chapter 14 01:21:57.375 : en:Chapter 15 01:29:13.000 : en:Chapter 16

Релиз от: Автор релиза:

krutor.org

Скачать торрент Дочь Бога / Exposed (2015) BDRip 1080p

Детство лидера / Exposed

Страна: США Производство: Company Films, Fortitude International, Palm-Star Entertainment, Remark FilmsГод выпуска: 2015Жанр: триллер, драма, криминал, детективПродолжительность: 01:41:53

Режиссер: Ги Малик ЛинтонАвтор сценария: Ги Малик Линтон

В ролях: Ана де Армас, Гейб Варгас, Сэнди Техада, Эриель Р. Пачеко, Исмаэль Круз, Энтони Руис, Стивен Томпсон, Киану Ривз, Мира Сорвино

Описание: Изабель просто ждала поезд в метро, но неожиданно увидела настоящее чудо — то ли человека, то ли ангела, парящего в воздухе. С этого момента её жизнь полностью изменилась. В этом же метро происходит загадочное убийство. Детектив Гэлбэн приезжает на место преступления, чтобы понять, что привело к смерти его напарника. Очень скоро Изабель и Скотти Гэлбэн будут вынуждены встретиться. Что повлечёт за собой эта роковая встреча..? И какие тайны далекого прошлого разбудит это таинственное преступление..?

Перевод: Профессиональный (многоголосый, закадровый) | iTunesСубтитры: русские, английские (full + forced), испанские

Качество: BDRip 1080pФормат: МКVВидео кодек: AVCАудио кодек: АС3 | DTSВидео: 1920x800 (2.40:1), 24.000 fps, MPEG-4 AVC ~15.4 Мbps avgАудио №1: 48.0 kHz, AC3 Dolby Digital, 3/2 (L,C,R,l,r) + LFE ch, ~384 kbps | RUSАудио №2: 48.0 kHz, Digital Theater Systems, 3/2 (L,C,R,l,r) + LFE ch, ~1509 kbps | ENGФормат субтитров: UTF-8 Plain Text

Дата премьеры (мир): 22 января 2016Дата премьеры (РФ): 8 сентября 2016, «25th Floor Film»

Media Info

Уникальный идентификатор : 197142974050101118703922124897973630532 (0x94505B0F79584857A87ADA04249EF644) Полное имя : Exposed.2016.BDRip.1О8Оp.mkv Формат : Matroska Версия формата : Version 2 Размер файла : 12,5 Гбайт Продолжительность : 1 ч. 41 м. Общий поток : 17,6 Мбит/сек Дата кодирования : UTC 2016-09-29 09:33:42 Программа кодирования : mkvmerge v7.8.0 ('River Man') 32bit built on Apr 3 2015 12:11:22 Библиотека кодирования : libebml v1.3.1 + libmatroska v1.4.2

Видео Идентификатор : 1 Формат : AVC Формат/Информация : Advanced Video Codec Профиль формата : [email protected] Параметр CABAC формата : Да Параметр ReFrames формата : 5 кадров Идентификатор кодека : V_MPEG4/ISO/AVC Продолжительность : 1 ч. 41 м. Битрейт : 15,4 Мбит/сек Ширина : 1920 пикселей Высота : 800 пикселей Соотношение сторон : 2,40:1 Режим частоты кадров : Постоянный Частота кадров : 24,000 кадра/сек Цветовое пространство : YUV Субдискретизация насыщенности : 4:2:0 Битовая глубина : 8 бит Тип развёртки : Прогрессивная Бит/(Пиксели*Кадры) : 0.417 Размер потока : 10,9 Гбайт (87%) Библиотека кодирования : x264 core 142 r2431+42 c69a006 tMod [[email protected] X86_64] Настройки программы : cabac=1 / ref=5 / deblock=1:-3:-3 / analyse=0x3:0x133 / me=umh / subme=11 / psy=1 / fade_compensate=0.00 / psy_rd=1.05:0.00 / mixed_ref=1 / me_range=32 / chroma_me=1 / trellis=2 / 8x8dct=1 / cqm=0 / deadzone=21,11 / fast_pskip=0 / chroma_qp_offset=-2 / threads=12 / lookahead_threads=2 / sliced_threads=0 / nr=0 / decimate=0 / interlaced=0 / bluray_compat=0 / constrained_intra=0 / fgo=0 / bframes=8 / b_pyramid=2 / b_adapt=2 / b_bias=0 / direct=3 / weightb=1 / open_gop=0 / weightp=2 / keyint=250 / keyint_min=24 / scenecut=40 / intra_refresh=0 / rc_lookahead=60 / rc=crf / mbtree=0 / crf=16.9000 / qcomp=0.65 / qpmin=0:0:0 / qpmax=69:69:69 / qpstep=4 / vbv_maxrate=62500 / vbv_bufsize=78125 / crf_max=0.0 / nal_hrd=none / filler=0 / ip_ratio=1.30 / pb_ratio=1.20 / aq=3:0.80 / aq-sensitivity=10.00 / aq-factor=1.00:1.00:1.00 / aq2=0 / aq3=0 / zones=451,470,crf=13.5/1444,1470,crf=13.5/6090,6327,crf=13.7/9881,9925,crf=14.7/10851,10910,crf=13.7/11212,11432,crf=15.7/31453,32024,crf=14.7/57793,57977,crf=13.7/58095,58139,crf=14.7/64030,64120,crf=13.7/71365,72502,crf=14.7/73737,77257,crf=14.7/79620,79720,crf=13.7/79912,80059,crf=13.7/83580,88267,crf=15.7/101980,102000,crf=13.7/108036,108518,crf=13.7/112428,112575,crf=13.7/117056,117330,crf=13.7/117802,117935,crf=13.7/123814,123869,crf=13.5/125560,125690,crf=13.7/125916,125934,crf=13.7/126043,128350,crf=13.7/130050,130114,crf=13.7/130414,130472,crf=13.7/133625,133747,crf=14.7/134370,146711,crf=21 Язык : English Default : Да Forced : Да Коэффициенты матрицы : BT.709

Аудио #1 Идентификатор : 2 Формат : AC-3 Формат/Информация : Audio Coding 3 Расширение режима : CM (complete main) Параметр Endianness формата : Big Идентификатор кодека : A_AC3 Продолжительность : 1 ч. 41 м. Вид битрейта : Постоянный Битрейт : 384 Кбит/сек Каналы : 6 каналов Расположение каналов : Front: L C R, Side: L R, LFE Частота : 48,0 КГц Битовая глубина : 16 бит Метод сжатия : С потерями Размер потока : 280 Мбайт (2%) Заголовок : iTunes Язык : Russian Default : Да Forced : Нет

Аудио #2 Идентификатор : 3 Формат : DTS Формат/Информация : Digital Theater Systems Режим : 16 Параметр Endianness формата : Big Идентификатор кодека : A_DTS Продолжительность : 1 ч. 41 м. Вид битрейта : Постоянный Битрейт : 1509 Кбит/сек Каналы : 6 каналов Расположение каналов : Front: L C R, Side: L R, LFE Частота : 48,0 КГц Битовая глубина : 16 бит Метод сжатия : С потерями Размер потока : 1,07 Гбайт (9%) Язык : English Default : Нет Forced : Нет

Текст #1 Идентификатор : 4 Формат : UTF-8 Идентификатор кодека : S_TEXT/UTF8 Идентификатор кодека/Информация : UTF-8 Plain Text Заголовок : full Язык : Russian Default : Нет Forced : Нет

Текст #2 Идентификатор : 5 Формат : UTF-8 Идентификатор кодека : S_TEXT/UTF8 Идентификатор кодека/Информация : UTF-8 Plain Text Заголовок : forced Язык : English Default : Нет Forced : Нет

Текст #3 Идентификатор : 6 Формат : UTF-8 Идентификатор кодека : S_TEXT/UTF8 Идентификатор кодека/Информация : UTF-8 Plain Text Заголовок : full Язык : English Default : Нет Forced : Нет

Текст #4 Идентификатор : 7 Формат : UTF-8 Идентификатор кодека : S_TEXT/UTF8 Идентификатор кодека/Информация : UTF-8 Plain Text Заголовок : full Язык : Spanish Default : Нет Forced : Нет

Меню 00:00:00.000 : en:Chapter 01 00:06:04.458 : en:Chapter 02 00:11:40.625 : en:Chapter 03 00:17:12.375 : en:Chapter 04 00:23:18.625 : en:Chapter 05 00:30:05.458 : en:Chapter 06 00:35:59.792 : en:Chapter 07 00:45:04.458 : en:Chapter 08 00:49:15.417 : en:Chapter 09 00:56:11.250 : en:Chapter 10 01:01:18.042 : en:Chapter 11 01:06:22.417 : en:Chapter 12 01:10:49.458 : en:Chapter 13 01:16:26.500 : en:Chapter 14 01:21:57.375 : en:Chapter 15 01:29:13.000 : en:Chapter 16

krutor.org

Скачать фильм Дочь Бога через торрент в хорошем качестве бесплатно 1080p / iTunes

Уникальный идентификатор : 197142974050101118703922124897973630532 (0x94505B0F79584857A87ADA04249EF644)

Полное имя : Exposed.2016.BDRip.1О8Оp.mkv

Формат : Matroska

Версия формата : Version 2

Размер файла : 12,5 Гбайт

Продолжительность : 1 ч. 41 м.

Общий поток : 17,6 Мбит/сек

Дата кодирования : UTC 2016-09-29 09:33:42

Программа кодирования : mkvmerge v7.8.0 ('River Man') 32bit built on Apr 3 2015 12:11:22

Библиотека кодирования : libebml v1.3.1 + libmatroska v1.4.2

Видео

Идентификатор : 1

Формат : AVC

Формат/Информация : Advanced Video Codec

Профиль формата : [email protected]

Параметр CABAC формата : Да

Параметр ReFrames формата : 5 кадров

Идентификатор кодека : V_MPEG4/ISO/AVC

Продолжительность : 1 ч. 41 м.

Битрейт : 15,4 Мбит/сек

Ширина : 1920 пикселей

Высота : 800 пикселей

Соотношение сторон : 2,40:1

Режим частоты кадров : Постоянный

Частота кадров : 24,000 кадра/сек

Цветовое пространство : YUV

Субдискретизация насыщенности : 4:2:0

Битовая глубина : 8 бит

Тип развёртки : Прогрессивная

Бит/(Пиксели*Кадры) : 0.417

Размер потока : 10,9 Гбайт (87%)

Библиотека кодирования : x264 core 142 r2431+42 c69a006 tMod [[email protected] X86_64]

Настройки программы : cabac=1 / ref=5 / deblock=1:-3:-3 / analyse=0x3:0x133 / me=umh / subme=11 / psy=1 / fade_compensate=0.00 / psy_rd=1.05:0.00 / mixed_ref=1 / me_range=32 / chroma_me=1 / trellis=2 / 8x8dct=1 / cqm=0 / deadzone=21,11 / fast_pskip=0 / chroma_qp_offset=-2 / threads=12 / lookahead_threads=2 / sliced_threads=0 / nr=0 / decimate=0 / interlaced=0 / bluray_compat=0 / constrained_intra=0 / fgo=0 / bframes=8 / b_pyramid=2 / b_adapt=2 / b_bias=0 / direct=3 / weightb=1 / open_gop=0 / weightp=2 / keyint=250 / keyint_min=24 / scenecut=40 / intra_refresh=0 / rc_lookahead=60 / rc=crf / mbtree=0 / crf=16.9000 / qcomp=0.65 / qpmin=0:0:0 / qpmax=69:69:69 / qpstep=4 / vbv_maxrate=62500 / vbv_bufsize=78125 / crf_max=0.0 / nal_hrd=none / filler=0 / ip_ratio=1.30 / pb_ratio=1.20 / aq=3:0.80 / aq-sensitivity=10.00 / aq-factor=1.00:1.00:1.00 / aq2=0 / aq3=0 / zones=451,470,crf=13.5/1444,1470,crf=13.5/6090,6327,crf=13.7/9881,9925,crf=14.7/10851,10910,crf=13.7/11212,11432,crf=15.7/31453,32024,crf=14.7/57793,57977,crf=13.7/58095,58139,crf=14.7/64030,64120,crf=13.7/71365,72502,crf=14.7/73737,77257,crf=14.7/79620,79720,crf=13.7/79912,80059,crf=13.7/83580,88267,crf=15.7/101980,102000,crf=13.7/108036,108518,crf=13.7/112428,112575,crf=13.7/117056,117330,crf=13.7/117802,117935,crf=13.7/123814,123869,crf=13.5/125560,125690,crf=13.7/125916,125934,crf=13.7/126043,128350,crf=13.7/130050,130114,crf=13.7/130414,130472,crf=13.7/133625,133747,crf=14.7/134370,146711,crf=21

Язык : English

Default : Да

Forced : Да

Коэффициенты матрицы : BT.709

Аудио #1

Идентификатор : 2

Формат : AC-3

Формат/Информация : Audio Coding 3

Расширение режима : CM (complete main)

Параметр Endianness формата : Big

Идентификатор кодека : A_AC3

Продолжительность : 1 ч. 41 м.

Вид битрейта : Постоянный

Битрейт : 384 Кбит/сек

Каналы : 6 каналов

Расположение каналов : Front: L C R, Side: L R, LFE

Частота : 48,0 КГц

Битовая глубина : 16 бит

Метод сжатия : С потерями

Размер потока : 280 Мбайт (2%)

Заголовок : iTunes

Язык : Russian

Default : Да

Forced : Нет

Аудио #2

Идентификатор : 3

Формат : DTS

Формат/Информация : Digital Theater Systems

Режим : 16

Параметр Endianness формата : Big

Идентификатор кодека : A_DTS

Продолжительность : 1 ч. 41 м.

Вид битрейта : Постоянный

Битрейт : 1509 Кбит/сек

Каналы : 6 каналов

Расположение каналов : Front: L C R, Side: L R, LFE

Частота : 48,0 КГц

Битовая глубина : 16 бит

Метод сжатия : С потерями

Размер потока : 1,07 Гбайт (9%)

Язык : English

Default : Нет

Forced : Нет

Текст #1

Идентификатор : 4

Формат : UTF-8

Идентификатор кодека : S_TEXT/UTF8

Идентификатор кодека/Информация : UTF-8 Plain Text

Заголовок : full

Язык : Russian

Default : Нет

Forced : Нет

Текст #2

Идентификатор : 5

Формат : UTF-8

Идентификатор кодека : S_TEXT/UTF8

Идентификатор кодека/Информация : UTF-8 Plain Text

Заголовок : forced

Язык : English

Default : Нет

Forced : Нет

Текст #3

Идентификатор : 6

Формат : UTF-8

Идентификатор кодека : S_TEXT/UTF8

Идентификатор кодека/Информация : UTF-8 Plain Text

Заголовок : full

Язык : English

Default : Нет

Forced : Нет

Текст #4

Идентификатор : 7

Формат : UTF-8

Идентификатор кодека : S_TEXT/UTF8

Идентификатор кодека/Информация : UTF-8 Plain Text

Заголовок : full

Язык : Spanish

Default : Нет

Forced : Нет

Меню

00:00:00.000 : en:Chapter 01

00:06:04.458 : en:Chapter 02

00:11:40.625 : en:Chapter 03

00:17:12.375 : en:Chapter 04

00:23:18.625 : en:Chapter 05

00:30:05.458 : en:Chapter 06

00:35:59.792 : en:Chapter 07

00:45:04.458 : en:Chapter 08

00:49:15.417 : en:Chapter 09

00:56:11.250 : en:Chapter 10

01:01:18.042 : en:Chapter 11

01:06:22.417 : en:Chapter 12

01:10:49.458 : en:Chapter 13

01:16:26.500 : en:Chapter 14

01:21:57.375 : en:Chapter 15

01:29:13.000 : en:Chapter 16

piratbit.ru

Скачать фильм Дочь Бога через торрент в хорошем качестве бесплатно 1080p

GeneralComplete name : Exposed.2016.BDRip.1080p.ExKinoRay.mkvFormat : MatroskaFormat version : Version 2File size : 12.6 GiBDuration : 1h 41mnOverall bit rate : 17.7 MbpsEncoded date : UTC 2016-03-12 23:43:48Writing application : mkvmerge v5.8.0 ('No Sleep / Pillow') built on Sep 2 2012 15:37:04Writing library : libebml v1.2.3 + libmatroska v1.3.0

VideoID : 1Format : AVCFormat/Info : Advanced Video CodecFormat profile : [email protected] settings, CABAC : YesFormat settings, ReFrames : 5 framesCodec ID : V_MPEG4/ISO/AVCDuration : 1h 41mnBit rate : 15.4 MbpsWidth : 1 920 pixelsHeight : 800 pixelsDisplay aspect ratio : 2.40:1Frame rate mode : ConstantFrame rate : 24.000 fpsColor space : YUVChroma subsampling : 4:2:0Bit depth : 8 bitsScan type : ProgressiveBits/(Pixel*Frame) : 0.417Stream size : 10.9 GiB (87%)Writing library : x264 core 142 r2431+42 c69a006 tMod [[email protected] X86_64]Encoding settings : cabac=1 / ref=5 / deblock=1:-3:-3 / analyse=0x3:0x133 / me=umh / subme=11 / psy=1 / fade_compensate=0.00 / psy_rd=1.05:0.00 / mixed_ref=1 / me_range=32 / chroma_me=1 / trellis=2 / 8x8dct=1 / cqm=0 / deadzone=21,11 / fast_pskip=0 / chroma_qp_offset=-2 / threads=12 / lookahead_threads=2 / sliced_threads=0 / nr=0 / decimate=0 / interlaced=0 / bluray_compat=0 / constrained_intra=0 / fgo=0 / bframes=8 / b_pyramid=2 / b_adapt=2 / b_bias=0 / direct=3 / weightb=1 / open_gop=0 / weightp=2 / keyint=250 / keyint_min=24 / scenecut=40 / intra_refresh=0 / rc_lookahead=60 / rc=crf / mbtree=0 / crf=16.9000 / qcomp=0.65 / qpmin=0:0:0 / qpmax=69:69:69 / qpstep=4 / vbv_maxrate=62500 / vbv_bufsize=78125 / crf_max=0.0 / nal_hrd=none / filler=0 / ip_ratio=1.30 / pb_ratio=1.20 / aq=3:0.80 / aq-sensitivity=10.00 / aq-factor=1.00:1.00:1.00 / aq2=0 / aq3=0 / zones=451,470,crf=13.5/1444,1470,crf=13.5/6090,6327,crf=13.7/9881,9925,crf=14.7/10851,10910,crf=13.7/11212,11432,crf=15.7/31453,32024,crf=14.7/57793,57977,crf=13.7/58095,58139,crf=14.7/64030,64120,crf=13.7/71365,72502,crf=14.7/73737,77257,crf=14.7/79620,79720,crf=13.7/79912,80059,crf=13.7/83580,88267,crf=15.7/101980,102000,crf=13.7/108036,108518,crf=13.7/112428,112575,crf=13.7/117056,117330,crf=13.7/117802,117935,crf=13.7/123814,123869,crf=13.5/125560,125690,crf=13.7/125916,125934,crf=13.7/126043,128350,crf=13.7/130050,130114,crf=13.7/130414,130472,crf=13.7/133625,133747,crf=14.7/134370,146711,crf=21Language : EnglishDefault : YesForced : YesMatrix coefficients : BT.709Color range : Limited

Audio #1ID : 2Format : AC-3Format/Info : Audio Coding 3Mode extension : CM (complete main)Format settings, Endianness : BigCodec ID : A_AC3Duration : 1h 41mnBit rate mode : ConstantBit rate : 448 KbpsChannel(s) : 6 channelsChannel positions : Front: L C R, Side: L R, LFESampling rate : 48.0 KHzBit depth : 16 bitsCompression mode : LossyStream size : 326 MiB (3%)Language : RussianDefault : YesForced : Yes

Audio #2ID : 3Format : DTSFormat/Info : Digital Theater SystemsMode : 16Format settings, Endianness : BigCodec ID : A_DTSDuration : 1h 41mnBit rate mode : ConstantBit rate : 1 509 KbpsChannel(s) : 6 channelsChannel positions : Front: L C R, Side: L R, LFESampling rate : 48.0 KHzBit depth : 16 bitsCompression mode : LossyStream size : 1.07 GiB (9%)Language : EnglishDefault : NoForced : No

Text #1ID : 4Format : UTF-8Codec ID : S_TEXT/UTF8Codec ID/Info : UTF-8 Plain TextLanguage : RussianDefault : NoForced : No

Text #2ID : 5Format : UTF-8Codec ID : S_TEXT/UTF8Codec ID/Info : UTF-8 Plain TextTitle : English ForcedLanguage : EnglishDefault : NoForced : No

Text #3ID : 6Format : UTF-8Codec ID : S_TEXT/UTF8Codec ID/Info : UTF-8 Plain TextLanguage : EnglishDefault : NoForced : No

Text #4ID : 7Format : UTF-8Codec ID : S_TEXT/UTF8Codec ID/Info : UTF-8 Plain TextTitle : Spanish for English partsLanguage : SpanishDefault : NoForced : No

Menu00:00:00.000 : en:Chapter 0100:06:04.458 : en:Chapter 0200:11:40.625 : en:Chapter 0300:17:12.375 : en:Chapter 0400:23:18.625 : en:Chapter 0500:30:05.458 : en:Chapter 0600:35:59.792 : en:Chapter 0700:45:04.458 : en:Chapter 0800:49:15.417 : en:Chapter 0900:56:11.250 : en:Chapter 1001:01:18.042 : en:Chapter 1101:06:22.417 : en:Chapter 1201:10:49.458 : en:Chapter 1301:16:26.500 : en:Chapter 1401:21:57.375 : en:Chapter 1501:29:13.000 : en:Chapter 16

piratbit.ru


Смотрите также