Скачать бесплатно фильм элегия через торрент в хорошем качестве


Скачать фильм Элегия через торрент в хорошем качестве бесплатно 1080p by msltel

ОбщееУникальный идентификатор : 202592391591540957822227382260681875143 (0x9869E016BFA9B3E99596D0E5C7631EC7)Полное имя : D:\Video\Элегия.2008.BDRip.1080p by msltel.mkvФормат : MatroskaВерсия формата : Version 4 / Version 2Размер файла : 13,4 ГбайтПродолжительность : 1 ч. 52 м.Общий поток : 17,0 Мбит/секНазвание фильма : Rip by msltelДата кодирования : UTC 2017-01-09 14:21:56Программа кодирования : mkvmerge v8.2.0 ('World of Adventure') 64bitБиблиотека кодирования : libebml v1.3.1 + libmatroska v1.4.2

ВидеоИдентификатор : 1Формат : AVCФормат/Информация : Advanced Video CodecПрофиль формата : [email protected]Параметр CABAC формата : ДаПараметр ReFrames формата : 4 кадраИдентификатор кодека : V_MPEG4/ISO/AVCПродолжительность : 1 ч. 52 м.Битрейт : 15,2 Мбит/секШирина : 1920 пикселейВысота : 1040 пикселейСоотношение сторон : 1,85:1Режим частоты кадров : ПостоянныйЧастота кадров : 24,000 кадра/секЦветовое пространство : YUVСубдискретизация насыщенности : 4:2:0Битовая глубина : 8 битТип развёртки : ПрогрессивнаяБит/(Пиксели*Кадры) : 0.316Размер потока : 11,9 Гбайт (88%)Библиотека кодирования : x264 core 146 r2538 121396cНастройки программы : cabac=1 / ref=4 / deblock=1:-1:-1 / analyse=0x3:0x113 / me=umh / subme=10 / psy=1 / psy_rd=1.00:0.15 / mixed_ref=1 / me_range=32 / chroma_me=1 / trellis=2 / 8x8dct=1 / cqm=0 / deadzone=21,11 / fast_pskip=0 / chroma_qp_offset=-3 / threads=6 / lookahead_threads=1 / sliced_threads=0 / nr=0 / decimate=1 / interlaced=0 / bluray_compat=0 / constrained_intra=0 / bframes=12 / b_pyramid=2 / b_adapt=2 / b_bias=0 / direct=1 / weightb=0 / open_gop=0 / weightp=2 / keyint=230 / keyint_min=23 / scenecut=40 / intra_refresh=0 / rc_lookahead=40 / rc=crf / mbtree=0 / crf=18.1 / qcomp=0.60 / qpmin=0 / qpmax=69 / qpstep=4 / vbv_maxrate=50000 / vbv_bufsize=62500 / crf_max=0.0 / nal_hrd=none / filler=0 / ip_ratio=1.40 / pb_ratio=1.30 / aq=1:1.00Язык : EnglishDefault : ДаForced : Нет

Аудио #1Идентификатор : 2Формат : AC-3Формат/Информация : Audio Coding 3Расширение режима : CM (complete main)Параметр Endianness формата : BigИдентификатор кодека : A_AC3Продолжительность : 1 ч. 52 м.Вид битрейта : ПостоянныйБитрейт : 448 Кбит/секКаналы : 6 каналовРасположение каналов : Front: L C R, Side: L R, LFEЧастота : 48,0 КГцЧастота кадров : 31,250 кадров/сек (1536 spf)Метод сжатия : С потерямиРазмер потока : 361 Мбайт (3%)Заголовок : DUBЯзык : RussianDefault : ДаForced : Нет

Аудио #2Идентификатор : 3Формат : DTSФормат/Информация : Digital Theater SystemsРежим : 16Параметр Endianness формата : BigИдентификатор кодека : A_DTSПродолжительность : 1 ч. 52 м.Вид битрейта : ПостоянныйБитрейт : 1509 Кбит/секКаналы : 6 каналовРасположение каналов : Front: L C R, Side: L R, LFEЧастота : 48,0 КГцЧастота кадров : 93,750 кадра/сек (512 spf)Битовая глубина : 16 битМетод сжатия : С потерямиРазмер потока : 1,19 Гбайт (9%)Заголовок : originalЯзык : EnglishDefault : НетForced : Нет

Текст #1Идентификатор : 4Формат : UTF-8Идентификатор кодека : S_TEXT/UTF8Идентификатор кодека/Информация : UTF-8 Plain TextПродолжительность : 1 ч. 45 м.Битрейт : 65 бит/секCount of elements : 1126Размер потока : 50,5 Кбайт (0%)Заголовок : русскиеЯзык : RussianDefault : НетForced : Нет

Текст #2Идентификатор : 5Формат : UTF-8Идентификатор кодека : S_TEXT/UTF8Идентификатор кодека/Информация : UTF-8 Plain TextПродолжительность : 1 ч. 45 м.Битрейт : 49 бит/секCount of elements : 1203Размер потока : 38,2 Кбайт (0%)Заголовок : английскиеЯзык : EnglishDefault : НетForced : Нет

Меню00:00:00.000 : :Chapter 0100:05:00.000 : :Chapter 0200:10:00.000 : :Chapter 0300:15:00.000 : :Chapter 0400:20:00.000 : :Chapter 0500:25:00.000 : :Chapter 0600:30:00.000 : :Chapter 0700:35:00.000 : :Chapter 0800:40:00.000 : :Chapter 0900:45:00.000 : :Chapter 1000:50:00.000 : :Chapter 1100:55:00.000 : :Chapter 1201:00:00.000 : :Chapter 1301:05:00.000 : :Chapter 1401:10:00.000 : :Chapter 1501:15:00.000 : :Chapter 1601:20:00.000 : :Chapter 1701:25:00.000 : :Chapter 1801:30:00.000 : :Chapter 1901:35:00.000 : :Chapter 2001:40:00.000 : :Chapter 2101:45:00.000 : :Chapter 2201:50:00.000 : :Chapter 23

piratbit.ru

Скачать фильм Элегия через торрент в хорошем качестве бесплатно 720p by msltel

ОбщееУникальный идентификатор : 173761710105247807302038698470396940866 (0x82B949BED270800B989E173706B45242)Полное имя : D:\Video\Элегия.2008.BDRip.720p by msltel.mkvФормат : MatroskaВерсия формата : Version 4 / Version 2Размер файла : 5,61 ГбайтПродолжительность : 1 ч. 52 м.Общий поток : 7117 Кбит/секНазвание фильма : Rip by msltelДата кодирования : UTC 2017-01-08 03:10:21Программа кодирования : mkvmerge v8.2.0 ('World of Adventure') 64bitБиблиотека кодирования : libebml v1.3.1 + libmatroska v1.4.2

ВидеоИдентификатор : 1Формат : AVCФормат/Информация : Advanced Video CodecПрофиль формата : [email protected]Параметр CABAC формата : ДаПараметр ReFrames формата : 9 кадровИдентификатор кодека : V_MPEG4/ISO/AVCПродолжительность : 1 ч. 52 м.Битрейт : 6067 Кбит/секШирина : 1280 пикселейВысота : 694 пикселяСоотношение сторон : 1,85:1Режим частоты кадров : ПостоянныйЧастота кадров : 24,000 кадра/секЦветовое пространство : YUVСубдискретизация насыщенности : 4:2:0Битовая глубина : 8 битТип развёртки : ПрогрессивнаяБит/(Пиксели*Кадры) : 0.285Размер потока : 4,75 Гбайт (85%)Библиотека кодирования : x264 core 146 r2538 121396cНастройки программы : cabac=1 / ref=9 / deblock=1:-1:-1 / analyse=0x3:0x113 / me=umh / subme=10 / psy=1 / psy_rd=1.00:0.15 / mixed_ref=1 / me_range=32 / chroma_me=1 / trellis=2 / 8x8dct=1 / cqm=0 / deadzone=21,11 / fast_pskip=0 / chroma_qp_offset=-3 / threads=6 / lookahead_threads=1 / sliced_threads=0 / nr=0 / decimate=1 / interlaced=0 / bluray_compat=0 / constrained_intra=0 / bframes=12 / b_pyramid=2 / b_adapt=2 / b_bias=0 / direct=1 / weightb=0 / open_gop=0 / weightp=2 / keyint=230 / keyint_min=23 / scenecut=40 / intra_refresh=0 / rc_lookahead=40 / rc=crf / mbtree=0 / crf=18.3 / qcomp=0.60 / qpmin=0 / qpmax=69 / qpstep=4 / vbv_maxrate=50000 / vbv_bufsize=62500 / crf_max=0.0 / nal_hrd=none / filler=0 / ip_ratio=1.40 / pb_ratio=1.30 / aq=1:1.00Язык : EnglishDefault : ДаForced : Нет

Аудио #1Идентификатор : 2Формат : AC-3Формат/Информация : Audio Coding 3Расширение режима : CM (complete main)Параметр Endianness формата : BigИдентификатор кодека : A_AC3Продолжительность : 1 ч. 52 м.Вид битрейта : ПостоянныйБитрейт : 448 Кбит/секКаналы : 6 каналовРасположение каналов : Front: L C R, Side: L R, LFEЧастота : 48,0 КГцЧастота кадров : 31,250 кадров/сек (1536 spf)Метод сжатия : С потерямиРазмер потока : 361 Мбайт (6%)Заголовок : DUBЯзык : RussianDefault : ДаForced : Нет

Аудио #2Идентификатор : 3Формат : AC-3Формат/Информация : Audio Coding 3Расширение режима : CM (complete main)Параметр Endianness формата : BigИдентификатор кодека : A_AC3Продолжительность : 1 ч. 52 м.Вид битрейта : ПостоянныйБитрейт : 640 Кбит/секКаналы : 6 каналовРасположение каналов : Front: L C R, Side: L R, LFEЧастота : 48,0 КГцЧастота кадров : 31,250 кадров/сек (1536 spf)Метод сжатия : С потерямиРазмер потока : 516 Мбайт (9%)Заголовок : originalЯзык : EnglishDefault : НетForced : Нет

Текст #1Идентификатор : 4Формат : UTF-8Идентификатор кодека : S_TEXT/UTF8Идентификатор кодека/Информация : UTF-8 Plain TextПродолжительность : 1 ч. 45 м.Битрейт : 65 бит/секCount of elements : 1126Размер потока : 50,5 Кбайт (0%)Заголовок : русскиеЯзык : RussianDefault : НетForced : Нет

Текст #2Идентификатор : 5Формат : UTF-8Идентификатор кодека : S_TEXT/UTF8Идентификатор кодека/Информация : UTF-8 Plain TextПродолжительность : 1 ч. 45 м.Битрейт : 49 бит/секCount of elements : 1203Размер потока : 38,2 Кбайт (0%)Заголовок : английскиеЯзык : EnglishDefault : НетForced : Нет

Меню00:00:00.000 : :Chapter 0100:05:00.000 : :Chapter 0200:10:00.000 : :Chapter 0300:15:00.000 : :Chapter 0400:20:00.000 : :Chapter 0500:25:00.000 : :Chapter 0600:30:00.000 : :Chapter 0700:35:00.000 : :Chapter 0800:40:00.000 : :Chapter 0900:45:00.000 : :Chapter 1000:50:00.000 : :Chapter 1100:55:00.000 : :Chapter 1201:00:00.000 : :Chapter 1301:05:00.000 : :Chapter 1401:10:00.000 : :Chapter 1501:15:00.000 : :Chapter 1601:20:00.000 : :Chapter 1701:25:00.000 : :Chapter 1801:30:00.000 : :Chapter 1901:35:00.000 : :Chapter 2001:40:00.000 : :Chapter 2101:45:00.000 : :Chapter 2201:50:00.000 : :Chapter 23

piratbit.ru

Элегия cкачать через торрент в HD » Кино-торрент

Сюжет: История взаимоотношений преподавателя колледжа Дэвида Кепеша и юной непорочной кубинки Консуэлы Кастильо, которую он встречает в Нью-Йорке.

Он - одинокий плейбой, буквально воспринявший лозунги сексуальной революции, оставивший жену и детей взамен на сексуальную беспечность. Она - единственная дочь католического семейства кубинских иммигрантов. И кажущаяся пропасть между ними становится почвой для обжигающего романа, бросившего Кепеша из безумных безответственных связей в водоворот любовных страданий и ревности.

В главных ролях: Чарли Роуз, Дебора Харри, Бен Кингсли, Пенелопа Крус, Патришия Кларксон, Антонио Цупо, Деннис Хоппер, Питер Сарсгаард

Скриншоты:

Продолжительность: 108 мин. / 01:48

Возрастные ограничения: зрителям, достигшим 16 лет

Фильм снят по мотивам романа Филипа Рота «Умирающее животное» (The Dying Animal, 2001).

Удивительный фильм. Настоящая драма с красивой музыкой, прекрасной съемкой, великолепными диалогами и глубоким смыслом. Все эти составляющие буквально заставляют прочувствовать каждую эмоцию актеров и вовлекают в разворачивавшуюся историю на экране. Зрелый мужчина, Дэвид, искренне влюбляется в молодую девушку. Их разделяют 30 лет, но объединяет настоящая любовь. Все больше думая про будущее, про то, что несут эти отношения с таким диким отрывом в возрасте, он принимает решение заградиться от любви всей его жизни - Консуэлы, чтобы она смогла найти свое счастье и место в жизни. Задуманное удается не сразу, не с первой попытки. Но в важный для Консуэлы день, главный герой просто не приходит к ней на вечеринку, на которой присутствует вся его семья. Он не хочет показаться смешным в глазах ее родственников и друзей, а также по его собственному мнению, Консуэлу впереди ждет все самое лучшее и это только вопрос времени, когда ее уведет другой, более молодой мужчина. Но ведь все лучшее уже происходит в этот момент, в эту минуту, в эту самую секунду. От всей души желая своей второй половинке всего самого лучшего, Дэвид просчитывается, так как это решение его разума, а не сердца. Фильм показывает, как важно ценить ваших близких в настоящий момент. Ведь если вы отпустите дорогих вам людей раньше времени из своей жизни, то потом будет еще тяжелее расставаться с ними навсегда…_______________________________________________________Фильм о любви - очень красивой, драматичной, пронзительной. Прежде всего, таким его сделали актеры - Пенелопа Крус, талант которой здесь раскрыт в полной мере: независимая, любящая, страдающая, надломленная в конце фильма, и Бен Кингсли - его игра сконцентрирована в его глазах - великолепная игра. Стареющий плейбой, возможно, уже не такой привлекательный визуально, но обаятельный и эрудированный, чем и привлек внимание своей молодой студентки. Он всю жизнь дорожил своей свободой и внешней независимостью, боялся их лишиться, поэтому любовь всей жизни и пришла так поздно. Между Дэвидом (Кингсли) и Консуэло (Крус) завязывается страстный и красивый роман. Но есть ли будущее у пары с огромной разницей в возрасте? Здесь Консуэло оказывается куда более зрелой, смелой и раскрепощенной. Для нее все было всерьез, не смотря на обстоятельства. А Дэвид испугался, испугался того, что у них все же может быть будущее, и не важно сколько у них времени. Очень впечатлил психологизм игры Кингсли - вот эти метания главного героя. Фильм философский, он затрагивает тему времени и пространства в нашем бытии, как мы мыслим это. В итоге, спустя время, выясняется, что это у молодой цветущей Консуэло осталось не так уж много времени. Так резко они вдруг поменялись местами в силу непреодолимых обстоятельств. По-моему, Дэвид понял, что потеряли они оба, когда он не поверил в их любовь, не дал им шанса, хотя даже в разлуке они не переставали любить друг друга. Не стоит терять время в жизни и слишком задумываться о будущем, так как нам дано в реальности лишь настоящее и, может, еще наши воспоминания. Фильм очень гармоничный, прекрасное музыкальное сопровождение. Приятно поразило, что эротические сцены, а их было немало, были очень эстетичны, не смотря на возраст главного героя. Так же очень органично вплетены в главную линию второстепенные персонажи подруга и лучший друг Дэвида. Разные характеры, разные судьбы, но эти персонажи были необходимы для большей органичности фильма и актеры выполнили их великолепно. Прекрасная режиссура, шикарная работа оператора, всем размышляющим о жизни +30 - смотреть и получать удовольствие от качественного взрослого кино!

kino-torrent.com

Overwatch - Аннеси Элегия / Overwatch

Раздают: 3 [ 0 KB/s ]
Размер: 2.22 GB | Добавлен: 11 мес. назад | Торрент скачан:271 раз
Реклама Дарим 3000 рублей за регистрацию, не упусти свой шанс получить шикарный бонус!!!

18-11-2016 23:26 Overwatch - Аннеси Элегия Скачать торрент  

Overwatch - Аннеси Элегия / Overwatch - Annecy's Elegy Год выпуска: 2016Страна: USA Жанр: Adult Animation, Parody, Big Boobs, All SexПродолжительность: 00:38:20Перевод: ОригинальныйЦензура: Отсутствует

Студия: Opiumud В ролях: Герои ОвервотчОписание: Porn cartoon characters with Overwatch! These cartoons are bright and fabulousand sex is important in the world and skazok.Smotrite naslozhdaytes!

Качество: WEB-DL 1080pФормат: WMVВидео кодек: WMV3Аудио кодек: WMAВидео: WMV3: 1920x1080, 23.976fps, 8197 Kb/sАудио#1: WMA, 48KHz, 192 Kb/s (2 ch)

Скачать Overwatch - Аннеси Элегия через торрент http://pic1.pb.wtf/images/10/aqsoq.jpg Скачать фильм Overwatch - Аннеси Элегия через торрент бесплантно в хорошем качестве Описание: Porn cartoon characters with Overwatch! These cartoons are bright and fabulousand sex is important in the world and ... 2016-11-18 23:26 9.8 10 23

Loading...

Loading...

Рекламный пират

18-11-2016 23:35 Overwatch - Аннеси Элегия Скачать торрент  

Благодарю за пиастры !!!

Дорогой пользователь! Огромная просьба, поблагодарите релизера, оцените раздачу и оставьте свои комментарий, если Вы скачали Overwatch - Аннеси Элегия через торрент бесплатно! Внесите свою лепту в развитие PiratBit!

Комментировать посты могут только пользователи прошедшие не сложную регистрацию

Overwatch - Аннеси Элегия через торрент Скачать бесплатно Overwatch - Аннеси Элегия Overwatch - Аннеси Элегия скачать торрент Overwatch - Аннеси Элегия смотреть онлайн Cкачать фильм Overwatch - Аннеси Элегия бесплатно Overwatch - Аннеси Элегия скачать торрент в хорошем качестве Overwatch - Аннеси Элегия смотреть онлайн бесплатно в хорошем качестве

Вы не можете начинать темыВы не можете отвечать на сообщенияВы не можете редактировать свои сообщенияВы не можете удалять свои сообщенияВы не можете голосовать в опросахВы не можете прикреплять файлы к сообщениямВы можете скачивать файлы

piratbit.ru


Смотрите также