Скачать через торрент фильм чего хотят женщины в хорошем качестве


Чего хотят женщины через торрент

ОбщееУникальный идентификатор : 210044077871205458782525288255655825237 (0x9E0504967E1F939AAFF7497CCDC4CF55)Полное имя : D:\Video\Чего хотят женщины 2000.BDRip.720p by msltel.mkvФормат : MatroskaВерсия формата : Version 4 / Version 2Размер файла : 7,05 ГбайтПродолжительность : 2 ч. 6 м.Общий поток : 7969 Кбит/секНазвание фильма : Rip by msltelДата кодирования : UTC 2017-08-16 06:00:25Программа кодирования : mkvmerge v8.2.0 ('World of Adventure') 64bitБиблиотека кодирования : libebml v1.3.1 + libmatroska v1.4.2

ВидеоИдентификатор : 1Формат : AVCФормат/Информация : Advanced Video CodecПрофиль формата : [email protected]Параметр CABAC формата : ДаПараметр RefFrames формата : 9 кадровИдентификатор кодека : V_MPEG4/ISO/AVCПродолжительность : 2 ч. 6 м.Битрейт : 5534 Кбит/секШирина : 1280 пикселейВысота : 720 пикселейСоотношение сторон : 16:9Режим частоты кадров : ПостоянныйЧастота кадров : 23,976 (24000/1001) кадра/секЦветовое пространство : YUVСубдискретизация насыщенности : 4:2:0Битовая глубина : 8 битТип развёртки : ПрогрессивнаяБит/(Пиксели*Кадры) : 0.250Размер потока : 4,90 Гбайт (69%)Библиотека кодирования : x264 core 146 r2538 121396cНастройки программы : cabac=1 / ref=9 / deblock=1:-3:-2 / analyse=0x3:0x113 / me=umh / subme=11 / psy=1 / psy_rd=1.00:0.15 / mixed_ref=1 / me_range=32 / chroma_me=1 / trellis=2 / 8x8dct=1 / cqm=0 / deadzone=21,11 / fast_pskip=0 / chroma_qp_offset=-3 / threads=6 / lookahead_threads=1 / sliced_threads=0 / nr=0 / decimate=1 / interlaced=0 / bluray_compat=0 / constrained_intra=0 / bframes=7 / b_pyramid=2 / b_adapt=2 / b_bias=0 / direct=1 / weightb=1 / open_gop=0 / weightp=2 / keyint=230 / keyint_min=23 / scenecut=40 / intra_refresh=0 / rc_lookahead=40 / rc=crf / mbtree=0 / crf=18.5 / qcomp=0.60 / qpmin=0 / qpmax=69 / qpstep=4 / vbv_maxrate=62500 / vbv_bufsize=78125 / crf_max=0.0 / nal_hrd=none / filler=0 / ip_ratio=1.40 / pb_ratio=1.30 / aq=1:1.00Язык : EnglishDefault : ДаForced : Нет

Аудио #1Идентификатор : 2Формат : AC-3Формат/Информация : Audio Coding 3Параметр Endianness формата : BigИдентификатор кодека : A_AC3Продолжительность : 2 ч. 6 м.Вид битрейта : ПостоянныйБитрейт : 448 Кбит/секКаналы : 6 каналовРасположение каналов : Front: L C R, Side: L R, LFEЧастота : 48,0 КГцЧастота кадров : 31,250 кадров/сек (1536 SPF)Битовая глубина : 16 битМетод сжатия : С потерямиРазмер потока : 406 Мбайт (6%)Заголовок : DUB (с DVD Tycoon)Язык : RussianServiceKind/String : Complete MainDefault : ДаForced : Нет

Аудио #2Идентификатор : 3Формат : AC-3Формат/Информация : Audio Coding 3Параметр Endianness формата : BigИдентификатор кодека : A_AC3Продолжительность : 2 ч. 6 м.Вид битрейта : ПостоянныйБитрейт : 448 Кбит/секКаналы : 6 каналовРасположение каналов : Front: L C R, Side: L R, LFEЧастота : 48,0 КГцЧастота кадров : 31,250 кадров/сек (1536 SPF)Битовая глубина : 16 битМетод сжатия : С потерямиРазмер потока : 406 Мбайт (6%)Заголовок : MVO (с DVD Позитив-Мультимедиа)Язык : RussianServiceKind/String : Complete MainDefault : НетForced : Нет

Аудио #3Идентификатор : 4Формат : AC-3Формат/Информация : Audio Coding 3Параметр Endianness формата : BigИдентификатор кодека : A_AC3Продолжительность : 2 ч. 6 м.Вид битрейта : ПостоянныйБитрейт : 448 Кбит/секКаналы : 6 каналовРасположение каналов : Front: L C R, Side: L R, LFEЧастота : 48,0 КГцЧастота кадров : 31,250 кадров/сек (1536 SPF)Битовая глубина : 16 битМетод сжатия : С потерямиРазмер потока : 406 Мбайт (6%)Заголовок : AVO (Сергей Визгунов, с DVD Tycoon)Язык : RussianServiceKind/String : Complete MainDefault : НетForced : Нет

Аудио #4Идентификатор : 5Формат : AC-3Формат/Информация : Audio Coding 3Параметр Endianness формата : BigИдентификатор кодека : A_AC3Продолжительность : 2 ч. 6 м.Вид битрейта : ПостоянныйБитрейт : 192 Кбит/секКаналы : 2 каналаРасположение каналов : Front: L RЧастота : 48,0 КГцЧастота кадров : 31,250 кадров/сек (1536 SPF)Битовая глубина : 16 битМетод сжатия : С потерямиРазмер потока : 174 Мбайт (2%)Заголовок : AVO (Андрей Гаврилов)Язык : RussianServiceKind/String : Complete MainDefault : НетForced : Нет

Аудио #5Идентификатор : 6Формат : AC-3Формат/Информация : Audio Coding 3Параметр Endianness формата : BigИдентификатор кодека : A_AC3Продолжительность : 2 ч. 6 м.Вид битрейта : ПостоянныйБитрейт : 448 Кбит/секКаналы : 6 каналовРасположение каналов : Front: L C R, Side: L R, LFEЧастота : 48,0 КГцЧастота кадров : 31,250 кадров/сек (1536 SPF)Битовая глубина : 16 битМетод сжатия : С потерямиРазмер потока : 406 Мбайт (6%)Заголовок : AVO (Юрий Живов)Язык : RussianServiceKind/String : Complete MainDefault : НетForced : Нет

Аудио #6Идентификатор : 7Формат : AC-3Формат/Информация : Audio Coding 3Параметр Endianness формата : BigИдентификатор кодека : A_AC3Продолжительность : 2 ч. 6 м.Вид битрейта : ПостоянныйБитрейт : 448 Кбит/секКаналы : 6 каналовРасположение каналов : Front: L C R, Side: L R, LFEЧастота : 48,0 КГцЧастота кадров : 31,250 кадров/сек (1536 SPF)Битовая глубина : 16 битМетод сжатия : С потерямиРазмер потока : 406 Мбайт (6%)Заголовок : originalЯзык : EnglishServiceKind/String : Complete MainDefault : НетForced : Нет

Текст #1Идентификатор : 8Формат : UTF-8Идентификатор кодека : S_TEXT/UTF8Идентификатор кодека/Информация : UTF-8 Plain TextПродолжительность : 2 ч. 1 м.Битрейт : 140 бит/секElementCount : 2081Размер потока : 125 Кбайт (0%)Заголовок : русскиеЯзык : RussianDefault : НетForced : Нет

Текст #2Идентификатор : 9Формат : UTF-8Идентификатор кодека : S_TEXT/UTF8Идентификатор кодека/Информация : UTF-8 Plain TextПродолжительность : 2 ч. 1 м.Битрейт : 83 бит/секElementCount : 1877Размер потока : 74,2 Кбайт (0%)Заголовок : английскиеЯзык : EnglishDefault : НетForced : Нет

piratbit.ru

Скачать фильм Чего хотят женщины через торрент в хорошем качестве бесплатно HDRip

Раздают: 1 [ 0 KB/s ]
Размер: 1.46 GB | Добавлен: 5 лет 10 мес. назад | Торрент скачан:321 раз
Реклама Дарим 3000 рублей за регистрацию, не упусти свой шанс получить шикарный бонус!!!

24-12-2011 11:57 Чего хотят женщины Скачать торрент  

Чего хотят женщины / What Women Want Год выпуска: 2000 Страна: США Жанр: фэнтези, комедия, мелодрама Продолжительность: 02:06:39 Перевод: Профессиональный (полное дублирование) Субтитры: отсутствуют Режиссёр: Нэнси Майерс В ролях: Мэл Гибсон /Mel Gibson/, Хелен Хант /Helen Hunt/, Мариса Томей /Marisa Tomei/, Алан Алда /Alan Alda/, Эшли Джонсон /Ashley Johnson/, Марк Фойерстин /Mark Feuerstein/, Лорен Холли /Lauren Holly/, Дельта Бурк /Delta Burke/, Валери Перрайн /Valerie Perrine/, Джуди Грир /Judy Greer/, Сара Полсон /Sarah Paulson/, Ана Гэстайер /Ana Gasteyer/ Описание: Сексапильный Ник Маршал — плейбой из Чикаго, считающий себя просто божьим подарком женскому населению планеты. Он находится на пике карьеры в одном из ведущих рекламных агентств и должен получить дальнейшее продвижение по службе… или должен был. Глава агентства считает, что женщина лучше понимает рынок женских товаров. И вскоре в агентстве появляется очень талантливый эксперт и очаровательная женщина Дарси Макгуайр, которая становится руководителем Ника. Во время домашней проработки первого задания новой начальницы с Ником происходит несчастный случай, после которого он открывает в себе уникальный дар: он может читать женские мысли. Эта способность сначала доводит Ника до полного отчаяния, а затем открывает шанс, читая мысли Дарси и выдавая их за свои, наконец вернуть себе утраченные позиции в агентстве. И когда реализация коварного плана была в полном разгаре, одно непредвиденное обстоятельство свело все на нет. Имя этому обстоятельству — любовь… Качество: HDRip Формат: AVI Видео кодек: XviD Аудио кодек: AC3 Видео: 720x400 (1.80:1), 23.976 fps, XviD build 50 ~1191 kbps avg, 0.17 bit/pixel Аудио: 48 kHz, AC3 Dolby Digital, 3/2 (L,C,R,l,r) + LFE ch, ~448.00 kbps avg Скачать Чего хотят женщины через торрент http://i31.fastpic.ru/big/2011/1224/ca/db487339722fdf46f9453825fbd77fca.png Скачать фильм Чего хотят женщины через торрент бесплантно в хорошем качестве Описание: Сексапильный Ник Маршал — плейбой из Чикаго, считающий себя просто божьим подарком женскому населению планеты. Он находится на ... 2011-12-24 11:57 10 10 6

Loading...

Loading...

Последний раз редактировалось: stalonе (2011-12-24 12:42), всего редактировалось 1 раз

Рекламный пират

24-12-2011 12:38 Чего хотят женщины Скачать торрент  

Сэму Фелану сказочно повезло. На него свалилась огромная сумма денег - 625 тысяч 731 доллар. Они с женой наконец-то смогут выплатить кредит и купить новенькое авто. Но вот беда - это деньги бандитов. И теперь супругам придется вернуть потраченное - 74 тысячи 316 долларов и еще 47 центов, иначе им не поздоровится.Чую подвох.Насколько мне известно этот фильм не про мафиози )

24-12-2011 12:42 Чего хотят женщины Скачать торрент  

JaneDIK45 Спасибо) Спать хочу не внимательный уже)

24-12-2011 13:16 Чего хотят женщины Скачать торрент  

Фильм хороший но далеко фентези :)

24-12-2011 14:01 Чего хотят женщины Скачать торрент  

Дорогой пользователь! Огромная просьба, поблагодарите релизера, оцените раздачу и оставьте свои комментарий, если Вы скачали Чего хотят женщины через торрент бесплатно! Внесите свою лепту в развитие PiratBit!

Комментировать посты могут только пользователи прошедшие не сложную регистрацию

Чего хотят женщины через торрент Скачать бесплатно Чего хотят женщины Чего хотят женщины скачать торрент Чего хотят женщины смотреть онлайн Cкачать фильм Чего хотят женщины бесплатно Чего хотят женщины скачать торрент в хорошем качестве Чего хотят женщины смотреть онлайн бесплатно в хорошем качестве

Вы не можете начинать темыВы не можете отвечать на сообщенияВы не можете редактировать свои сообщенияВы не можете удалять свои сообщенияВы не можете голосовать в опросахВы не можете прикреплять файлы к сообщениямВы можете скачивать файлы

piratbit.ru

Чего хотят женщины через торрент

ОбщееУникальный идентификатор : 219692754076706933223615112303678836021 (0xA547490D9F881BE39A45E91824FBCD35)Полное имя : D:\Video\Чего хотят женщины 2000.BDRip.1080p by msltel.mkvФормат : MatroskaВерсия формата : Version 4 / Version 2Размер файла : 17,5 ГбайтПродолжительность : 2 ч. 6 м.Общий поток : 19,8 Мбит/секНазвание фильма : Rip by msltelДата кодирования : UTC 2017-08-17 07:44:43Программа кодирования : mkvmerge v8.2.0 ('World of Adventure') 64bitБиблиотека кодирования : libebml v1.3.1 + libmatroska v1.4.2

ВидеоИдентификатор : 1Формат : AVCФормат/Информация : Advanced Video CodecПрофиль формата : [email protected]Параметр CABAC формата : ДаПараметр RefFrames формата : 4 кадраИдентификатор кодека : V_MPEG4/ISO/AVCПродолжительность : 2 ч. 6 м.Битрейт : 16,3 Мбит/секШирина : 1920 пикселейВысота : 1080 пикселейСоотношение сторон : 16:9Режим частоты кадров : ПостоянныйЧастота кадров : 23,976 (24000/1001) кадра/секЦветовое пространство : YUVСубдискретизация насыщенности : 4:2:0Битовая глубина : 8 битТип развёртки : ПрогрессивнаяБит/(Пиксели*Кадры) : 0.328Размер потока : 14,4 Гбайт (82%)Библиотека кодирования : x264 core 146 r2538 121396cНастройки программы : cabac=1 / ref=4 / deblock=1:-3:-2 / analyse=0x3:0x113 / me=umh / subme=11 / psy=1 / psy_rd=1.00:0.15 / mixed_ref=1 / me_range=32 / chroma_me=1 / trellis=2 / 8x8dct=1 / cqm=0 / deadzone=21,11 / fast_pskip=0 / chroma_qp_offset=-3 / threads=6 / lookahead_threads=1 / sliced_threads=0 / nr=0 / decimate=1 / interlaced=0 / bluray_compat=0 / constrained_intra=0 / bframes=7 / b_pyramid=2 / b_adapt=2 / b_bias=0 / direct=1 / weightb=1 / open_gop=0 / weightp=2 / keyint=230 / keyint_min=23 / scenecut=40 / intra_refresh=0 / rc_lookahead=40 / rc=crf / mbtree=0 / crf=18.2 / qcomp=0.60 / qpmin=0 / qpmax=69 / qpstep=4 / vbv_maxrate=62500 / vbv_bufsize=78125 / crf_max=0.0 / nal_hrd=none / filler=0 / ip_ratio=1.40 / pb_ratio=1.30 / aq=1:1.00Язык : EnglishDefault : ДаForced : Нет

Аудио #1Идентификатор : 2Формат : AC-3Формат/Информация : Audio Coding 3Параметр Endianness формата : BigИдентификатор кодека : A_AC3Продолжительность : 2 ч. 6 м.Вид битрейта : ПостоянныйБитрейт : 448 Кбит/секКаналы : 6 каналовРасположение каналов : Front: L C R, Side: L R, LFEЧастота : 48,0 КГцЧастота кадров : 31,250 кадров/сек (1536 SPF)Битовая глубина : 16 битМетод сжатия : С потерямиРазмер потока : 406 Мбайт (2%)Заголовок : DUB (с DVD Tycoon)Язык : RussianServiceKind/String : Complete MainDefault : ДаForced : Нет

Аудио #2Идентификатор : 3Формат : AC-3Формат/Информация : Audio Coding 3Параметр Endianness формата : BigИдентификатор кодека : A_AC3Продолжительность : 2 ч. 6 м.Вид битрейта : ПостоянныйБитрейт : 448 Кбит/секКаналы : 6 каналовРасположение каналов : Front: L C R, Side: L R, LFEЧастота : 48,0 КГцЧастота кадров : 31,250 кадров/сек (1536 SPF)Битовая глубина : 16 битМетод сжатия : С потерямиРазмер потока : 406 Мбайт (2%)Заголовок : MVO (с DVD Позитив-Мультимедиа)Язык : RussianServiceKind/String : Complete MainDefault : НетForced : Нет

Аудио #3Идентификатор : 4Формат : AC-3Формат/Информация : Audio Coding 3Параметр Endianness формата : BigИдентификатор кодека : A_AC3Продолжительность : 2 ч. 6 м.Вид битрейта : ПостоянныйБитрейт : 448 Кбит/секКаналы : 6 каналовРасположение каналов : Front: L C R, Side: L R, LFEЧастота : 48,0 КГцЧастота кадров : 31,250 кадров/сек (1536 SPF)Битовая глубина : 16 битМетод сжатия : С потерямиРазмер потока : 406 Мбайт (2%)Заголовок : AVO (Сергей Визгунов, с DVD Tycoon)Язык : RussianServiceKind/String : Complete MainDefault : НетForced : Нет

Аудио #4Идентификатор : 5Формат : AC-3Формат/Информация : Audio Coding 3Параметр Endianness формата : BigИдентификатор кодека : A_AC3Продолжительность : 2 ч. 6 м.Вид битрейта : ПостоянныйБитрейт : 192 Кбит/секКаналы : 2 каналаРасположение каналов : Front: L RЧастота : 48,0 КГцЧастота кадров : 31,250 кадров/сек (1536 SPF)Битовая глубина : 16 битМетод сжатия : С потерямиРазмер потока : 174 Мбайт (1%)Заголовок : AVO (Андрей Гаврилов)Язык : RussianServiceKind/String : Complete MainDefault : НетForced : Нет

Аудио #5Идентификатор : 6Формат : AC-3Формат/Информация : Audio Coding 3Параметр Endianness формата : BigИдентификатор кодека : A_AC3Продолжительность : 2 ч. 6 м.Вид битрейта : ПостоянныйБитрейт : 448 Кбит/секКаналы : 6 каналовРасположение каналов : Front: L C R, Side: L R, LFEЧастота : 48,0 КГцЧастота кадров : 31,250 кадров/сек (1536 SPF)Битовая глубина : 16 битМетод сжатия : С потерямиРазмер потока : 406 Мбайт (2%)Заголовок : AVO (Юрий Живов)Язык : RussianServiceKind/String : Complete MainDefault : НетForced : Нет

Аудио #6Идентификатор : 7Формат : DTSФормат/Информация : Digital Theater SystemsРежим : 16Параметр Endianness формата : BigИдентификатор кодека : A_DTSПродолжительность : 2 ч. 6 м.Вид битрейта : ПостоянныйБитрейт : 1509 Кбит/секКаналы : 6 каналовРасположение каналов : Front: L C R, Side: L R, LFEЧастота : 48,0 КГцЧастота кадров : 93,750 кадра/сек (512 SPF)Битовая глубина : 16 битМетод сжатия : С потерямиРазмер потока : 1,34 Гбайт (8%)Заголовок : originalЯзык : EnglishDefault : НетForced : Нет

Текст #1Идентификатор : 8Формат : UTF-8Идентификатор кодека : S_TEXT/UTF8Идентификатор кодека/Информация : UTF-8 Plain TextПродолжительность : 2 ч. 1 м.Битрейт : 140 бит/секElementCount : 2081Размер потока : 125 Кбайт (0%)Заголовок : русскиеЯзык : RussianDefault : НетForced : Нет

Текст #2Идентификатор : 9Формат : UTF-8Идентификатор кодека : S_TEXT/UTF8Идентификатор кодека/Информация : UTF-8 Plain TextПродолжительность : 2 ч. 1 м.Битрейт : 83 бит/секElementCount : 1877Размер потока : 74,2 Кбайт (0%)Заголовок : английскиеЯзык : EnglishDefault : НетForced : Нет

piratbit.ru

Чего хотят женщины / What Women Want [2000 HDRip] [AVO] скачать через торрент

Размер: 1.45 GB | Добавлен: 2 года 7 мес. назад | Торрент скачан:24 раза
Реклама Дарим 3000 рублей за регистрацию, не упусти свой шанс получить шикарный бонус!!!

02-03-2015 16:05 Чего хотят женщины Скачать торрент  

Чего хотят женщины / What Women Want Год выпуска: 2000Страна: СШАЖанр: фэнтези, мелодрама, комедияПродолжительность: 02:06:39Перевод: Авторский (одноголосый, закадровый) [Андрей Гаврилов]Cубтитры: нет

Режиссер: Нэнси Мейерс / Nancy Meyers

В ролях: Мэл Гибсон, Хелен Хант, Мариса Томей, Лорен Холли, Марк Фойерстин, Алан Алда, Эшли Джонсон, Дельта Бурк, Валери Перрайн

Описание: Сексапильный Ник Маршал — плейбой из Чикаго, считающий себя просто божьим подарком женскому населению планеты. Он находится на пике карьеры в одном из ведущих рекламных агентств и должен получить дальнейшее продвижение по службе… или должен был.Глава агентства считает, что женщина лучше понимает рынок женских товаров. И вскоре в агентстве появляется очень талантливый эксперт и очаровательная женщина Дарси Макгуайр, которая становится руководителем Ника. Во время домашней проработки первого задания новой начальницы с Ником происходит несчастный случай, после которого он открывает в себе уникальный дар: он может читать женские мысли.Эта способность сначала доводит Ника до полного отчаяния, а затем открывает шанс, читая мысли Дарси и выдавая их за свои, наконец вернуть себе утраченные позиции в агентстве.И когда реализация коварного плана была в полном разгаре, одно непредвиденное обстоятельство свело все на нет. Имя этому обстоятельству — любовь…

Качество видео: HDRip спасибо ScarabeyФормат видео: AVIВидео кодек: XviDАудио кодек: AC3Видео: 688x384 (1.79:1), 23.976 fps, XviD build 73 ~1434 kbps avg, 0.23 bit/pixelАудио: 48 kHz, AC3 Dolby Digital, 2/0 (L,R) ch, ~192 kbps

За перевод Гаврилова большое спасибо форуму HDTracker и AVO-fan"]

Раздача от -- JIuI3epIIyJIb

Полное имя : Чего хотят женщины 2000.aviФормат : AVIФормат/Информация : Audio Video InterleaveРазмер файла : 1,45 ГбайтПродолжительность : 2 ч. 6 м.Общий поток : 1636 Кбит/секПрограмма кодирования : VirtualDubMod 1.5.10.2 (build 2540/release)Библиотека кодирования : VirtualDubMod build 2540/releaseВидеоИдентификатор : 0Формат : MPEG-4 VisualПрофиль формата : Advanced [email protected]Параметр BVOP формата : 1Параметр QPel формата : НетПараметр GMC формата : Без точки переходаПараметр матрицы формата : ВыборочнаяИдентификатор кодека : XVIDИдентификатор кодека/Подсказка : XviDПродолжительность : 2 ч. 6 м.Битрейт : 1435 Кбит/секШирина : 688 пикселейВысота : 384 пикселяСоотношение сторон : 16:9Частота кадров : 23,976 кадра/секЦветовое пространство : YUVСубдискретизация насыщенности : 4:2:0Битовая глубина : 8 битТип развёртки : ПрогрессивнаяМетод сжатия : С потерямиБит/(Пиксели*Кадры) : 0.227Размер потока : 1,27 Гбайт (88%)Библиотека кодирования : XviD 73АудиоИдентификатор : 1Формат : AC-3Формат/Информация : Audio Coding 3Расширение режима : CM (complete main)Параметр Endianness формата : BigИдентификатор кодека : 2000Продолжительность : 2 ч. 6 м.Вид битрейта : ПостоянныйБитрейт : 192 Кбит/секКаналы : 2 каналаРасположение каналов : Front: L RЧастота : 48,0 КГцБитовая глубина : 16 битМетод сжатия : С потерямиРазмер потока : 174 Мбайт (12%)Выравнивание : Разделение по промежуткамПродолжительность промежутка : 42 мс. (1,00 видеокадр)Время предзагрузки промежутка : 500 мс.

Скачать Чего хотят женщины через торрент http://i65.fastpic.ru/big/2015/0301/41/edabf7b5bbc08bb226a29240d21e7341.jpg Скачать фильм Чего хотят женщины через торрент бесплантно в хорошем качестве Описание: Сексапильный Ник Маршал — плейбой из Чикаго, считающий себя просто божьим подарком женскому населению планеты. Он находится на ... 2015-03-02 16:05 10 10 5

Loading...

Loading...

Рекламный пират

Дорогой пользователь! Огромная просьба, поблагодарите релизера, оцените раздачу и оставьте свои комментарий, если Вы скачали Чего хотят женщины через торрент бесплатно! Внесите свою лепту в развитие PiratBit!

Комментировать посты могут только пользователи прошедшие не сложную регистрацию

Чего хотят женщины через торрент Скачать бесплатно Чего хотят женщины Чего хотят женщины скачать торрент Чего хотят женщины смотреть онлайн Cкачать фильм Чего хотят женщины бесплатно Чего хотят женщины скачать торрент в хорошем качестве Чего хотят женщины смотреть онлайн бесплатно в хорошем качестве

Вы не можете начинать темыВы не можете отвечать на сообщенияВы не можете редактировать свои сообщенияВы не можете удалять свои сообщенияВы не можете голосовать в опросахВы не можете прикреплять файлы к сообщениямВы можете скачивать файлы

piratbit.ru


Смотрите также