Скачать фильм боец поневоле через торрент бесплатно в хорошем качестве


Скачать фильм Боец поневоле через торрент в хорошем качестве бесплатно 720p

frame I:1097 Avg QP:13.79 size: 87881frame P:43110 Avg QP:15.67 size: 40892frame B:99677 Avg QP:17.41 size: 13695

ОбщееУникальный идентификатор : 203773414333101855509871542352323054928 (0x994D550173DD1A2BA12C6AE504208D50)Полное имя : D:\Video\Boec ponevole.2011.BDRip.720p.mkvФормат : MatroskaВерсия формата : Version 4 / Version 2Размер файла : 3,45 ГбайтПродолжительность : 1 ч. 40 м.Общий поток : 4941 Кбит/секДата кодирования : UTC 2014-11-05 13:39:23Программа кодирования : mkvmerge v7.3.0 ('Nouages') 64bit built on Oct 22 2014 18:53:34Библиотека кодирования : libebml v1.3.0 + libmatroska v1.4.1DURATION : 01:36:42.880000000NUMBER_OF_FRAMES : 1241NUMBER_OF_BYTES : 38331_STATISTICS_WRITING_APP : mkvmerge v7.3.0 ('Nouages') 64bit built on Oct 22 2014 18:53:34_STATISTICS_WRITING_DATE_UTC : 2014-11-05 13:39:23_STATISTICS_TAGS : BPS DURATION NUMBER_OF_FRAMES NUMBER_OF_BYTES

ВидеоИдентификатор : 1Формат : AVCФормат/Информация : Advanced Video CodecПрофиль формата : [email protected]Параметр CABAC формата : ДаПараметр ReFrames формата : 9 кадровИдентификатор кодека : V_MPEG4/ISO/AVCПродолжительность : 1 ч. 40 м.Битрейт : 4202 Кбит/секШирина : 1280 пикселейВысота : 720 пикселейСоотношение сторон : 16:9Режим частоты кадров : ПостоянныйЧастота кадров : 23,976 кадра/секЦветовое пространство : YUVСубдискретизация насыщенности : 4:2:0Битовая глубина : 8 битТип развёртки : ПрогрессивнаяБит/(Пиксели*Кадры) : 0.190Размер потока : 2,94 Гбайт (85%)Заголовок : BDRip -- STarankovБиблиотека кодирования : x264 core 142 r2431 ac76440Настройки программы : cabac=1 / ref=9 / deblock=1:-1:-1 / analyse=0x3:0x113 / me=umh / subme=10 / psy=1 / psy_rd=1.00:0.15 / mixed_ref=1 / me_range=32 / chroma_me=1 / trellis=2 / 8x8dct=1 / cqm=0 / deadzone=21,11 / fast_pskip=1 / chroma_qp_offset=-3 / threads=6 / lookahead_threads=1 / sliced_threads=0 / nr=0 / decimate=1 / interlaced=0 / bluray_compat=0 / constrained_intra=0 / bframes=8 / b_pyramid=2 / b_adapt=2 / b_bias=0 / direct=3 / weightb=1 / open_gop=0 / weightp=2 / keyint=230 / keyint_min=23 / scenecut=40 / intra_refresh=0 / rc_lookahead=40 / rc=crf / mbtree=0 / crf=17.7 / qcomp=0.60 / qpmin=0 / qpmax=69 / qpstep=4 / vbv_maxrate=50000 / vbv_bufsize=62500 / crf_max=0.0 / nal_hrd=none / filler=0 / ip_ratio=1.40 / pb_ratio=1.30 / aq=1:1.00Язык : EnglishDefault : ДаForced : НетDURATION : 01:40:01.162000000NUMBER_OF_FRAMES : 143884NUMBER_OF_BYTES : 3224392265_STATISTICS_WRITING_APP : mkvmerge v7.3.0 ('Nouages') 64bit built on Oct 22 2014 18:53:34_STATISTICS_WRITING_DATE_UTC : 2014-11-05 13:39:23_STATISTICS_TAGS : BPS DURATION NUMBER_OF_FRAMES NUMBER_OF_BYTES

Аудио #1Идентификатор : 2Формат : AC-3Формат/Информация : Audio Coding 3Профиль формата : Dolby DigitalРасширение режима : CM (complete main)Параметр Endianness формата : BigИдентификатор кодека : A_AC3Продолжительность : 1 ч. 40 м.Вид битрейта : ПостоянныйБитрейт : 192 Кбит/секКаналы : 2 каналаРасположение каналов : Front: L RЧастота : 48,0 КГцБитовая глубина : 16 битМетод сжатия : С потерямиРазмер потока : 137 Мбайт (4%)Заголовок : MVOЯзык : RussianDefault : ДаForced : Нет

Аудио #2Идентификатор : 3Формат : AC-3Формат/Информация : Audio Coding 3Расширение режима : CM (complete main)Параметр Endianness формата : BigИдентификатор кодека : A_AC3Продолжительность : 1 ч. 40 м.Вид битрейта : ПостоянныйБитрейт : 448 Кбит/секКаналы : 6 каналовРасположение каналов : Front: L C R, Side: L R, LFEЧастота : 48,0 КГцБитовая глубина : 16 битМетод сжатия : С потерямиРазмер потока : 320 Мбайт (9%)Заголовок : OriginalЯзык : EnglishDefault : НетForced : Нет

ТекстИдентификатор : 4Формат : UTF-8Идентификатор кодека : S_TEXT/UTF8Идентификатор кодека/Информация : UTF-8 Plain TextЗаголовок : английскийЯзык : EnglishDefault : НетForced : Нет

Меню00:00:00.000 : :Chapter 0100:04:42.282 : :Chapter 0200:13:08.787 : :Chapter 0300:23:04.883 : :Chapter 0400:31:43.067 : :Chapter 0500:44:59.697 : :Chapter 0600:56:42.982 : :Chapter 0701:06:04.585 : :Chapter 0801:13:10.386 : :Chapter 0901:18:55.105 : :Chapter 1001:29:56.432 : :Chapter 1101:37:14.829 : :Chapter 1201:40:01.161 : :Chapter 13

piratbit.ru

Скачать фильм Боец поневоле (2011) через торрент

29 марта 2016 11:47 Боец поневоле / Forced to Fight (2011) HDRip от TorrNada | КПК .torrent   [Информация о файле (нажмите для просмотра)] Формат: AVCКачество: HDRip | КПКВидео: AVC, 480x272 (16:9), 23.976 fps, 350 Kbps (0.112 bit/pixel)Звук: AAC LC, 44.1 KHz, 2 ch, 126 Kbps, VBRСубтитры: Нет 341,84 Mb 2 3 29 марта 2016 11:47 Боец поневоле / Forced to Fight (2011) BDRip 1080p by msltel | P .torrent   [Информация о файле (нажмите для просмотра)] Перевод: профессиональный многоголосыйСубтитры: английскиеКачество: BDRip 1080pСравнение с исходникомФормат: MKVВидео: 13.8 Mbps,1920x1080, 23.976 кадра/с, 0.278 bppАудио 1: русский, AC3, 192 kbps, 2 ch, 48 kHz [профессиональный многоголосый]Аудио 2: английский, DTS, 1509 kbps, 6 ch, 48 kHz [оригинал]Видео: Идентификатор : 1 Формат : AVC Формат/Информация : Advanced Video Codec Профиль формата : [email protected] Параметр CABAC формата : Да Параметр ReFrames формата : 4 кадра Идентификатор кодека : V_MPEG4/ISO/AVC Продолжительность : 1 ч. 40 м. Битрейт : 13,8 Мбит/сек Ширина : 1920 пикселей Высота : 1080 пикселей Соотношение сторон : 16:9 Режим частоты кадров : Постоянный Частота кадров : 23,976 кадра/сек Цветовое пространство : YUV Субдискретизация насыщенности : 4:2:0 Битовая глубина : 8 бит Тип развёртки : Прогрессивная Бит/(Пиксели*Кадры) : 0.278 Размер потока : 9,65 Гбайт (87%) Заголовок : BDRip -- STarankov Библиотека кодирования : x264 core 142 r2431 ac76440 Настройки программы : cabac=1 / ref=4 / deblock=1:-1:-1 / analyse=0x3:0x113 / me=umh / subme=10 / psy=1 / psy_rd=1.00:0.15 / mixed_ref=1 / me_range=32 / chroma_me=1 / trellis=2 / 8x8dct=1 / cqm=0 / deadzone=21,11 / fast_pskip=1 / chroma_qp_offset=-3 / threads=6 / lookahead_threads=1 / sliced_threads=0 / nr=0 / decimate=1 / interlaced=0 / bluray_compat=0 / constrained_intra=0 / bframes=8 / b_pyramid=2 / b_adapt=2 / b_bias=0 / direct=3 / weightb=1 / open_gop=0 / weightp=2 / keyint=230 / keyint_min=23 / scenecut=40 / intra_refresh=0 / rc_lookahead=40 / rc=crf / mbtree=0 / crf=17.7 / qcomp=0.60 / qpmin=0 / qpmax=69 / qpstep=4 / vbv_maxrate=50000 / vbv_bufsize=62500 / crf_max=0.0 / nal_hrd=none / filler=0 / ip_ratio=1.40 / pb_ratio=1.30 / aq=1:1.00 Язык : English Default : Да Forced : Нет DURATION : 01:40:01.162000000 NUMBER_OF_FRAMES : 143884 NUMBER_OF_BYTES : 10599933069 _STATISTICS_WRITING_APP : mkvmerge v7.3.0 ('Nouages') 64bit built on Oct 22 2014 18:53:34 _STATISTICS_WRITING_DATE_UTC : 2014-11-06 08:34:25 _STATISTICS_TAGS : BPS DURATION NUMBER_OF_FRAMES NUMBER_OF_BYTESАудио #1: Идентификатор : 2 Формат : AC-3 Формат/Информация : Audio Coding 3 Профиль формата : Dolby Digital Расширение режима : CM (complete main) Параметр Endianness формата : Big Идентификатор кодека : A_AC3 Продолжительность : 1 ч. 40 м. Вид битрейта : Постоянный Битрейт : 192 Кбит/сек Каналы : 2 канала Расположение каналов : Front: L R Частота : 48,0 КГц Битовая глубина : 16 бит Метод сжатия : С потерями Размер потока : 137 Мбайт (1%) Заголовок : MVO Язык : Russian Default : Да Forced : НетАудио #2: Идентификатор : 3 Формат : DTS Формат/Информация : Digital Theater Systems Режим : 16 Параметр Endianness формата : Big Идентификатор кодека : A_DTS Продолжительность : 1 ч. 40 м. Вид битрейта : Постоянный Битрейт : 1509 Кбит/сек Каналы : 6 каналов Расположение каналов : Front: L C R, Side: L R, LFE Частота : 48,0 КГц Битовая глубина : 24 бит Метод сжатия : С потерями Размер потока : 1,05 Гбайт (10%) Заголовок : Original Язык : English Default : Нет Forced : Нет 11,06 Gb 3 2 29 марта 2016 11:47 Боец поневоле / Forced to Fight (2011) BDRip 720p by msltel | P .torrent   [Информация о файле (нажмите для просмотра)] Перевод: профессиональный многоголосыйСубтитры: английскиеКачество: BDRip 720pСравнение с исходникомФормат: MKVВидео: 4202 kbps,1280x720, 23.976 кадра/с, 0.190 bppАудио 1: русский, AC3, 192 kbps, 2 ch, 48 kHz [профессиональный многоголосый]Аудио 2: английский, AC3, 448 kbps, 6 ch, 48 kHz [оригинал]Видео: Идентификатор : 1 Формат : AVC Формат/Информация : Advanced Video Codec Профиль формата : [email protected] Параметр CABAC формата : Да Параметр ReFrames формата : 9 кадров Идентификатор кодека : V_MPEG4/ISO/AVC Продолжительность : 1 ч. 40 м. Битрейт : 4202 Кбит/сек Ширина : 1280 пикселей Высота : 720 пикселей Соотношение сторон : 16:9 Режим частоты кадров : Постоянный Частота кадров : 23,976 кадра/сек Цветовое пространство : YUV Субдискретизация насыщенности : 4:2:0 Битовая глубина : 8 бит Тип развёртки : Прогрессивная Бит/(Пиксели*Кадры) : 0.190 Размер потока : 2,94 Гбайт (85%) Заголовок : BDRip -- STarankov Библиотека кодирования : x264 core 142 r2431 ac76440 Настройки программы : cabac=1 / ref=9 / deblock=1:-1:-1 / analyse=0x3:0x113 / me=umh / subme=10 / psy=1 / psy_rd=1.00:0.15 / mixed_ref=1 / me_range=32 / chroma_me=1 / trellis=2 / 8x8dct=1 / cqm=0 / deadzone=21,11 / fast_pskip=1 / chroma_qp_offset=-3 / threads=6 / lookahead_threads=1 / sliced_threads=0 / nr=0 / decimate=1 / interlaced=0 / bluray_compat=0 / constrained_intra=0 / bframes=8 / b_pyramid=2 / b_adapt=2 / b_bias=0 / direct=3 / weightb=1 / open_gop=0 / weightp=2 / keyint=230 / keyint_min=23 / scenecut=40 / intra_refresh=0 / rc_lookahead=40 / rc=crf / mbtree=0 / crf=17.7 / qcomp=0.60 / qpmin=0 / qpmax=69 / qpstep=4 / vbv_maxrate=50000 / vbv_bufsize=62500 / crf_max=0.0 / nal_hrd=none / filler=0 / ip_ratio=1.40 / pb_ratio=1.30 / aq=1:1.00 Язык : English Default : Да Forced : Нет DURATION : 01:40:01.162000000 NUMBER_OF_FRAMES : 143884 NUMBER_OF_BYTES : 3224392265 _STATISTICS_WRITING_APP : mkvmerge v7.3.0 ('Nouages') 64bit built on Oct 22 2014 18:53:34 _STATISTICS_WRITING_DATE_UTC : 2014-11-05 13:39:23 _STATISTICS_TAGS : BPS DURATION NUMBER_OF_FRAMES NUMBER_OF_BYTESАудио #1: Идентификатор : 2 Формат : AC-3 Формат/Информация : Audio Coding 3 Профиль формата : Dolby Digital Расширение режима : CM (complete main) Параметр Endianness формата : Big Идентификатор кодека : A_AC3 Продолжительность : 1 ч. 40 м. Вид битрейта : Постоянный Битрейт : 192 Кбит/сек Каналы : 2 канала Расположение каналов : Front: L R Частота : 48,0 КГц Битовая глубина : 16 бит Метод сжатия : С потерями Размер потока : 137 Мбайт (4%) Заголовок : MVO Язык : Russian Default : Да Forced : НетАудио #2: Идентификатор : 3 Формат : AC-3 Формат/Информация : Audio Coding 3 Расширение режима : CM (complete main) Параметр Endianness формата : Big Идентификатор кодека : A_AC3 Продолжительность : 1 ч. 40 м. Вид битрейта : Постоянный Битрейт : 448 Кбит/сек Каналы : 6 каналов Расположение каналов : Front: L C R, Side: L R, LFE Частота : 48,0 КГц Битовая глубина : 16 бит Метод сжатия : С потерями Размер потока : 320 Мбайт (9%) Заголовок : Original Язык : English Default : Нет Forced : Нет 3,45 Gb 6 3 29 марта 2016 11:47 Боец поневоле / Forced to Fight (2011) DVD9 от NovaLan .torrent   [Информация о файле (нажмите для просмотра)] Перевод: Профессиональный многоголосыйКодек: MPEG-2Качество: DVD-9Видео: PAL 16:9 (720x576) VBRЗвук: Русский, английский (Dolby AC3, 6 ch)Субтитры: АнглийскиеВидео: Идентификатор : 224 (0xE0) Формат : MPEG Video Версия формата : Version 2 Профиль формата : [email protected] Параметр BVOP формата : Да Параметр матрицы формата : Выборочная Продолжительность : 14 м. Вид битрейта : Переменный Битрейт : 8768 Кбит/сек Максимальный битрейт : 8900 Кбит/сек Ширина : 720 пикселей Высота : 576 пикселей Соотношение сторон : 16:9 Частота кадров : 25,000 кадров/сек Стандарт вещания : PAL Цветовое пространство : YUV Субдискретизация насыщенности : 4:2:0 Битовая глубина : 8 бит Тип развёртки : Чересстрочная Порядок развёртки : Верхнее поле первое Метод сжатия : С потерями Бит/(Пиксели*Кадры) : 0.846 Размер потока : 911 Мбайт (89%)Аудио #1: Идентификатор : 189 (0xBD)-128 (0x80) Формат : AC-3 Формат/Информация : Audio Coding 3 Расширение режима : CM (complete main) Параметр Endianness формата : Big Режим смешивания : DVD-Video Продолжительность : 14 м. Вид битрейта : Постоянный Битрейт : 448 Кбит/сек Каналы : 6 каналов Расположение каналов : Front: L C R, Side: L R, LFE Частота : 48,0 КГц Битовая глубина : 16 бит Метод сжатия : С потерями Размер потока : 46,5 Мбайт (5%)Аудио #2: Идентификатор : 189 (0xBD)-129 (0x81) Формат : AC-3 Формат/Информация : Audio Coding 3 Расширение режима : CM (complete main) Параметр Endianness формата : Big Режим смешивания : DVD-Video Продолжительность : 14 м. Вид битрейта : Постоянный Битрейт : 448 Кбит/сек Каналы : 6 каналов Расположение каналов : Front: L C R, Side: L R, LFE Частота : 48,0 КГц Битовая глубина : 16 бит Метод сжатия : С потерями Размер потока : 46,5 Мбайт (5%) 7,02 Gb 3 1 29 марта 2016 11:47 Боец поневоле / Forced to Fight (2011) BDRip-AVC от potroks | НТВ .torrent   [Информация о файле (нажмите для просмотра)] Перевод: Профессиональный (двухголосый, закадровый)Субтитры: АнглийскиеКачество: HDRip-AVC [Blu-Ray]Формат: MKVВидео: H.264, 1024x576 (16:9), 23,976 fps, 2481 Кbps, 0.175 bit/pixelАудио#1: 48 kHz, AC3 Dolby Digital, 2/0 (L,R) ch, ~192 kbps avg |RUSАудио#2: 48 kHz, AC3 Dolby Digital, 3/2 (L,C,R,l,r) + LFE ch, ~448.00 kbps avg |ENG 2,18 Gb 4 3 29 марта 2016 11:47 Боец поневоле / Forced to Fight (2011) HDRip от New-Team .torrent   [Информация о файле (нажмите для просмотра)] Перевод: Профессиональный (многоголосый закадровый) [НТВ+]Видео: 688x384, 23.976 fps, XviD, ~909kbps, 0.144 bit/pixelАудио: 48 kHz, MP3, 2ch, 128kbps 748,59 Mb 6 6 29 марта 2016 11:47 Боец поневоле / Forced to Fight (2011) HDRip от New-Team .torrent   [Информация о файле (нажмите для просмотра)] Перевод: Профессиональный (многоголосый закадровый) [НТВ+]Видео: 688x384, 23.976 fps, XviD, ~1884 kbps avg, 0.297 bit/pixelАудио: 48 kHz, AC3 Dolby Digital, 2/0 (L,R) ch, ~192 kbps 1,46 Gb 7 3 29 марта 2016 11:47 Боец поневоле / Forced to Fight (2011) DVDRip от RG MixTorrent | P .torrent   [Информация о файле (нажмите для просмотра)] Качество: DVDRipВидео: XviD, 1796 Кбит/с, 720x352Аудио: AC3, 2 ch, 192 Кбит/сПеревод: Профессиональный многоголосый 1,34 Gb 2 4

gig-torrent.net

Скачать фильм Боец поневоле через торрент в хорошем качестве бесплатно 1080p

frame I:1001 Avg QP:12.65 size:176158frame P:55543 Avg QP:14.15 size:107457frame B:87340 Avg QP:15.43 size: 51009

ОбщееУникальный идентификатор : 214118581073416711045705843049141768209 (0xA115BD1B0B1DF3F891A5DCC8363A1011)Полное имя : D:VideoBoec ponevole.2011.BDRip.1080p.mkvФормат : MatroskaВерсия формата : Version 4 / Version 2Размер файла : 11,1 ГбайтПродолжительность : 1 ч. 40 м.Общий поток : 15,8 Мбит/секДата кодирования : UTC 2014-11-06 08:34:25Программа кодирования : mkvmerge v7.3.0 ('Nouages') 64bit built on Oct 22 2014 18:53:34Библиотека кодирования : libebml v1.3.0 + libmatroska v1.4.1_STATISTICS_WRITING_APP : mkvmerge v7.3.0 ('Nouages') 64bit built on Oct 22 2014 18:53:34_STATISTICS_WRITING_DATE_UTC : 2014-11-06 08:34:25_STATISTICS_TAGS : BPS DURATION NUMBER_OF_FRAMES NUMBER_OF_BYTESDURATION : 01:40:01.163000000NUMBER_OF_FRAMES : 562609NUMBER_OF_BYTES : 1131969376

ВидеоИдентификатор : 1Формат : AVCФормат/Информация : Advanced Video CodecПрофиль формата : [email protected]Параметр CABAC формата : ДаПараметр ReFrames формата : 4 кадраИдентификатор кодека : V_MPEG4/ISO/AVCПродолжительность : 1 ч. 40 м.Битрейт : 13,8 Мбит/секШирина : 1920 пикселейВысота : 1080 пикселейСоотношение сторон : 16:9Режим частоты кадров : ПостоянныйЧастота кадров : 23,976 кадра/секЦветовое пространство : YUVСубдискретизация насыщенности : 4:2:0Битовая глубина : 8 битТип развёртки : ПрогрессивнаяБит/(Пиксели*Кадры) : 0.278Размер потока : 9,65 Гбайт (87%)Заголовок : BDRip -- STarankovБиблиотека кодирования : x264 core 142 r2431 ac76440Настройки программы : cabac=1 / ref=4 / deblock=1:-1:-1 / analyse=0x3:0x113 / me=umh / subme=10 / psy=1 / psy_rd=1.00:0.15 / mixed_ref=1 / me_range=32 / chroma_me=1 / trellis=2 / 8x8dct=1 / cqm=0 / deadzone=21,11 / fast_pskip=1 / chroma_qp_offset=-3 / threads=6 / lookahead_threads=1 / sliced_threads=0 / nr=0 / decimate=1 / interlaced=0 / bluray_compat=0 / constrained_intra=0 / bframes=8 / b_pyramid=2 / b_adapt=2 / b_bias=0 / direct=3 / weightb=1 / open_gop=0 / weightp=2 / keyint=230 / keyint_min=23 / scenecut=40 / intra_refresh=0 / rc_lookahead=40 / rc=crf / mbtree=0 / crf=17.7 / qcomp=0.60 / qpmin=0 / qpmax=69 / qpstep=4 / vbv_maxrate=50000 / vbv_bufsize=62500 / crf_max=0.0 / nal_hrd=none / filler=0 / ip_ratio=1.40 / pb_ratio=1.30 / aq=1:1.00Язык : EnglishDefault : ДаForced : НетDURATION : 01:40:01.162000000NUMBER_OF_FRAMES : 143884NUMBER_OF_BYTES : 10599933069_STATISTICS_WRITING_APP : mkvmerge v7.3.0 ('Nouages') 64bit built on Oct 22 2014 18:53:34_STATISTICS_WRITING_DATE_UTC : 2014-11-06 08:34:25_STATISTICS_TAGS : BPS DURATION NUMBER_OF_FRAMES NUMBER_OF_BYTES

Аудио #1Идентификатор : 2Формат : AC-3Формат/Информация : Audio Coding 3Профиль формата : Dolby DigitalРасширение режима : CM (complete main)Параметр Endianness формата : BigИдентификатор кодека : A_AC3Продолжительность : 1 ч. 40 м.Вид битрейта : ПостоянныйБитрейт : 192 Кбит/секКаналы : 2 каналаРасположение каналов : Front: L RЧастота : 48,0 КГцБитовая глубина : 16 битМетод сжатия : С потерямиРазмер потока : 137 Мбайт (1%)Заголовок : MVOЯзык : RussianDefault : ДаForced : Нет

Аудио #2Идентификатор : 3Формат : DTSФормат/Информация : Digital Theater SystemsРежим : 16Параметр Endianness формата : BigИдентификатор кодека : A_DTSПродолжительность : 1 ч. 40 м.Вид битрейта : ПостоянныйБитрейт : 1509 Кбит/секКаналы : 6 каналовРасположение каналов : Front: L C R, Side: L R, LFEЧастота : 48,0 КГцБитовая глубина : 24 битМетод сжатия : С потерямиРазмер потока : 1,05 Гбайт (10%)Заголовок : OriginalЯзык : EnglishDefault : НетForced : Нет

ТекстИдентификатор : 4Формат : UTF-8Идентификатор кодека : S_TEXT/UTF8Идентификатор кодека/Информация : UTF-8 Plain TextЗаголовок : английскийЯзык : EnglishDefault : НетForced : Нет

Меню00:00:00.000 : :Chapter 0100:04:42.282 : :Chapter 0200:13:08.787 : :Chapter 0300:23:04.883 : :Chapter 0400:31:43.067 : :Chapter 0500:44:59.697 : :Chapter 0600:56:42.982 : :Chapter 0701:06:04.585 : :Chapter 0801:13:10.386 : :Chapter 0901:18:55.105 : :Chapter 1001:29:56.432 : :Chapter 1101:37:14.829 : :Chapter 1201:40:01.161 : :Chapter 13

piratbit.ru

Скачать фильм Боец поневоле через торрент в хорошем качестве бесплатно DVDRip

Размер: 1.37 GB | Добавлен: 5 лет 1 мес. назад | Торрент скачан:73 раза
Реклама Дарим 3000 рублей за регистрацию, не упусти свой шанс получить шикарный бонус!!!

24-09-2012 07:51 Боец поневоле Скачать торрент  

Боец поневоле / Die Unbeugsamen

Год выпуска: 2006Страна: ГерманияЖанр: драма, криминалПродолжительность: 01:34:30Перевод: Профессиональный двухголосый

Режиссер: Дёрк РегельПродюссер: Дитмар Гюнче, Эберхард ЮнкерсдорфСценарий: -

Премьера в мире: 3 ноября 2006

Мировой рейтинг IMDB 4.60 (23)

В ролях: Вотан Вильке Мёринг, Анна Лус, Кристиан Карманн, Ина Пауле Клинк, Thomas Danneberg, Торстен Феллер, Норберт Хейстеркамп, Адриан Пул, Тайрон Рикеттс, Uwe Uhlmann

Описание: По ложному обвинению, сфабрикованному его же сослуживцем, Макс, офицер полиции и отличный боксёр, приговорён к одиннадцати месяцам тюремного заключения за преступление, которого не совершал. Очень не просто полицейскому отбывать срок в тюрьме рядом с теми, кого совсем недавно выслеживал. К тому же тюремный пахан — один из тех, кого Макс сам сюда когда-то отправил. Но больше всего его угнетает, что друзья и любимая девушка ему не верят. Под нажимом обстоятельств Макс соглашается участвовать в эксперименте начальницы тюрьмы — программе антиагрессии. Часть этого эксперимента — боксёрский турнир. Макс должен набрать команду из заключённых и тренировать их для будущих сражений на ринге. Задача не из лёгких, как впрочем, и предстоящие поединки..

.

Качество: DVDRipФормат: AVIВидео кодек: XviDАудио кодек: AC3Видео: 672x368 (1.83:1), 25 fps, XviD MPEG-4 ~1610 kbps avg, 0.26 bit/pixelАудио: 48 kHz, AC3 Dolby Digital, 3/2 (L,C,R,l,r) + LFE ch, ~448 kbps

ОбщееПолное имя : E:\Торренты\Piratbit\Boec ponevole.aviФормат : AVIФормат/Информация : Audio Video InterleaveРазмер файла : 1,37 ГбайтПродолжительность : 1 ч. 34 м.Общий поток : 2068 Кбит/секПрограмма кодирования : VirtualDubMod 1.5.10.2 (build 2540/release)Библиотека кодирования : VirtualDubMod build 2540/release

ВидеоИдентификатор : 0Формат : MPEG-4 VisualПрофиль формата : Advanced [email protected]Параметр BVOP формата : 1Параметр QPel формата : НетПараметр GMC формата : Без точки переходаПараметр матрицы формата : Default (MPEG)Режим смешивания : Сжатый битовый потокИдентификатор кодека : XVIDИдентификатор кодека/Подсказка : XviDПродолжительность : 1 ч. 34 м.Битрейт : 1611 Кбит/секШирина : 672 пикселяВысота : 368 пикселейСоотношение сторон : 1,85:1Частота кадров : 25,000 кадров/секЦветовое пространство : YUVСубдискретизация насыщенности : 4:2:0Битовая глубина : 8 битТип развёртки : ПрогрессивнаяМетод сжатия : С потерямиБит/(Пиксели*Кадры) : 0.261Размер потока : 1,06 Гбайт (78%)Библиотека кодирования : XviD 1.2.1 (UTC 2008-12-04)

АудиоИдентификатор : 1Формат : AC-3Формат/Информация : Audio Coding 3Расширение режима : CM (complete main)Параметр Endianness формата : BigИдентификатор кодека : 2000Продолжительность : 1 ч. 34 м.Вид битрейта : ПостоянныйБитрейт : 448 Кбит/секКаналы : 6 каналовРасположение каналов : Front: L C R, Side: L R, LFEЧастота : 48,0 КГцБитовая глубина : 16 битМетод сжатия : С потерямиРазмер потока : 303 Мбайт (22%)Выравнивание : Разделение по промежуткамПродолжительность промежутка : 40 мс. (1,00 видеокадр)Время предзагрузки промежутка : 500 мс.

Скачать Боец поневоле через торрент http://pic.pb.wtf/images/1/thpcooz8xi.png Скачать фильм Боец поневоле через торрент бесплантно в хорошем качестве Описание: По ложному обвинению, сфабрикованному его же сослуживцем, Макс, офицер полиции и отличный боксёр, приговорён к одиннадцати ... 2012-09-24 07:51 6 10 1

Loading...

Loading...

Рекламный пират

24-09-2012 08:00 Боец поневоле Скачать торрент  

Приятного просмотра!

Дорогой пользователь! Огромная просьба, поблагодарите релизера, оцените раздачу и оставьте свои комментарий, если Вы скачали Боец поневоле через торрент бесплатно! Внесите свою лепту в развитие PiratBit!

Комментировать посты могут только пользователи прошедшие не сложную регистрацию

Боец поневоле через торрент Скачать бесплатно Боец поневоле Боец поневоле скачать торрент Боец поневоле смотреть онлайн Cкачать фильм Боец поневоле бесплатно Боец поневоле скачать торрент в хорошем качестве Боец поневоле смотреть онлайн бесплатно в хорошем качестве

Вы не можете начинать темыВы не можете отвечать на сообщенияВы не можете редактировать свои сообщенияВы не можете удалять свои сообщенияВы не можете голосовать в опросахВы не можете прикреплять файлы к сообщениямВы можете скачивать файлы

piratbit.ru


Смотрите также