Скачать фильм через торрент бесплатно шестое чувство в хорошем качестве


Шестое чувство 1999 - скачать бесплатно через торрент в хорошем качестве. Без регистрации

Название: Шестое чувство / The Sixth Sense (1999) HDRip от Scarabey | D
Качество видео: HDRip
Перевод: Профессиональный (полное дублирование)
Видео: 624x352 (1.77:1), 23.976 fps, XviD build 73 ~834 kbps avg, 0.16 bit/pixel
Аудио: 48 kHz, MPEG Layer 3, 2 ch, ~128.00 kbps avg
Скачать

Загрузка начнется в течение 5 сек.

746.46 MB

Название: Шестое чувство / The Sixth Sense (1999) HDRip от Scarabey | D
Качество видео: HDRip
Перевод: Профессиональный (полное дублирование)
Видео: 688x384 (1.79:1), 23.976 fps, XviD build 73 ~1536 kbps avg, 0.24 bit/pixel
Аудио: 48 kHz, AC3 Dolby Digital, 3/2 (L,C,R,l,r) + LFE ch, ~384.00 kbps avg
Скачать

Загрузка начнется в течение 5 сек.

1.45 GB

Название: Шестое чувство / The Sixth Sense (1999) BDRip от MediaClub | КПК
Качество видео: BDRip
Перевод: Дублированный
Видео: MPEG-4 500 Кбит/с, 320x176, 23.976 кадр/с
Аудио: Русский (AAC, 2 ch, 128 Кбит/с)
Скачать

Загрузка начнется в течение 5 сек.

431.97 MB

Название: Шестое чувство / The Sixth Sense (1999) BDRip-AVC от 0ptimus | D, P, A
Качество видео: BDRip-AVC
Перевод: Дублированный, профессиональный (многоголосый закадровый), авторский (одноголосый закадровый)
Видео: h.264 2299 Кбит/с, 1024x576, 23.976 кадр/с
Аудио: • №1: Русский (АС3, 6 ch, 384 Кбит/с) Дублированный
Скачать

Загрузка начнется в течение 5 сек.

3.31 GB

Название: Шестое чувство / The Sixth Sense (1999) BDRip 1080p
Качество видео: BDRip 1080p
Перевод: Дублированный R5 + Профессиональный (многоголосый, закадровый) R5 + Оригинал
Видео: x264 1920x1080, 9121 Kbps, 23.976 fps
Аудио: AC-3, 6 ch, 384 kbps (Rus)(Dub)AC-3, 6 ch, 384 kbps (Rus)(MVO)AC-3, 6 ch, 448 kbps (Eng)
Скачать

Загрузка начнется в течение 5 сек.

7.76 GB

Название: Шестое чувство / The Sixth Sense (1999) BDRip-AVC | D, P
Качество видео: BDRip-AVC
Формат видео: MKV
Видео: 1024x576, 23.976fps, 1758 Kbps, 0.124 bit/pixel
Аудио: AC3, 48.0 KHz, 6 ch, 384 Kbps - Dub/MVO/Eng
Скачать

Загрузка начнется в течение 5 сек.

2.18 GB

Название: Шестое чувство / The Sixth Sense (1999) BDRip
Качество видео: BDRip
Перевод: Дублированный
Видео: XviD 688х384, 23.976 fps, 834 Kbps, 0.132 Bits/Pixel
Аудио: MP3, 48 KHz, 128 Kbps, 2 channels
Скачать

Загрузка начнется в течение 5 сек.

745.69 MB

Название: Шестое чувство / The Sixth Sense (1999) BDRip 1080p от FilmRus
Качество видео: BDRip (1080p)
Перевод: Дублированный, профессиональный многоголосый, авторский одноголосый
Видео: MPEG-4 AVC, 11.6 Мбит/с, 1916x1080
Скачать

Загрузка начнется в течение 5 сек.

12.20 GB

Название: Шестое чувство / The Sixth Sense (1999) BDRip 720p от FilmRus
Качество видео: BDRip (720p)
Перевод: Дублированный, профессиональный многоголосый, авторский одноголосый
Видео: MPEG-4 AVC, 3821 Кбит/с, 1280x720
Скачать

Загрузка начнется в течение 5 сек.

5.60 GB

Название: Шестое чувство / The Sixth Sense (1999) BDRemux 1080p от FilmRus
Качество видео: Blu-Ray Remux (1080p)
Перевод: Дублированный, профессиональный многоголосый, авторский одноголосый
Видео: MPEG-4 AVC, 26.4 Мбит/с, 1980x1080
Скачать

Загрузка начнется в течение 5 сек.

23.54 GB

Название: Шестое чувство / The Sixth Sense (1999) BDRip 1080p
Качество видео: BDRip 1080p
Перевод: Дуюбляж
Видео: h364 1920x1040, 5436 Kbps, 23,976 fps
Аудио: 48 kHz, AC3, 6c, 384 kbps
Скачать

Загрузка начнется в течение 5 сек.

4.36 GB

www.kinovit.net

Скачать фильм Шестое чувство через торрент в хорошем качестве бесплатно HDRip

Размер: 1.46 GB | Добавлен: 6 лет 6 мес. назад | Торрент скачан:690 раз
Реклама Дарим 3000 рублей за регистрацию, не упусти свой шанс получить шикарный бонус!!!

26-03-2011 17:53 Шестое чувство Скачать торрент  

Шестое чувство / Sixth Sense, The

Год выпуска: 1999Страна: СШАЖанр: триллер, драма, детективПродолжительность: 107 мин.Перевод: Профессиональный (полное дублирование)

Режиссер: М. Найт ШьямаланПродюссер: Кэтлин Кеннеди, Фрэнк Маршалл, Бэрри МенделСценарий: М. Найт Шьямалан

Бюджет: $40 000 000Премьера в мире: 2 августа 1999

PG-13

-Детям до 13 лет просмотр не желателенМировой рейтинг IMDB 8.20 (260 838)

В ролях: Брюс Уиллис, Хэйли Джоэл Осмент, Тони Коллетт, Оливия Уильямс, Тревор Морган, Донни Уолберг, Питер Энтони Тамбакис, Джеффри Зубернис, Брюс Норрис, Гленн Фицджера

Описание: Детский психиатр Малкольм Кроу сталкивается со странным случаем: девятилетнего Коула посещают страшные видения - призраки умерших. Все эти люди когда-то были убиты, и теперь они обрушивают на малыша свой гнетущий страх и отчаянный гнев. Как врач, Малкольм бессилен помочь. Но как человек, он пытается найти ключ к ужасному миру Коула, в котором веет дыхание смерти и распускаются страшные цветы боли.

Качество: HDRipФормат: AVIВидео кодек: XviDАудио кодек: AC3Видео: 720x384 (1.88:1), 23.976 fps, XviD build 47 ~1548 kbps avg, 0.23 bit/pixelАудио: 48 kHz, AC3 Dolby Digital, 3/2 (L,C,R,l,r) + LFE ch, ~384.00 kbps avg

Скачать Шестое чувство через торрент http://piratbit.in.ua/f035a79931e0f1addf7226921b7847a1.jpg Скачать фильм Шестое чувство через торрент бесплантно в хорошем качестве Описание: Детский психиатр Малкольм Кроу сталкивается со странным случаем: девятилетнего Коула посещают страшные видения - призраки ... 2011-03-26 17:53 9.1 10 7

Loading...

Loading...

Рекламный пират

26-03-2011 18:01 Шестое чувство Скачать торрент  

От себя о фильме: первый раз его посмотрел еще где-то в году 2000-2001. Сказать что он мне очень понравился - это ничего не сказать. Просто отличнейшая игра актёров, запутанный и держащий в напряжении сюжет и, конечно же, "разрывающая мозг" развязка. Приятного просмотра!

08-04-2012 19:24 Шестое чувство Скачать торрент  

Былоб мне лет так 13 тогда удивился бы и шокироволся от фильма ,а так он хороший я не спорю но на моём опыте столько фильмов было просмотрено что этот показался просто нормальным) к такому типу фильмов отнесётся ,Бойцовский Клуб ,Остров Проклятых , Господин Никто и подобные ,очень класные фильмы всем советую

14-05-2013 13:33 Шестое чувство Скачать торрент  

Неплохой фильм. Спасибо за раздачу.

Дорогой пользователь! Огромная просьба, поблагодарите релизера, оцените раздачу и оставьте свои комментарий, если Вы скачали Шестое чувство через торрент бесплатно! Внесите свою лепту в развитие PiratBit!

Комментировать посты могут только пользователи прошедшие не сложную регистрацию

Шестое чувство через торрент Скачать бесплатно Шестое чувство Шестое чувство скачать торрент Шестое чувство смотреть онлайн Cкачать фильм Шестое чувство бесплатно Шестое чувство скачать торрент в хорошем качестве Шестое чувство смотреть онлайн бесплатно в хорошем качестве

Вы не можете начинать темыВы не можете отвечать на сообщенияВы не можете редактировать свои сообщенияВы не можете удалять свои сообщенияВы не можете голосовать в опросахВы не можете прикреплять файлы к сообщениямВы можете скачивать файлы

piratbit.ru

Скачать фильм Шестое чувство через торрент в хорошем качестве бесплатно HDRip

Раздают: 1 [ 0 KB/s ]
Размер: 1.46 GB | Добавлен: 4 года 3 мес. назад | Торрент скачан:290 раз
Реклама Дарим 3000 рублей за регистрацию, не упусти свой шанс получить шикарный бонус!!!

17-07-2013 12:38 Шестое чувство Скачать торрент  

Шестое чувство / The Sixth Sense Страна: СШАЖанр: триллер, драма, детективГод выпуска: 1999Продолжительность: 01:47:21Перевод: Авторский (одноголосный) [А.Гаврилов]Cубтитры нетРежиссер: М. Найт Шьямалан

В ролях: Брюс Уиллис, Хэйли Джоэл Осмент, Тони Коллетт, Оливия Уильямс, Тревор Морган, Донни Уолберг, Питер Энтони Тамбакис, Джеффри Зубернис, Брюс Норрис, Гленн Фицджералд

Описание: Детский психиатр Малкольм Кроу сталкивается со странным случаем: девятилетнего Коула посещают страшные видения - призраки умерших. Все эти люди когда-то были убиты, и теперь они обрушивают на малыша свой гнетущий страх и отчаянный гнев.Как врач, Малкольм бессилен помочь. Но как человек, он пытается найти ключ к ужасному миру Коула, в котором веет дыхание смерти и распускаются страшные цветы боли.

Качество видео: HDRip Формат : AVIВидео кодек: XviDАудио кодек: AC3Видео: 720x400 (1.80:1), 23.976 fps, XviD build 50 ~1749 kbps avg, 0.25 bit/pixelАудио: 48 kHz, AC3 Dolby Digital, 2/0 (L,R) ch, ~192 kbps

E:INTERNETThe Sixth Sense.aviGeneralComplete name : E:INTERNETThe Sixth Sense.aviFormat : AVIFormat/Info : Audio Video InterleaveFile size : 1.46 GiBDuration : 1h 47mnOverall bit rate : 1 951 KbpsMovie name : The Sixth SenseWriting application : VirtualDubMod 1.5.10.2 (build 2540/release)Video #0ID : 0Format : MPEG-4 VisualFormat profile : Advanced [email protected] settings, BVOP : 1Format settings, QPel : NoFormat settings, GMC : No warppointsFormat settings, Matrix : Default (MPEG)Codec ID : XVIDCodec ID/Hint : XviDDuration : 1h 47mnBit rate : 1 750 KbpsWidth : 720 pixelsHeight : 400 pixelsDisplay aspect ratio : 16:9Frame rate : 23.976 fpsColor space : YUVChroma subsampling : 4:2:0Bit depth : 8 bitsScan type : ProgressiveCompression mode : LossyBits/(Pixel*Frame) : 0.253Stream size : 1.31 GiB (90%)Writing library : XviD 1.2.1 (UTC 2008-12-04)Audio #1ID : 1Format : AC-3Format/Info : Audio Coding 3Mode extension : CM (complete main)Format settings, Endianness : BigCodec ID : 2000Duration : 1h 47mnBit rate mode : ConstantBit rate : 192 KbpsChannel(s) : 2 channelsChannel positions : Front: L RSampling rate : 48.0 KHzBit depth : 16 bitsCompression mode : LossyDelay relative to video : 22msStream size : 147 MiB (10%)Alignment : Split accross interleavesInterleave, duration : 42 ms (1.00 video frame)Interleave, preload duration : 500 ms

Скачать Шестое чувство через торрент http://i46.fastpic.ru/big/2013/0717/48/e86549a0a80fefd1d63eb1129fa07e48.jpg Скачать фильм Шестое чувство через торрент бесплантно в хорошем качестве Описание: Детский психиатр Малкольм Кроу сталкивается со странным случаем: девятилетнего Коула посещают страшные видения - призраки ... 2013-07-17 12:38 9.6 10 10

Loading...

Loading...

Рекламный пират

17-07-2013 12:51 Шестое чувство Скачать торрент  

Эх жаль что я просполерил себе этот фильм когда смотрел клинику, и жалею что никогда не офигею от него. И нет мне смысла его смотреть) А всем кто не видел фильм, и не знает в чем его замес то обязательно посмотрите.

13-08-2015 20:48 Шестое чувство Скачать торрент  

а я офигел когда смотрел!

Дорогой пользователь! Огромная просьба, поблагодарите релизера, оцените раздачу и оставьте свои комментарий, если Вы скачали Шестое чувство через торрент бесплатно! Внесите свою лепту в развитие PiratBit!

Комментировать посты могут только пользователи прошедшие не сложную регистрацию

Шестое чувство через торрент Скачать бесплатно Шестое чувство Шестое чувство скачать торрент Шестое чувство смотреть онлайн Cкачать фильм Шестое чувство бесплатно Шестое чувство скачать торрент в хорошем качестве Шестое чувство смотреть онлайн бесплатно в хорошем качестве

Вы не можете начинать темыВы не можете отвечать на сообщенияВы не можете редактировать свои сообщенияВы не можете удалять свои сообщенияВы не можете голосовать в опросахВы не можете прикреплять файлы к сообщениямВы можете скачивать файлы

piratbit.ru

Скачать фильм Шестое чувство через торрент в хорошем качестве бесплатно BDRip-AVC

Раздают: 3 [ 0 KB/s ]
Размер: 2.91 GB | Добавлен: 5 лет назад | Торрент скачан:501 раз
Реклама Дарим 3000 рублей за регистрацию, не упусти свой шанс получить шикарный бонус!!!

23-10-2012 19:46 Шестое чувство Скачать торрент  

Шестое чувство / The Sixth Sense «The #1 Thriller of all time!» Год выпуска: 1999Страна: США Жанр: триллер, драма, детективПродолжительность: 01:47:29Перевод 1: Профессиональный (дублированный)Перевод 2: Профессиональный (многоголосый закадровый) + Оригинальная дорожкаСубтитры: Русские,Английские

Режиссёр: М. Найт ШьямаланПродюссер:: Кэтлин Кеннеди, Фрэнк Маршалл, Бэрри МенделСценарий:: М. Найт Шьямалан

В ролях:: Брюс Уиллис / Bruce Willis (Dr. Malcolm Crowe, $ 14 000 000 (проценты от сборов и продаж на видео)), Хэйли Джоэл Осмент / Haley Joel Osment (Cole Sear, $ 150 000 ), Тони Коллетт / Toni Collette (Lynn Sear, $ 1 000 000 ), Оливия Уильямс / Olivia Williams (Anna Crowe), Тревор Морган / Trevor Morgan (Tommy Tammisimo), Донни Уолберг / Donnie Wahlberg (Vincent Grey), Питер Энтони Тамбакис / Peter Anthony Tambakis (Darren), Джеффри Зубернис / Jeffrey Zubernis (Bobby), Брюс Норрис / Bruce Norris (Stanley Cunningham), Гленн Фицджералд / Glenn Fitzgerald (Sean)

Описание: Детский психиатр Малкольм Кроу сталкивается со странным случаем: девятилетнего Коула посещают страшные видения — призраки умерших. Все эти люди когда-то были убиты, и теперь они обрушивают на малыша свой гнетущий страх и отчаянный гнев.Как врач, Малкольм бессилен помочь. Но как человек, он пытается найти ключ к ужасному миру Коула, в котором веет дыхание смерти и распускаются страшные цветы боли.

Качество: BDRip-AVCФормат: AVIВидео кодек: XviDАудио кодек: AC3Видео: x264, 1216x684 (16:9), 23,976 fps, ~2726 kbps, 0.133 bit/pixelАудио #1: 48 kHz, AC3 Dolby Digital, 3/2 (L,C,R,l,r) + LFE ch, ~384 kbps [RUS]Аудио #2: 48 kHz, AC3 Dolby Digital, 3/2 (L,C,R,l,r) + LFE ch, ~384 kbps [RUS]Аудио #3: 48 kHz, AC3 Dolby Digital, 3/2 (L,C,R,l,r) + LFE ch, ~384 kbps [ENG]

Скачать Шестое чувство через торрент http://pic.pb.wtf/images/1/5gz9b32s3d.png Скачать фильм Шестое чувство через торрент бесплантно в хорошем качестве Описание: Детский психиатр Малкольм Кроу сталкивается со странным случаем: девятилетнего Коула посещают страшные видения — призраки ... 2012-10-23 19:46 9.8 10 11

Loading...

Loading...

Рекламный пират

Дорогой пользователь! Огромная просьба, поблагодарите релизера, оцените раздачу и оставьте свои комментарий, если Вы скачали Шестое чувство через торрент бесплатно! Внесите свою лепту в развитие PiratBit!

Комментировать посты могут только пользователи прошедшие не сложную регистрацию

Шестое чувство через торрент Скачать бесплатно Шестое чувство Шестое чувство скачать торрент Шестое чувство смотреть онлайн Cкачать фильм Шестое чувство бесплатно Шестое чувство скачать торрент в хорошем качестве Шестое чувство смотреть онлайн бесплатно в хорошем качестве

Вы не можете начинать темыВы не можете отвечать на сообщенияВы не можете редактировать свои сообщенияВы не можете удалять свои сообщенияВы не можете голосовать в опросахВы не можете прикреплять файлы к сообщениямВы можете скачивать файлы

piratbit.ru

Скачать фильм Шестое чувство через торрент в хорошем качестве бесплатно 1080р)

ОбщееКол-во : 284Кол-во потоков такого типа : 1Тип потока : GeneralТип потока : ОбщееИдентификатор типа потока : 0Inform : Matroska: 9,00 Гбайт, 1 ч. 47 м.Уникальный идентификатор : 189261218783533301818040637341748543390Уникальный идентификатор : 189261218783533301818040637341748543390 (0x8E626285F707A9F4868B39AC5C31BF9E)Кол-во видеопотоков : 1Кол-во аудиопотоков : 4Кол-во текстовых потоков : 2Video_Format_List : AVCVideo_Format_WithHint_List : AVCВидеокодеки : AVCVideo_Language_List : EnglishAudio_Format_List : AC-3 / AC-3 / AC-3 / AC-3Audio_Format_WithHint_List : AC-3 / AC-3 / AC-3 / AC-3Аудиокодеки : AC3 / AC3 / AC3 / AC3Audio_Language_List : Russian / Russian / Russian / EnglishText_Format_List : UTF-8 / UTF-8Text_Format_WithHint_List : UTF-8 / UTF-8Текстовые кодеки : UTF-8 / UTF-8Text_Language_List : Russian / EnglishПолное имя : H:ТОРРЕНТЫSixth Sense.1999.BD.Rip.1080p.h364.3xRus.Eng.mkvИмя папки : H:ТОРРЕНТЫИмя файла : Sixth Sense.1999.BD.Rip.1080p.h364.3xRus.EngРасширение : mkvФормат : MatroskaФормат : MatroskaФормат/Ссылка : http://packs.matroska.org/Формат/Используется в : mkv mk3d mka mksКоммерческое название : MatroskaВерсия формата : Version 1Кодек : MatroskaКодек : MatroskaКодек/Ссылка : http://packs.matroska.org/Кодек/Используется в : mkv mk3d mka mksРазмер файла : 9667810894Размер файла : 9,00 ГбайтРазмер файла : 9 ГбайтРазмер файла : 9,0 ГбайтРазмер файла : 9,00 ГбайтРазмер файла : 9,004 ГбайтПродолжительность : 6450496Продолжительность : 1 ч. 47 м.Продолжительность : 1 ч. 47 м. 30 с. 496 мс.Продолжительность : 1 ч. 47 м.Продолжительность : 01:47:30.496Общий поток : 11990161Общий поток : 12,0 Мбит/секРазмер потока : 192394290Размер потока : 183 Мбайт (2%)Размер потока : 183 МбайтРазмер потока : 183 МбайтРазмер потока : 183 МбайтРазмер потока : 183,5 МбайтРазмер потока : 183 Мбайт (2%)Пропорции потока : 0.01990Дата кодирования : UTC 2008-08-10 23:37:45Дата файла : UTC 2013-08-20 12:43:34.833Дата файла (местная) : 2013-08-20 19:43:34.833Дата изменения файла : UTC 2013-08-21 00:46:49.950Дата изменения файла (местная) : 2013-08-21 07:46:49.950Программа кодирования : mkvmerge v2.2.0 ('Turn It On Again') built on Mar 4 2008 12:58:26Библиотека кодирования : libebml v0.7.7 + libmatroska v0.8.1Библиотека кодирования : libebml v0.7.7 + libmatroska v0.8.1

ВидеоКол-во : 263Кол-во потоков такого типа : 1Тип потока : VideoТип потока : ВидеоИдентификатор типа потока : 0StreamOrder : 0Inform : English, 9950 Кбит/сек, 1920*1040 (1,85:1), в 23,976 кадра/сек, AVC ([email protected]) (CABAC / 5 Ref Frames)Идентификатор : 1Идентификатор : 1Уникальный идентификатор : 1Формат : AVCФормат/Информация : Advanced Video CodecФормат/Ссылка : http://developers.videolan.org/x264.htmlКоммерческое название : AVCПрофиль формата : [email protected]Настройки формата : CABAC / 5 Ref FramesПараметр CABAC формата : YesПараметр CABAC формата : ДаПараметр ReFrames формата : 5Параметр ReFrames формата : 5 кадровИнтернет-тип носителя : video/h364Идентификатор кодека : V_MPEG4/ISO/AVCИдентификатор кодека/Ссылка : http://ffdshow-tryout.sourceforge.net/Кодек : V_MPEG4/ISO/AVCКодек : AVCКодек/Семейство : AVCКодек/Информация : Advanced Video CodecКодек/Ссылка : http://ffdshow-tryout.sourceforge.net/Профиль кодека : [email protected]Настройки кодека : CABAC / 5 Ref FramesПараметр CABAC кодека : YesCodec_Settings_RefFrames : 5Продолжительность : 6450492Продолжительность : 1 ч. 47 м.Продолжительность : 1 ч. 47 м. 30 с. 492 мс.Продолжительность : 1 ч. 47 м.Продолжительность : 01:47:30.492Битрейт : 9950000Битрейт : 9950 Кбит/секШирина : 1920Ширина : 1920 пикселейВысота : 1040Высота : 1040 пикселейПропорции пикселя : 1.000Соотношение сторон : 1.846Соотношение сторон : 1,85:1Режим частоты кадров : CFRРежим частоты кадров : ПостоянныйЧастота кадров : 23.976Частота кадров : 23,976 кадра/секСчётчик кадров : 154657Разрешение : 8Разрешение : 8 битКолориметрия : 4:2:0Цветовое пространство : YUVСубдискретизация насыщенности : 4:2:0Битовая глубина : 8Битовая глубина : 8 битТип развёртки : ProgressiveТип развёртки : ПрогрессивнаяПереплетение : PPFПереплетение : ПрогрессивнаяБит/(Пиксели*Кадры) : 0.208Задержка : 0Задержка : 00:00:00.000Задержка в оригинале : ContainerЗадержка в оригинале : КонтейнерРазмер потока : 7824089628Размер потока : 7,29 Гбайт (81%)Размер потока : 7 ГбайтРазмер потока : 7,3 ГбайтРазмер потока : 7,29 ГбайтРазмер потока : 7,287 ГбайтРазмер потока : 7,29 Гбайт (81%)Пропорции потока : 0.80929Библиотека кодирования : x264 - core 60 r928M 4816918Библиотека кодирования : x264 core 60 r928M 4816918Библиотека кодирования/Имя : x264Библиотека кодирования/Version : core 60 r928M 4816918Настройки программы : cabac=1 / ref=5 / deblock=1:0:0 / analyse=0x3:0x133 / me=hex / subme=6 / psy_rd=1.000000 / brdo=1 / mixed_ref=1 / me_range=16 / chroma_me=1 / trellis=0 / 8x8dct=1 / cqm=0 / deadzone=21,11 / chroma_qp_offset=0 / threads=3 / nr=0 / decimate=1 / mbaff=0 / bframes=3 / b_pyramid=1 / b_adapt=1 / b_bias=0 / direct=3 / wpredb=1 / bime=1 / keyint=240 / keyint_min=24 / scenecut=40(pre) / rc=2pass / bitrate=9950 / ratetol=1.0 / rceq='blurCplx^(1-qComp)' / qcomp=1.00 / qpmin=10 / qpmax=51 / qpstep=4 / cplxblur=20.0 / qblur=0.5 / ip_ratio=1.40 / pb_ratio=1.30 / aq=2:1.00Язык : enЯзык : EnglishЯзык : EnglishЯзык : enЯзык : engЯзык : enDefault : YesDefault : ДаForced : NoForced : Нет

Аудио #1Кол-во : 234Кол-во потоков такого типа : 4Тип потока : AudioТип потока : АудиоИдентификатор типа потока : 0Позиция идентификатора типа потока : 1StreamOrder : 1Inform : Russian, 384 Кбит/сек, 48,0 КГц, 16 бит, 6 каналов, AC-3Идентификатор : 2Идентификатор : 2Уникальный идентификатор : 1115358099Формат : AC-3Формат/Информация : Audio Coding 3Коммерческое название : AC-3Расширение режима : CM (complete main)Параметр Endianness формата : BigИдентификатор кодека : A_AC3Кодек : AC3Кодек : AC3Кодек/Семейство : AC3Кодек/Информация : Dolby AC3Продолжительность : 6450496Продолжительность : 1 ч. 47 м.Продолжительность : 1 ч. 47 м. 30 с. 496 мс.Продолжительность : 1 ч. 47 м.Продолжительность : 01:47:30.496Вид битрейта : CBRВид битрейта : ПостоянныйБитрейт : 384000Битрейт : 384 Кбит/секКаналы : 6Каналы : 6 каналовРасположение каналов : Front: L C R, Side: L R, LFEРасположение каналов : 3/2/0.1Частота : 48000Частота : 48,0 КГцКоличество образцов : 309623808Разрешение : 16Разрешение : 16 битБитовая глубина : 16Битовая глубина : 16 битМетод сжатия : LossyМетод сжатия : С потерямиЗадержка : 0Задержка : 00:00:00.000Задержка в оригинале : ContainerЗадержка в оригинале : КонтейнерЗадержка видео : 0Задержка видео : 0Размер потока : 309623808Размер потока : 295 Мбайт (3%)Размер потока : 295 МбайтРазмер потока : 295 МбайтРазмер потока : 295 МбайтРазмер потока : 295,3 МбайтРазмер потока : 295 Мбайт (3%)Пропорции потока : 0.03203Заголовок : Dublyazh AC3 5.1 384 kbpsЯзык : ruЯзык : RussianЯзык : RussianЯзык : ruЯзык : rusЯзык : ruDefault : YesDefault : ДаForced : NoForced : Нетbsid : 8dialnorm : -31dialnorm/String : -31 dBacmod : 7lfeon : 1dialnorm_Average : -31dialnorm_Average/String : -31 dBdialnorm_Minimum : -31dialnorm_Minimum/String : -31 dBdialnorm_Maximum : -31dialnorm_Maximum/String : -31 dBdialnorm_Count : 2

Аудио #2Кол-во : 234Кол-во потоков такого типа : 4Тип потока : AudioТип потока : АудиоИдентификатор типа потока : 1Позиция идентификатора типа потока : 2StreamOrder : 2Inform : Russian, 384 Кбит/сек, 48,0 КГц, 16 бит, 6 каналов, AC-3Идентификатор : 3Идентификатор : 3Уникальный идентификатор : 2395271093Формат : AC-3Формат/Информация : Audio Coding 3Коммерческое название : AC-3Расширение режима : CM (complete main)Параметр Endianness формата : BigИдентификатор кодека : A_AC3Кодек : AC3Кодек : AC3Кодек/Семейство : AC3Кодек/Информация : Dolby AC3Продолжительность : 6450496Продолжительность : 1 ч. 47 м.Продолжительность : 1 ч. 47 м. 30 с. 496 мс.Продолжительность : 1 ч. 47 м.Продолжительность : 01:47:30.496Вид битрейта : CBRВид битрейта : ПостоянныйБитрейт : 384000Битрейт : 384 Кбит/секКаналы : 6Каналы : 6 каналовРасположение каналов : Front: L C R, Side: L R, LFEРасположение каналов : 3/2/0.1Частота : 48000Частота : 48,0 КГцКоличество образцов : 309623808Разрешение : 16Разрешение : 16 битБитовая глубина : 16Битовая глубина : 16 битМетод сжатия : LossyМетод сжатия : С потерямиЗадержка : 0Задержка : 00:00:00.000Задержка в оригинале : ContainerЗадержка в оригинале : КонтейнерЗадержка видео : 0Задержка видео : 0Размер потока : 309623808Размер потока : 295 Мбайт (3%)Размер потока : 295 МбайтРазмер потока : 295 МбайтРазмер потока : 295 МбайтРазмер потока : 295,3 МбайтРазмер потока : 295 Мбайт (3%)Пропорции потока : 0.03203Заголовок : Mnogogoloska AC3 5.1 384 kbpsЯзык : ruЯзык : RussianЯзык : RussianЯзык : ruЯзык : rusЯзык : ruDefault : NoDefault : НетForced : NoForced : Нетbsid : 8dialnorm : -31dialnorm/String : -31 dBacmod : 7lfeon : 1dialnorm_Average : -31dialnorm_Average/String : -31 dBdialnorm_Minimum : -31dialnorm_Minimum/String : -31 dBdialnorm_Maximum : -31dialnorm_Maximum/String : -31 dBdialnorm_Count : 2

Аудио #3Кол-во : 243Кол-во потоков такого типа : 4Тип потока : AudioТип потока : АудиоИдентификатор типа потока : 2Позиция идентификатора типа потока : 3StreamOrder : 3Идентификатор : 4Идентификатор : 4Уникальный идентификатор : 2692656317Формат : AC-3Формат/Информация : Audio Coding 3Коммерческое название : AC-3Расширение режима : CM (complete main)Параметр Endianness формата : BigИдентификатор кодека : A_AC3Кодек : AC3Кодек : AC3Кодек/Семейство : AC3Кодек/Информация : Dolby AC3Продолжительность : 6450496Продолжительность : 1 ч. 47 м.Продолжительность : 1 ч. 47 м. 30 с. 496 мс.Продолжительность : 1 ч. 47 м.Продолжительность : 01:47:30.496Вид битрейта : CBRВид битрейта : ПостоянныйБитрейт : 640000Битрейт : 640 Кбит/секКаналы : 6Каналы : 6 каналовРасположение каналов : Front: L C R, Side: L R, LFEРасположение каналов : 3/2/0.1Частота : 48000Частота : 48,0 КГцКоличество образцов : 309623808Разрешение : 16Разрешение : 16 битБитовая глубина : 16Битовая глубина : 16 битМетод сжатия : LossyМетод сжатия : С потерямиЗадержка : 0Задержка : 00:00:00.000Задержка в оригинале : ContainerЗадержка в оригинале : КонтейнерЗадержка видео : 0Задержка видео : 0Размер потока : 516039680Размер потока : 492 Мбайт (5%)Размер потока : 492 МбайтРазмер потока : 492 МбайтРазмер потока : 492 МбайтРазмер потока : 492,1 МбайтРазмер потока : 492 Мбайт (5%)Пропорции потока : 0.05338Заголовок : Jivov AC3 5.1 640 kbpsЯзык : ruЯзык : RussianЯзык : RussianЯзык : ruЯзык : rusЯзык : ruDefault : NoDefault : НетForced : NoForced : Нетbsid : 8dialnorm : -28dialnorm/String : -28 dBcompr : -0.28compr/String : -0.28 dBacmod : 7lfeon : 1dialnorm_Average : -28dialnorm_Average/String : -28 dBdialnorm_Minimum : -28dialnorm_Minimum/String : -28 dBdialnorm_Maximum : -28dialnorm_Maximum/String : -28 dBdialnorm_Count : 2compr_Average : -0.28compr_Average/String : -0.28 dBcompr_Minimum : -0.28compr_Minimum/String : -0.28 dBcompr_Maximum : -0.28compr_Maximum/String : -0.28 dBcompr_Count : 2

Аудио #4Кол-во : 243Кол-во потоков такого типа : 4Тип потока : AudioТип потока : АудиоИдентификатор типа потока : 3Позиция идентификатора типа потока : 4StreamOrder : 4Идентификатор : 5Идентификатор : 5Уникальный идентификатор : 1300795037Формат : AC-3Формат/Информация : Audio Coding 3Коммерческое название : AC-3Расширение режима : CM (complete main)Параметр Endianness формата : BigИдентификатор кодека : A_AC3Кодек : AC3Кодек : AC3Кодек/Семейство : AC3Кодек/Информация : Dolby AC3Продолжительность : 6450496Продолжительность : 1 ч. 47 м.Продолжительность : 1 ч. 47 м. 30 с. 496 мс.Продолжительность : 1 ч. 47 м.Продолжительность : 01:47:30.496Вид битрейта : CBRВид битрейта : ПостоянныйБитрейт : 640000Битрейт : 640 Кбит/секКаналы : 6Каналы : 6 каналовРасположение каналов : Front: L C R, Side: L R, LFEРасположение каналов : 3/2/0.1Частота : 48000Частота : 48,0 КГцКоличество образцов : 309623808Разрешение : 16Разрешение : 16 битБитовая глубина : 16Битовая глубина : 16 битМетод сжатия : LossyМетод сжатия : С потерямиЗадержка : 0Задержка : 00:00:00.000Задержка в оригинале : ContainerЗадержка в оригинале : КонтейнерЗадержка видео : 0Задержка видео : 0Размер потока : 516039680Размер потока : 492 Мбайт (5%)Размер потока : 492 МбайтРазмер потока : 492 МбайтРазмер потока : 492 МбайтРазмер потока : 492,1 МбайтРазмер потока : 492 Мбайт (5%)Пропорции потока : 0.05338Заголовок : AC3 5.1 640 kbpsЯзык : enЯзык : EnglishЯзык : EnglishЯзык : enЯзык : engЯзык : enDefault : NoDefault : НетForced : NoForced : Нетbsid : 6dialnorm : -31dialnorm/String : -31 dBcompr : -0.28compr/String : -0.28 dBacmod : 7lfeon : 1dialnorm_Average : -31dialnorm_Average/String : -31 dBdialnorm_Minimum : -31dialnorm_Minimum/String : -31 dBdialnorm_Maximum : -31dialnorm_Maximum/String : -31 dBdialnorm_Count : 2compr_Average : -0.28compr_Average/String : -0.28 dBcompr_Minimum : -0.28compr_Minimum/String : -0.28 dBcompr_Maximum : -0.28compr_Maximum/String : -0.28 dBcompr_Count : 2

Текст #1Кол-во : 195Кол-во потоков такого типа : 2Тип потока : TextТип потока : ТекстИдентификатор типа потока : 0Позиция идентификатора типа потока : 1StreamOrder : 5Inform : Russian, UTF-8Идентификатор : 6Идентификатор : 6Уникальный идентификатор : 2588264633Формат : UTF-8Коммерческое название : UTF-8Идентификатор кодека : S_TEXT/UTF8Идентификатор кодека/Информация : UTF-8 Plain TextКодек : S_TEXT/UTF8Кодек : UTF-8Кодек/Информация : UTF-8 Plain TextЯзык : ruЯзык : RussianЯзык : RussianЯзык : ruЯзык : rusЯзык : ruDefault : NoDefault : НетForced : NoForced : Нет

Текст #2Кол-во : 195Кол-во потоков такого типа : 2Тип потока : TextТип потока : ТекстИдентификатор типа потока : 1Позиция идентификатора типа потока : 2StreamOrder : 6Inform : English, UTF-8Идентификатор : 7Идентификатор : 7Уникальный идентификатор : 3642121377Формат : UTF-8Коммерческое название : UTF-8Идентификатор кодека : S_TEXT/UTF8Идентификатор кодека/Информация : UTF-8 Plain TextКодек : S_TEXT/UTF8Кодек : UTF-8Кодек/Информация : UTF-8 Plain TextЯзык : enЯзык : EnglishЯзык : EnglishЯзык : enЯзык : engЯзык : enDefault : NoDefault : НетForced : NoForced : Нет

piratbit.ru


Смотрите также