Скачать фильм через торрент одинокий рейнджер бесплатно в хорошем качестве


Одинокий рейнджер (2013) скачать торрент в хорошем качестве бесплатно. Скачать Одинокий рейнджер (2013) через торрент фильм в HD качестве

Название: Одинокий рейнджерОригинальное название: The Lone RangerГод выпуска: 2013Выпущено: СШАЖанр: вестерн, приключения, боевик, крутые парниПродолжительность: 02:24:13Перевод: Дублированный (лицензия)

Качество видео: HDRip (лицензия)Формат видео: aviРазмер: 1400 MB

Режиссер: Гор ВербинскиВ ролях: Джонни Депп, Хелена Бонем Картер, Арми Хаммер, Уильям Фихтнер, Бэрри Пеппер, Том Уилкинсон и др.

Описание: Рейнджер по имени Джон отчаянно ведет борьбу с беззаконием в штате Техас, крепко веря в то, что в один прекрасный день здесь настанет тишина и спокойствие для мирных жителей. Люди изо дня в день живут в страхе и напряжении. Джон ежедневно ловит преступников, но он никогда не мог представить, что его с друзьями заманят в ловушку. Чудом ему удается выжить, и единственное что он помнит из всего этого - стрельба и лужи крови. После того как Джон очнулся, он увидел индейца, который находился рядом с ним. Индеец рассказал ему всю историю, которая с ним произошла, после чего Джон понял, что все его друзья погибли от рук бандитов.     Так же индеец рассказывает Джону об очень важном моменте в этой истории: никто из бандитов не знает, что ему посчастливилось остаться в живых. Для всего Техаса он погиб, и это Джону только на пользу, ведь впереди месть, от которой преступникам не убежать. Индеец делает предложение Джону о содействии, тот соглашается и, набравшись сил, мстители выдвигаются в путь по следам преступников, которые уже празднуют победу над командой защитников закона, и даже не предполагают, что по их следам идет Джон с индейцем Тонто.Дорога для наших мстителей не из легких, в любой момент можно из охотников превратиться в добычу, и чтобы этого не было, ребята стали действовать единой командой, будто всю жизнь знают друг друга. Поначалу ребята не могли сплотиться и действовать командой, ведь они совершенно два разных человека, только единая цель, которую мужчины преследуют, смогла соединить их силы. Теперь бандитом стоит позаботиться о собственной безопасности, скоро их настигнут....

Рецензия от сайта Igrhost.ruПропустить очередную кинопремьеру с Джонни Деппом в главной роли крайне сложно. Не знаю, как это объяснить, но этот актер обладает каким-то особенным магнетизмом, притягивающим зрителей и увлекающим их в совершенно иной мир, мир приключений. Впрочем, просмотрев трейлер к фильму «Одинокий рейнджер», а так же традиционно прочитав ни один десяток рецензий и отзывов, я уже было задумался над тем, стоит ли тратить свое время. Картина мне представлялась дешевой голливудской халтурой, которая была создана на скорую руку с целью заработка на просмотрах. А в количестве просмотров сомневаться не приходилось, ведь у Гора Вербински (режиссера киноленты) в рукаве был как минимум один козырь: тот самый Джонни Депп.Сценарий фильма «Одинокий рейнджер» просто до безобразия банален. Джон Рид (блюститель закона) совместно с индейцем Тонто борются за справедливость в мире, объединяя свои усилия в войне против одного врага. Причем Рид придерживается одного правила: он никогда не снимает своей маски, которая ну уж очень похожа на маску легендарного Зорро. Лицо его напарника рассмотреть так же вряд ли удастся, т.к. он предстает в образе типичного индейца с раскрашенным лицом.Впрочем, несмотря на массу отрицательных отзывов и весьма слабенький сценарий, фильм мне действительно понравился. Сейчас постараюсь объяснить почему.Во-первых, все давным-давно стали забывать, что такое классический вестерн, с его своеобразным юмором и особым настроением. В прошлом году на экраны вышел изумительный фильм «Джанго», который, конечно, сравнивать с картиной «Одинокий рейнджер» не приходится. Но это вовсе не означает, что кинолента Вербински плохая. Нет. Просто изначально эти две киноленты были предназначены нести свое особое бремя. Если фильм Тарантино, как обычно, должен был претендовать на всевозможные премии, а так же породить массу споров касательно гениальности или невменяемости автора, то «Одинокий рейнджер» должен был стать кинолентой, которую можно посмотреть 1 раз и получить удовольствие. Не более, не менее.Во-вторых, Вербински удалось вернуть все те традиционные черты, которыми должен обладать вестерн. Здесь есть масса трюков, четко прослеживается любовная линия, не менее четко присутствует и разделение на «плохих» и «хороших», главные герои предстают слегка глуповатыми добряками, со своеобразным чувством юмора. Эти все атрибуты настолько привычны для обычного зрителя, что использовать их может либо совсем недалекий режиссер, либо человек, который уверен в том, что сможет преподать клишированные образы в новом свете. Вербински, на мой взгляд, это удалось. Все характерные и избитые черты вестерна, по меньшей мере, не раздражают, а даже позволяют получить удовольствие от просмотра.В-третьих, Джонни Депп. Куда же без него. Изначально, он является второстепенным персонажем, помощником главного героя. Но своей игрой он отводит Тернера на второй план, лишний раз показывая всем зрителям свое величие. Из-за этого, возможно, и возникает некоторая путаница в голове, касательно происходящего на экране. Не всегда понятно, кто же здесь главный «хороший парень», за которого стоит переживать. Но мне это даже понравилось.

Для того чтобы скачать фильм Одинокий рейнджер (2013) через торрент, Вам необходимо нажать на кнопку скачать торрент, которая находится над постером сверху, или на текстовую ссылку с надписью - Одинокий рейнджер (2013) скачать торрент в хорошем качестве.

igrhost.ru

Скачать фильм Одинокий рейнджер через торрент в хорошем качестве бесплатно 720p

ОбщееУникальный идентификатор : 226975752236244450437946986021045473698 (0xAAC1F095F4F4ECF48838473836A111A2)Полное имя : Odinokij.Rejndzher.2013.DUAL.BDRip.720p.HELLYWOOD.mkvФормат : MatroskaВерсия формата : Version 4 / Version 2Размер файла : 5,15 ГбайтПродолжительность : 2 ч. 29 м.Общий поток : 4934 Кбит/секНазвание фильма : HELLYWOOD - rip by potroksДата кодирования : UTC 2013-10-05 17:37:23Программа кодирования : mkvmerge v5.9.0 ('On The Loose') built on Dec 15 2012 16:39:58Библиотека кодирования : libebml v1.3.0 + libmatroska v1.4.0

ВидеоИдентификатор : 1Формат : AVCФормат/Информация : Advanced Video CodecПрофиль формата : [email protected]Параметр CABAC формата : ДаПараметр ReFrames формата : 9 кадровИдентификатор кодека : V_MPEG4/ISO/AVCПродолжительность : 2 ч. 29 м.Битрейт : 4035 Кбит/секШирина : 1280 пикселейВысота : 534 пикселяСоотношение сторон : 2,40:1Режим частоты кадров : ПостоянныйЧастота кадров : 23,976 кадра/секЦветовое пространство : YUVСубдискретизация насыщенности : 4:2:0Битовая глубина : 8 битТип развёртки : ПрогрессивнаяБит/(Пиксели*Кадры) : 0.246Размер потока : 4,12 Гбайт (80%)Заголовок : The Lone RangerБиблиотека кодирования : x264 core 130 r2273 b3065e6Настройки программы : cabac=1 / ref=9 / deblock=1:-2:-2 / analyse=0x3:0x133 / me=umh / subme=11 / psy=1 / psy_rd=1.06:0.00 / mixed_ref=1 / me_range=24 / chroma_me=1 / trellis=2 / 8x8dct=1 / cqm=0 / deadzone=21,11 / fast_pskip=0 / chroma_qp_offset=-2 / threads=12 / lookahead_threads=3 / sliced_threads=0 / nr=0 / decimate=0 / interlaced=0 / bluray_compat=0 / constrained_intra=0 / bframes=11 / b_pyramid=2 / b_adapt=2 / b_bias=0 / direct=3 / weightb=1 / open_gop=0 / weightp=2 / keyint=240 / keyint_min=23 / scenecut=40 / intra_refresh=0 / rc_lookahead=60 / rc=2pass / mbtree=0 / bitrate=4035 / ratetol=1.0 / qcomp=0.70 / qpmin=0 / qpmax=69 / qpstep=4 / cplxblur=20.0 / qblur=0.5 / vbv_maxrate=50000 / vbv_bufsize=62500 / nal_hrd=none / ip_ratio=1.35 / pb_ratio=1.25 / aq=1:0.70Язык : EnglishDefault : ДаForced : Нет

Аудио #1Идентификатор : 2Формат : AC-3Формат/Информация : Audio Coding 3Расширение режима : CM (complete main)Параметр Endianness формата : BigИдентификатор кодека : A_AC3Продолжительность : 2 ч. 29 м.Вид битрейта : ПостоянныйБитрейт : 448 Кбит/секКаналы : 6 каналовРасположение каналов : Front: L C R, Side: L R, LFEЧастота : 48,0 КГцБитовая глубина : 16 битМетод сжатия : С потерямиРазмер потока : 479 Мбайт (9%)Заголовок : Dub | DD 5.1 @ 448 kbps - BD EURЯзык : RussianDefault : ДаForced : Да

Аудио #2Идентификатор : 3Формат : AC-3Формат/Информация : Audio Coding 3Расширение режима : CM (complete main)Параметр Endianness формата : BigИдентификатор кодека : A_AC3Продолжительность : 2 ч. 29 м.Вид битрейта : ПостоянныйБитрейт : 448 Кбит/секКаналы : 6 каналовРасположение каналов : Front: L C R, Side: L R, LFEЧастота : 48,0 КГцБитовая глубина : 16 битМетод сжатия : С потерямиРазмер потока : 479 Мбайт (9%)Заголовок : Original | DD 5.1 @ 448 kbps - BD EURЯзык : RussianDefault : НетForced : Нет

Текст #1Идентификатор : 4Формат : UTF-8Идентификатор кодека : S_TEXT/UTF8Идентификатор кодека/Информация : UTF-8 Plain TextЗаголовок : ForcedЯзык : RussianDefault : ДаForced : Да

Текст #2Идентификатор : 5Формат : UTF-8Идентификатор кодека : S_TEXT/UTF8Идентификатор кодека/Информация : UTF-8 Plain TextЯзык : RussianDefault : НетForced : Нет

Текст #3Идентификатор : 6Формат : UTF-8Идентификатор кодека : S_TEXT/UTF8Идентификатор кодека/Информация : UTF-8 Plain TextЗаголовок : ForcedЯзык : EnglishDefault : НетForced : Нет

Текст #4Идентификатор : 7Формат : UTF-8Идентификатор кодека : S_TEXT/UTF8Идентификатор кодека/Информация : UTF-8 Plain TextЗаголовок : SDHЯзык : EnglishDefault : НетForced : Нет

Текст #5Идентификатор : 8Формат : UTF-8Идентификатор кодека : S_TEXT/UTF8Идентификатор кодека/Информация : UTF-8 Plain TextЯзык : EnglishDefault : НетForced : Нет

Меню00:00:00.000 : en:00:00:00.00000:08:16.121 : en:00:08:16.12100:13:38.776 : en:00:13:38.77600:24:51.407 : en:00:24:51.40700:29:03.033 : en:00:29:03.03300:32:05.841 : en:00:32:05.84100:40:32.013 : en:00:40:32.01300:45:29.644 : en:00:45:29.64400:53:29.665 : en:00:53:29.66501:01:05.662 : en:01:01:05.66201:10:01.614 : en:01:10:01.61401:16:12.318 : en:01:16:12.31801:24:45.455 : en:01:24:45.45501:28:39.731 : en:01:28:39.73101:35:35.188 : en:01:35:35.18801:41:13.985 : en:01:41:13.98501:46:35.806 : en:01:46:35.80601:50:02.179 : en:01:50:02.17901:53:55.203 : en:01:53:55.20301:56:15.260 : en:01:56:15.26002:01:51.095 : en:02:01:51.09502:12:07.211 : en:02:12:07.21102:17:13.934 : en:02:17:13.93402:20:20.287 : en:02:20:20.287

piratbit.ru

/ The Lone Ranger ( / Gore Verbinski) [2013, , , , , BDRip-AVC] []

* * * MediaInfo Mac 0.7.33.4 file analysis report. * * * MediaInfo Mac is 2010 by Diego Massanti - http://mediainfo.massanti.com * * * MediaInfoLib by Jerome Martinez - http://mediainfo.sourceforge.net Created on: 06.10.2013 10:02:13 Report for file: The Lone Ranger.2013.BDRip.AVC.x264-LEONARDO_[scarabey.org].mkv

General / Container Stream #1

Total Video Streams for this File.................1 Total Audio Streams for this File.................1 Total Subtitle Streams for this File..............4 Video Codecs Used.................................AVC Audio Codecs Used.................................AC3 SubTitle Codecs Used..............................UTF-8 / UTF-8 / UTF-8 / UTF-8 Available Sutbitle Languages......................Russian / Russian / / File Format.......................................Matroska Play Time.........................................2h 29mn Total File Size...................................3.36 GiB Total Stream BitRate..............................3 218 Kbps Title (Tag).......................................-=LEONARDO=- Encoded with......................................mkvmerge v5.0.1 (''Es ist Sommer'') built on Oct 23 2011 00:46:40 Encoding Library..................................libebml v1.2.2 + libmatroska v1.3.0 Video Stream #1 Codec (Human Name)................................AVC Codec (FourCC)....................................V_MPEG4/ISO/AVC Codec [email protected] Frame Width.......................................1 024 pixels Frame Height......................................426 pixels Frame Rate........................................23.976 fps Total Frames......................................215138 Display Aspect Ratio..............................2.40:1 Scan Type.........................................Progressive Color Space.......................................YUV Codec Settings (Summary)..........................CABAC / 9 Ref Frames QF (like Gordian Knot)............................0.259 Codec Settings (CABAC)............................Yes Codec Settings (Reference Frames).................9 Video Stream Length...............................2h 29mn 33s 56ms Video Stream BitRate..............................2 706 Kbps Bit Depth.........................................8 bits Video Stream Size.................................2.83 GiB (84%) Video Encoder.....................................x264 - core 125 r2208 d9d2288 Video Encoder (Settings)..........................cabac=1 / ref=9 / deblock=1:-3:-3 / analyse=0x3:0x133 / me=umh / subme=11 / psy=1 / psy_rd=1.00:0.10 / mixed_ref=1 / me_range=32 / chroma_me=1 / trellis=2 / 8x8dct=1 / cqm=0 / deadzone=21,11 / fast_pskip=0 / chroma_qp_offset=-3 / threads=12 / lookahead_threads=2 / sliced_threads=0 / nr=0 / decimate=1 / interlaced=0 / bluray_compat=0 / constrained_intra=0 / bframes=7 / b_pyramid=2 / b_adapt=2 / b_bias=0 / direct=1 / weightb=1 / open_gop=0 / weightp=2 / keyint=250 / keyint_min=23 / scenecut=40 / intra_refresh=0 / rc=crf / mbtree=0 / crf=17.8 / qcomp=0.60 / qpmin=0 / qpmax=69 / qpstep=4 / ip_ratio=1.40 / pb_ratio=1.20 / aq=2:1.00 Audio Stream #1 Codec.............................................AC-3 Codec (FourCC)....................................A_AC3 Audio Stream Length...............................2h 29mn 33s 56ms Audio Stream BitRate..............................448 Kbps Audio Stream BitRate Mode.........................CBR Number of Audio Channels..........................6 Audio Channel''s Positions.........................Front: L C R, Side: L R, LFE Sampling Rate.....................................48.0 KHz Audio Stream Size.................................479 MiB (14%) Audio Stream Title................................Dub Audio Stream Language.............................Russian Subtitle Stream #1 Language..........................................Russian Format............................................UTF-8 Codec ID..........................................S_TEXT/UTF8 Codec Info........................................UTF-8 Plain Text Subtitle Stream #2 Language..........................................Russian Format............................................UTF-8 Codec ID..........................................S_TEXT/UTF8 Codec Info........................................UTF-8 Plain Text Subtitle Stream #3 Format............................................UTF-8 Codec ID..........................................S_TEXT/UTF8 Codec Info........................................UTF-8 Plain Text Subtitle Stream #4 Format............................................UTF-8 Codec ID..........................................S_TEXT/UTF8 Codec Info........................................UTF-8 Plain Text Menu / Chapters Stream #1

unionpeer.com

Скачать фильм Одинокий рейнджер через торрент в хорошем качестве бесплатно HDRip

Размер: 1.45 GB | Добавлен: 4 года назад | Торрент скачан:26736 раз
Реклама Дарим 3000 рублей за регистрацию, не упусти свой шанс получить шикарный бонус!!!

06-10-2013 07:48 Одинокий рейнджер Скачать торрент  

Одинокий рейнджер / The Lone Ranger«Никогда не снимай маску»
  • Год выпуска:2013
  • Страна:США
  • Жанр:вестерн, приключения, боевик, комедия
  • Продолжительность: 02:29:33
  • Перевод:Профессиональный (полное дублирование)[Лицензия]
  • Субтитры: Нет
    • Режиссер:Гор Вербински / Gore Verbinski
  • В ролях:Джонни Депп (Tonto), Арми Хаммер (John Reid (Lone Ranger)), Том Уилкинсон (Latham Cole), Уильям Фихтнер (Butch Cavendish), Барри Пеппер (Fuller), Джеймс Бэдж Дэйл (Dan Reid), Хелена Бонем Картер (Red Harrington), Рут Уилсон (Rebecca Reid), Брайант Принц (Danny), Мэйсон Кук (Will), ДжейДи Каллам (Wendell), Саджино Грант (Chief Big Bear)
    • Описание:История блюстителя закона Джона Рида, который с помощью индейца Тонто стал легендарным мстителем в маске, стоящим на защите справедливости. Тонто с юмором и небылицами повествует о тех приключениях, которые пришлось пережить двум непохожим друг на друга героям, сведенным судьбой для того, чтобы вместе сражаться против общего врага. Им приходится противостоять жадности и коррупции во времена, когда появление первых железных дорог изменило представление о власти и могуществе в мире.
    Бюджет:$215 000 000 / Мировая премьера:22 июня 2013
    • Качество:HDRip
    • Формат:AVI
    • Видео кодек: XviD
    • Аудио кодек:AC3
    • Видео: XviD, 720x304 (2.35:1), 1185 kbps, 23,976 fps, 0,226 bpp
    • Аудио: AC3 / 2.0 / 48 kHz / 192 kbps / 16 bit
    • Маска персонажа Арми Хаммера была вырезана из мягкой козьей кожи. Для ее изготовления сделали слепок лица Арми, чтобы убедиться, что маска будет идеально повторять все контуры. Затем кожу размягчили в теплой воде, наложили на слепок и добавили несколько морщинок, чтобы маска выглядела более естественно.
    • Уильям Фихтнер сам исполнил трюк в одной из сцен, где его персонаж выпрыгивает из вагона движущегося со скоростью около 30 км/ч поезда на скачущего коня.
    • Джеймс Джевелл выступил режиссером радио-сериала «Одинокий рейнджер», который на момент выхода в эфир в 1938 году стал настоящей национальной сенсацией. Тесть Джевелла являлся владельцем кемпинга «Ке-Мо-Са-Бе» на озере Маллет в Мичигане. Очевидно, название кемпинга вдохновило создателей на то, как Тонто (появившийся в одиннадцатом эпизоде сериала) будет именовать своего бледнолицего друга. Считается, что название кемпинга - немного видоизмененное слово «гиимузааби», что с языка индейцев племени оджибве можно перевести как «верный разведчик» или «тот, кто не идет проторенной дорогой». Имя Тонто произошло от другого слова оджибве - «ндах-он-ту», что переводится как «дикий». Джевелл также предложил использовать в саундтреке сериала тему увертюры Джоаккино Россини из оперы «Вильгельм Телль». В общей сложности в радио-эфир вышло 2956 эпизодов «Одинокого рейнджера». Последняя трансляция состоялась 3 сентября 1954 года. За 21 год успели снять телевизионный сериал, в котором главную роль сыграл Клейтон Мур, а роль Тонто - Джей Сильверхилс. Канал ABC транслировал его с 1949 по 1957 годы.
    • Впервые герои этого фильма появились в радио-эфире 30 января 1933 года на волнах радиостанции WXYZ, вещавшей в Детройте (штат Мичиган). Владелец станции Джордж В. Трендл хотел выпустить в эфир вестерн, который мог бы понравиться детской аудитории. Он придумал честного, сильного и авторитетного героя, которым дети могли бы восхищаться. Так появилась общая концепция «Одинокого рейнджера». Впоследствии идею передали на более детальную проработку сценаристу из Баффало Френсису Страйкеру и программному директору станции Джеймсу Джевеллу.
    • Андреа Райзборо и Сара Гадон прослушивались на роль.
    • Джессика Честейн и Эбби Корниш пробовались на главную женскую роль, однако уступили ее Рут Уилсон.
    • Съемки начались 28 февраля 2012 года и продолжались на протяжении семи месяцев на территории четырех юго-западных штатов Америки, а также в Южной Калифорнии.
    • Вымышленный город Колби в штате Техас - пыльный пограничный городок, в котором выросли Джон Рид и его брат. Вербински и МакКриди проехались по нескольким городам на Западе, пытаясь найти подходящий. Но в конечном итоге решили выстроить городок с нуля неподалеку от Рио Пуэрко, в 50 с лишним километрах от Альбукерке.
    • По-настоящему сложным оказалось строительство так называемого «Ада на колесах» - подвижного палаточного городка, прототипом которого послужили реально существующие поселки, которые появлялись, как грибы после дождя, в XIX веке. Они следовали за рабочими, строящими трансконтинентальную железную дорогу, и полностью оправдывали свое название. Колоритная площадка «Ада на Колесах» была воссоздана на территории одного из складов Альбукерке, который арендовали на пять недель. Затем декорации перевезли в город Лами в Нью Мексико и собрали вновь.
    • В процессе съемок понадобилось три американских паровоза XIX века для нескольких масштабных и зрелищных сцен. «Мы выстроили их точно так же, как мы выстроили полномасштабные модели кораблей для съемок «Пиратов Карибского моря». Реальность ничем нельзя подменить. С учетом того, что мы хотели сделать с локомотивами, нам были необходимы настоящие модели в натуральную величину» - признался Джерри Брукхаймер.
    • В городе Сан Вэлли в штате Калифорния координатор по визуальным эффектам Джон Фрэзиер собрал два полномасштабных паровоза, которые могли передвигаться по уложенной рельсовой дороге - исторический «Юпитер» и паровоз, который съемочная группа называла «поезд Колби». Впоследствии он был переделан в паровоз Лэйтема Коула «Конституция». Паровозы собирали вручную вплоть до мельчайших составляющих, изменив лишь две немаловажные детали. Во-первых, локомотивы работали на современной гидравлике, а не на пару. А во-вторых, все железнодорожные вагоны были выполнены в виде грузовых контейнеров, которые можно было снимать с подвижной основы и водворять обратно. Были также пустые платформенные шасси, на которые устанавливались различное кинематографическое оборудование, типа кранов.
    • Перед началом съемок консультант по истории североамериканских индейцев Вахатувика-Уильям Велкер и его помощник Трой провели традиционный индейский обряд привлечения удачи на территории студии Albuquerque Studios.
    • В ущелье «Дохлая лошадь» находилось «плато духов» - скала с относительно ровной площадкой, на которой просыпается Джон Рид, спасенный Тонто. На вершине скалы был выстроен высокий ритуальный помост. «Это была довольно хлипкая конструкция около пяти метров в высоту, - рассказал Арми Хаммер. - Я стоял на вершине этой непрочной постройки, которая раскачивалась на ветру с амплитудой в метр. Подо мной зияла пропасть глубиной в 600 метров. Было страшно».
    • Деревня воинов-команчей была выстроена в зеленой долине кратера потухшего вулкана диаметром в 19 километров. Это место имеет статус национального заповедника и носит название Валлес Калдера.
    • Специально для съемок фильма в Рио-Пуэрко был построен вымышленный город Колби, практически все 12 зданий которого имели по четыре стены, включая вокзал, конюшню, салун, гостиницу, банк, офис шерифа, различные магазины, а также было уложено восемь километров железнодорожных рельсов.
    • Декорации шахты «Сонный человек», которая была выстроена неподалеку от города Крид, штат Колорадо, перемежались с настоящими шахтерскими постройками, которые удивительным образом сохранились с XIX века. Новые строения включали 60-метровый железнодорожный тоннель, вход в который представлял собой 12-метровую фальшивую скалу; около 1,5 километров железнодорожных путей; подъемники и шахтерские вагонетки. Штольни и штреки были выстроены с нуля, но декораторы задрапировали их настолько искусно, что казалось - своды того и гляди обвалятся.
    • Поезда в фильме уникальны тем, что они - настоящие. Практически ни одна сцена на этих поездах не снималась на скорости меньше 50 км/ч, а иногда - и на скорости в 60 км/ч. На крышах вагонов устанавливали специальные направляющие, к которым крепилась страховка для каскадеров.
    • На территории городов Колби и Промонтори было уложено около восьми километров рельсовой дороги, которая формировала почти правильный овал. В некоторых местах железная дорога раздваивалась, чтобы Вербински мог снимать сцены с движущимся поездом. Строительством занимались профессионалы железнодорожной и строительной компании Альбукерке Gandy Dancer. Процесс оказался достаточно трудоемким - на него ушло 16 недель. Рабочие Gandy Dancer привезли на съемочную площадку 1,76 килотонн 10-метровых рельсов, шпал и прочих материалов. Грузы доставлялись на 82 грузовиках из города Блайт, штат Калифорния. Два грузовика привезли из Канзаса 27 тонн болтов, шайб и железнодорожных стрелок. Кроме того, из Стоктона, штат Калифорния было доставлено 182 тонны шпал и скоб. Когда все материалы были доставлены, рабочие принялись укладывать рельсы. В итоге появилась новая полноценная железнодорожная ветка в пыльной пустыне близ Рио-Пуэрко.
    • Для съемок фильма портные сшили 1500 костюмов, а также сотни шляп, ботинок и прочих элементов одежды. Некоторые аксессуары были арендованы у других кинокомпаний.
    • Образ персонажа Джонни Деппа был взят с картины художника Кирби Сэттлера.
    • Консультант по визуальным эффектам Марк МакКрири собственноручно вырезал национальные американские петроглифы на деревянных ограждениях диорамы Старого Тонто в цирке Wild West Exhibition, а также нарисовал символы на стенах 60-метрового железнодорожного тоннеля, который был выкопан неподалеку от города Крид, штат Колорадо.
    • Для того чтобы создать удивительный мир «Одинокого рейнджера» таким, каким его видел Гор Вербински, пришлось собрать довольно внушительную команду. В нее вошло шесть художников-постановщиков, одиннадцать декораторов, два иллюстратора, один художник-живописец, множество раскадровщиков, два графических дизайнера, два модельщика, координатор по исследованиям, ассистент руководителя художественной группы и 274 строителя.
    • Чтобы «состарить» гардеробы прибегали к самым различным уловкам. Костюмы проходили обработку галькой в бетономешалке, некоторые места «изнашивались» при помощи кухонных терок. А иногда костюмеры не гнушались даже газовыми горелками.
    • Перед началом съемок все актеры провели некоторое время в лагере «Ковбойский сапог» на ранчо в Альбукерке, Нью-Мексико. Там они научились ездить верхом, стрелять, обращаться с лассо, седлать лошадей и управлять повозкой.
    • После окончания съемок в городе Крид, штат Колорадо Джонни Депп на протяжении четырех часов раздавал автографы местным жителям. Несмотря на то, что официальное население города составляет всего 290 человек, откуда ни возьмись появилась почти тысяча желающих получить подпись голливудской кинозвезды.
    • После окончания съемок были собраны некоторые статистические данные. 4,5 месяца подготовительного периода;
    • Первый фильм с участием Джонни Деппа и Хелены Бонэм Картер, режиссером которого не является Тим Бёртон.
    • «Тонто» в переводе с испанского означает «дурак», поэтому в испанской версии имя этого персонажа заменили на «Торо», что означает «бык».
    • Первый фильм, который оператор Боян Базелли снял, используя анаморфные линзы, с момента выхода фильма «Похитители тел» (1993).
    • Во время съемок одной из сцен Джонни Депп должен был специально упасть с лошади, которую он позже поблагодарил за то, что та сохранила ему жизнь. Лишь благодаря тому, что лошадь инстинктивно перепрыгнула через Деппа во время исполнения трюка, он отделался небольшими ушибами и царапинами.
    • В одной из сцен сошедший с путей локомотив с огромной скоростью несется в сторону Тонто и Джона Рида. Для этой сцены 11-тонный локомотив закрепили на почти двухтонной поворотной платформе, которая ехала по рельсовой дороге (вес рельсов в общей сложности составлял более 4,5 тонн), и вращали при помощи хитроумной системы лебедок и тросов.
    • еще 28 фактов
    ОбщееПолное имя : D:ТорентыLone_Ranger_2013_HDRip_[scarabey.org].aviФормат : AVIФормат/Информация : Audio Video InterleaveРазмер файла : 1,45 ГбайтПродолжительность : 2 ч. 29 м.Общий поток : 1387 Кбит/секПрограмма кодирования : VirtualDubMod 1.5.10.3 | www.virtualdub-fr.org || (build 2550/release)Библиотека кодирования : VirtualDubMod build 2550/release

    ВидеоИдентификатор : 0Формат : MPEG-4 VisualПрофиль формата : Advanced [email protected]Параметр BVOP формата : 1Параметр QPel формата : НетПараметр GMC формата : Без точки переходаПараметр матрицы формата : ВыборочнаяИдентификатор кодека : XVIDИдентификатор кодека/Подсказка : XviDПродолжительность : 2 ч. 29 м.Битрейт : 1185 Кбит/секШирина : 720 пикселейВысота : 304 пикселяСоотношение сторон : 2,35:1Частота кадров : 23,976 кадра/секЦветовое пространство : YUVСубдискретизация насыщенности : 4:2:0Битовая глубина : 8 битТип развёртки : ПрогрессивнаяМетод сжатия : С потерямиБит/(Пиксели*Кадры) : 0.226Размер потока : 1,24 Гбайт (85%)Библиотека кодирования : XviD 73

    АудиоИдентификатор : 1Формат : AC-3Формат/Информация : Audio Coding 3Расширение режима : CM (complete main)Параметр Endianness формата : BigИдентификатор кодека : 2000Продолжительность : 2 ч. 29 м.Вид битрейта : ПостоянныйБитрейт : 192 Кбит/секКаналы : 2 каналаРасположение каналов : Front: L RЧастота : 48,0 КГцБитовая глубина : 16 битМетод сжатия : С потерямиРазмер потока : 205 Мбайт (14%)Выравнивание : Разделение по промежуткамПродолжительность промежутка : 42 мс. (1,00 видеокадр)Время предзагрузки промежутка : 500 мс.

    © Оформление by Vetal
  • Скачать Одинокий рейнджер через торрент http://i58.fastpic.ru/big/2013/0922/31/4683bcd4960801b02604b79f43d30631.png Скачать фильм Одинокий рейнджер через торрент бесплантно в хорошем качестве Описание:История блюстителя закона Джона Рида, который с помощью индейца Тонто стал легендарным мстителем в маске, стоящим на защите ... 2013-10-06 07:48 9.7 10 505

    Loading...

    Loading...

    % Раздел Тема Автор DL S | L
    Фильмы 2013 [DVDrip, WEB-DLRip, HDrip] [ 3.14 GB ] Одинокий рейнджер / The Lone Ranger [ 2013 BDRip-AVC ] МАКС1 Скачать
    Фильмы [HD 720p, 1080p] (Хороший звук DUB, MVO) [ 16.87 GB ] Одинокий рейнджер / The Lone Ranger [2013 BDRip 1080p DUB ] от R.G. HD-Films Seedtank Скачать
    Фильмы 2013 [DVDrip, WEB-DLRip, HDrip] [ 2.05 GB ] Одинокий рейнджер / The Lone Ranger [2013 BDRip ] VintMosina Скачать
    Фильмы [HD 720p, 1080p] (Хороший звук DUB, MVO) [ 5.15 GB ] Одинокий рейнджер / The Lone Ranger [2013 BDRip 720p ] potroks Скачать
    Фильмы 2013 [DVDrip, WEB-DLRip, HDrip] [ 2.91 GB ] Одинокий рейнджер / The Lone Ranger [2013 BDRip-AVC ] potroks Скачать
    Фильмы [HD 720p, 1080p] (Хороший звук DUB, MVO) [ 8.52 GB ] Одинокий рейнджер / The Lone Ranger [2013 BDRip ] VintMosina Скачать
    Фильмы (Blu-ray, BD-Remux, HDDVD) [ 33.73 GB ] Одинокий рейнджер / The Lone Ranger [2013 BD Remux [] Ворон Скачать

    Рекламный пират

    06-10-2013 12:00 Одинокий рейнджер Скачать торрент  

    Хороший фильм. Смотрел в Кинотеатре. Но на 1 раз...

    Последний раз редактировалось: I Robott (2013-10-14 18:50), всего редактировалось 1 раз

    06-10-2013 12:00 Одинокий рейнджер Скачать торрент  

    похоже, очередная американская сказка про одиноких американских героев...))

    06-10-2013 12:02 Одинокий рейнджер Скачать торрент  

    :good2: Фильм интересный! Советую посмотреть.

    06-10-2013 12:12 Одинокий рейнджер Скачать торрент  

    Фильм без будущего, такие никто по 2 разу смотреть не будет точно.С трудом его осилил и только благодаря одном актеру хотя и он тут не блещет.После просмотра понял почему он провалился в прокате, не интересно,скучно и однообразно.

    06-10-2013 12:13 Одинокий рейнджер Скачать торрент  

    Фильм отличный! Еще раз поразился тому, как идеально Деппу подходят подобные роли. Гениально отыгрывал свою часть на протяжении всего фильма. Рад, что смотрел не в кино - из-за смеха зрителей не было бы слышно диалогов)

    06-10-2013 12:48 Одинокий рейнджер Скачать торрент  

    Только сегодня думал, что лицензия долго до нас идет )) Отличный фильм, хоть и не без претензий. Мне очень понравилось. Жалко, что провалился в прокате (

    06-10-2013 14:27 Одинокий рейнджер Скачать торрент  

    Фильм не понравился, долгий, нудный, на любителя...

    06-10-2013 17:47 Одинокий рейнджер Скачать торрент  

    Pекламный агент PB

    06-10-2013 18:10 Одинокий рейнджер Скачать торрент  

    Как сказка для детей пойдет.........как вестерн- нет.

    ЗЫ

    Мне уже страшно что "Дисней" снимает Звездные Войны. :somet:

    06-10-2013 18:19 Одинокий рейнджер Скачать торрент  

    Посмотрел, второй раз смотреть не буду

    06-10-2013 19:04 Одинокий рейнджер Скачать торрент  

    Узнаваемый образ и трюки из пиратов карибского моря, честное слово! Перебрали с феерическими спецэффектами, но особо не напрягает. Не плохо, местами смешно. Фильм хороший.

    06-10-2013 19:08 Одинокий рейнджер Скачать торрент  

    С чувством юмора.Фильм класный!!!

    06-10-2013 19:14 Одинокий рейнджер Скачать торрент  

    Отстойненько!

    06-10-2013 19:42 Одинокий рейнджер Скачать торрент  

    Че за бред, юмор в фильме ужасен)

    06-10-2013 20:12 Одинокий рейнджер Скачать торрент  

    Мне понравился, хороший фильм!

    06-10-2013 20:20 Одинокий рейнджер Скачать торрент  

    Забавный фильм, юмор на высоте, игра Депа на высоте. А вот в остальном лажа...на один раз

    Pекламный агент PB

    07-10-2013 03:34 Одинокий рейнджер Скачать торрент  

    На 1 раз.Хоть и обожаю Депа,тащусь от пиратов,но тут-уж увольте.

    07-10-2013 08:25 Одинокий рейнджер Скачать торрент  

    хорошая сказка!

    07-10-2013 11:42 Одинокий рейнджер Скачать торрент  

    ооо вечерок пройдет хорошо))

    07-10-2013 13:29 Одинокий рейнджер Скачать торрент  

    Ура ждал! спасибо

    07-10-2013 14:00 Одинокий рейнджер Скачать торрент  

    dozor5 писал(а):

    похоже, очередная американская сказка про одиноких американских героев...))

    я вот не понимаю извечного нытья по поводу того, что американцы снимают фильмы, про то, как они, американцы становятся героями одиночками! НУ А КОГО ОНИ ДОЛЖНЫ ДЕЛАТЬ ГЕРОЯМИ??? Вас??? Или русских??? Или кого??? По-моему это очень круто, что они МОГУТ снимать такое кино про себя! ....в отличии от НАС! У нас, что не "шедевр", без слез не взглянешь!

    07-10-2013 16:11 Одинокий рейнджер Скачать торрент  

    спасибо, глянем

    07-10-2013 18:08 Одинокий рейнджер Скачать торрент  

    Спасибо, жаль перевод воробья не родной

    07-10-2013 18:26 Одинокий рейнджер Скачать торрент  

    Pекламный агент PB

    Дорогой пользователь! Огромная просьба, поблагодарите релизера, оцените раздачу и оставьте свои комментарий, если Вы скачали Одинокий рейнджер через торрент бесплатно! Внесите свою лепту в развитие PiratBit!

    Комментировать посты могут только пользователи прошедшие не сложную регистрацию

    Одинокий рейнджер через торрент Скачать бесплатно Одинокий рейнджер Одинокий рейнджер скачать торрент Одинокий рейнджер смотреть онлайн Cкачать фильм Одинокий рейнджер бесплатно Одинокий рейнджер скачать торрент в хорошем качестве Одинокий рейнджер смотреть онлайн бесплатно в хорошем качестве

    Вы не можете начинать темыВы не можете отвечать на сообщенияВы не можете редактировать свои сообщенияВы не можете удалять свои сообщенияВы не можете голосовать в опросахВы не можете прикреплять файлы к сообщениямВы можете скачивать файлы

    piratbit.ru


    Смотрите также