Скачать фильм через торрент взрыв из прошлого бесплатно в хорошем качестве


Взрыв из прошлого [2015 SATRip] скачать через торрент

Размер: 2.36 GB | Добавлен: 2 года 7 мес. назад | Торрент скачан:744 раза
Реклама Дарим 3000 рублей за регистрацию, не упусти свой шанс получить шикарный бонус!!!

06-03-2015 14:16 Взрыв из прошлого Скачать торрент  

Взрыв из прошлого

Год выпуска: 2015Страна: РоссияЖанр: детектив

Режиссер: Андрей Иванов

В ролях: Всеволод Цурило, Сергей Горобченко, Анастасия Микульчина, Геннадий Венгеров, Яна Сухова, Максим Ханжов

Описание: В жизнь удачливого бизнесмена Николая Ковалева прошлое ворвалось взрывом. На него, в прошлом майора спецназа, совершено покушение. Распутывая сложный клубок обстоятельств, он приходит к выводу, что за ним охотится его старый заклятый враг, криминальный авторитет Михась, который когда-то поклялся убить Ковалева и его боевую подругу Римму.

Ковалев бросается на поиски Михася. Здесь очень кстати ему оказывается помощь Риммы, когда-то влюбленной в него. Пройдя через множество препятствий, используя весь арсенал средств специальной подготовки, боевой дуэт все ближе подбирается к криминальному авторитету. Но им приходится отвечать на множество вопросов: где границы дозволенного, какова цена победы, что делать с любовью, внезапно догнавшей их?

Качество: SATRipФормат: AVIВидео кодек: XviDАудио кодек: MP3Видео: 720x448 (1.607), 25.000 fps, 1 800 Kbps (0.223 bit/pixel)Аудио#1: 48.0 KHz, 2 ch, 128 Kbps, CBR

GeneralComplete name : E:\Русс сер\Взрыв из прошлого\Vzryv.iz.proshlogo.2015.SATRip\Vzryv.iz.proshlogo.01.2015.SATRip.aviFormat : AVIFormat/Info : Audio Video InterleaveFile size : 613 MiBDuration : 44mn 13sOverall bit rate : 1 938 KbpsWriting application : VirtualDubMod 1.5.10.3 | www.virtualdub-fr.org || (build 2550/release)Writing library : VirtualDub build 32507/release

VideoID : 0Format : MPEG-4 VisualFormat profile : Advanced [email protected] settings, BVOP : 2Format settings, QPel : NoFormat settings, GMC : No warppointsFormat settings, Matrix : Default (MPEG)Codec ID : XVIDCodec ID/Hint : XviDDuration : 44mn 13sBit rate : 1 800 KbpsWidth : 720 pixelsHeight : 448 pixelsDisplay aspect ratio : 16:10Frame rate : 25.000 fpsColor space : YUVChroma subsampling : 4:2:0Bit depth : 8 bitsScan type : ProgressiveCompression mode : LossyBits/(Pixel*Frame) : 0.223Stream size : 569 MiB (93%)Writing library : XviD 1.2.1 (UTC 2008-12-04)

AudioID : 1Format : MPEG AudioFormat version : Version 1Format profile : Layer 3Mode : Joint stereoCodec ID : 55Codec ID/Hint : MP3Duration : 44mn 13sBit rate mode : ConstantBit rate : 128 KbpsChannel(s) : 2 channelsSampling rate : 48.0 KHzCompression mode : LossyStream size : 40.5 MiB (7%)Alignment : Aligned on interleavesInterleave, duration : 40 ms (1.00 video frame)Interleave, preload duratio : 504 msWriting library : LAME3.99rEncoding settings : -m j -V 4 -q 2 -lowpass 17 -b 128

Внимание! Раздача ведётся путём добавления новых серий; при каждом добавлении создаётся новый торрент. Чтобы начать докачку новой серии, пользователям необходимо сделать следующее:(1) остановить скачивание,(2) удалить старый торрент у себя из клиента (старые серии удалять не надо),(3) скачать новый торрент и запустить его у себя в клиенте вместо старого, при этом указать клиенту путь в старую папку куда и должно происходить скачивание новых серий.Ваш клиент при этом должен произвести хеширование (проверку) старой папки (если не производит сам - помогите ему сделать это), и будет докачивать только те серии которых у вас ещё нет. Старые серии при этом не удаляются, а продолжают раздаваться!Eсли вы уже удалили старые серии, то предотвратить повторную закачку старых серий можно, отжав галочку в соответсвующих местах при запуске нового торрента. По возможности, желательно не удалять старые серии как можно дольше чтобы релизёр не столько продолжал раздавать старые серии, а смог сконцентрироваться на новых.

Скачать Взрыв из прошлого через торрент http://pic1.pb.wtf/images/10/yvyox.jpg Скачать фильм Взрыв из прошлого через торрент бесплантно в хорошем качестве Описание: В жизнь удачливого бизнесмена Николая Ковалева прошлое ворвалось взрывом. На него, в прошлом майора спецназа, совершено ... 2015-03-07 06:42 10 10 25

Loading...

Loading...

Последний раз редактировалось: Assasinca (2015-03-07 06:42), всего редактировалось 1 раз

Рекламный пират

06-03-2015 21:55 Взрыв из прошлого Скачать торрент  

Вот просто интересно: с какого перепугу имя продюсера Терентьева поместили на обложку рядом с актёрами ? Он там в главной роли снялся?А почему тогда в ролях первым номером указан и на весь постер показан- Всеволод Цурило? Наверное постер кто то с косяками сделал...Это не автору раздачи в упрёк ( в сети везде этот постер, только Кинопоиск постеснялся его выставить), а просто мысли вслух.

07-03-2015 06:43 Взрыв из прошлого Скачать торрент  

добавлены 3-4 серии

07-03-2015 07:55 Взрыв из прошлого Скачать торрент  

qwasar писал(а):

Вот просто интересно: с какого перепугу имя продюсера Терентьева поместили на обложку рядом с актёрами ? Он там в главной роли снялся?А почему тогда в ролях первым номером указан и на весь постер показан- Всеволод Цурило? Наверное постер кто то с косяками сделал...Это не автору раздачи в упрёк ( в сети везде этот постер, только Кинопоиск постеснялся его выставить), а просто мысли вслух.

наверное так ему захотелось)

Дорогой пользователь! Огромная просьба, поблагодарите релизера, оцените раздачу и оставьте свои комментарий, если Вы скачали Взрыв из прошлого через торрент бесплатно! Внесите свою лепту в развитие PiratBit!

Комментировать посты могут только пользователи прошедшие не сложную регистрацию

Взрыв из прошлого через торрент Скачать бесплатно Взрыв из прошлого Взрыв из прошлого скачать торрент Взрыв из прошлого смотреть онлайн Cкачать фильм Взрыв из прошлого бесплатно Взрыв из прошлого скачать торрент в хорошем качестве Взрыв из прошлого смотреть онлайн бесплатно в хорошем качестве

Вы не можете начинать темыВы не можете отвечать на сообщенияВы не можете редактировать свои сообщенияВы не можете удалять свои сообщенияВы не можете голосовать в опросахВы не можете прикреплять файлы к сообщениямВы можете скачивать файлы

piratbit.ru

Взрыв из прошлого / Серии:1-4 из 4 [2015 остросюжетный DVB] скачать через торрент

Размер: 3.67 GB | Добавлен: 2 года 7 мес. назад | Торрент скачан:487 раз
Реклама Дарим 3000 рублей за регистрацию, не упусти свой шанс получить шикарный бонус!!!

06-03-2015 19:55 Взрыв из прошлого Скачать торрент  

Взрыв из прошлого

Год выпуска: 2015Страна: Россия Стар Медиа Жанр: Детектив, криминал, остросюжетныйПродолжительность: 4 х ~ 00:44:00

Режиссер: Андрей ИвановПродюссер: Алексей Терентьев, Влад РяшинСценарий: Алан Хурумов, Мария Ваксман, Игорь Тер-Карапетов

Премьера в мире: 6 марта 2015 В ролях: Всеволод Цурило, Сергей Горобченко, Анастасия Микульчина, Оксана Скакун, Геннадий Венгеров, Роман Притула, Артур Федынко, Вячеслав Гасай, Леонид Ворон

Описание: Николай Ковалев, в прошлом майор спецназа, теперь удачливый бизнесмен. На него было совершено покушение, и мужчина намерен выяснить, чьих это рук дело. Николай вспоминает, что когда-то перешел дорогу криминальному авторитету Михасю, который грозился отомстить своему врагу. Прошло время, Николай поменял род деятельности и совершенно забыл обещания своего давнего недоброжелателя. Тогда напарницей Николая была Римма, женщина – настоящий боец и верная подруга в одном лице. Ковалев не собирается сидеть и ждать, когда Михась придет и начнет осуществлять свои угрозы в реальность, поэтому он с Риммой ищет своего врага, дабы опередить и вмешаться в планы преступника. В их распоряжении огромное количество оружия, знания и опыт, который не исчез с годами. Они все ближе подбираются к своему противнику. Работая вместе, Римма понимает, что всегда любила этого человека, она делает попытки сблизиться с ним. Николай воспринимал ее исключительно, как напарницу, но спустя годы, он наконец-то разглядел в ней женщину. Между тем, Михась осведомлен, что на него открыли охоту, поэтому он готовится принять дорогих гостей, как полагается. Как далеко Николай сможет зайти в выяснении отношений с преступником, для которого убийство, лишь, пустой звук?

Качество: DVBФормат: AVCВидео кодек: MPEG4Аудио кодек: MPEG AudioВидео: MPEG4 Video (h364), 720x576 (20:11), 25fps, 2 637 KbpsАудио: MPEG Audio, 48000Hz, stereo, 192kbpРелиз от: BLACKTIRСкриншоты:                

D : 1 (0x1)Complete name : E:\40000\Взрыв из прошлого\01 серия.tsFormat : MPEG-TSFile size : 942 MiBDuration : 44mn 12sOverall bit rate mode : VariableOverall bit rate : 2 978 Kbps

VideoID : 192 (0xC0)Menu ID : 1 (0x1)Format : AVCFormat/Info : Advanced Video CodecFormat profile : [email protected] settings, CABAC : YesFormat settings, ReFrames : 3 framesFormat settings, GOP : M=4, N=28Codec ID : 27Duration : 44mn 12sBit rate : 2 637 KbpsWidth : 720 pixelsHeight : 576 pixelsDisplay aspect ratio : 16:9Frame rate : 25.000 fpsStandard : ComponentColor space : YUVChroma subsampling : 4:2:0Bit depth : 8 bitsScan type : ProgressiveBits/(Pixel*Frame) : 0.254Stream size : 834 MiB (89%)Color primaries : BT.601 PALTransfer characteristics : BT.470 System B, BT.470 System GMatrix coefficients : BT.601

AudioID : 193 (0xC1)Menu ID : 1 (0x1)Format : MPEG AudioFormat version : Version 1Format profile : Layer 2Codec ID : 3Duration : 44mn 12sBit rate mode : ConstantBit rate : 192 KbpsChannel(s) : 2 channelsSampling rate : 48.0 KHzCompression mode : LossyStream size : 60.7 MiB (6%)Language : Russian

Скачать Взрыв из прошлого через торрент http://pic1.pb.wtf/images/10/ihq8i.jpg Скачать фильм Взрыв из прошлого через торрент бесплантно в хорошем качестве Описание: Николай Ковалев, в прошлом майор спецназа, теперь удачливый бизнесмен. На него было совершено покушение, и мужчина намерен ... 2015-03-06 19:55 8.7 10 13

Loading...

Loading...

Рекламный пират

06-03-2015 22:30 Взрыв из прошлого Скачать торрент  

Иной раз по названию можно понять что фильм российский. За релиз - спасибо.

09-03-2015 10:30 Взрыв из прошлого Скачать торрент  

посмотрел фильмец,в полне нормально

Дорогой пользователь! Огромная просьба, поблагодарите релизера, оцените раздачу и оставьте свои комментарий, если Вы скачали Взрыв из прошлого через торрент бесплатно! Внесите свою лепту в развитие PiratBit!

Комментировать посты могут только пользователи прошедшие не сложную регистрацию

Взрыв из прошлого через торрент Скачать бесплатно Взрыв из прошлого Взрыв из прошлого скачать торрент Взрыв из прошлого смотреть онлайн Cкачать фильм Взрыв из прошлого бесплатно Взрыв из прошлого скачать торрент в хорошем качестве Взрыв из прошлого смотреть онлайн бесплатно в хорошем качестве

Вы не можете начинать темыВы не можете отвечать на сообщенияВы не можете редактировать свои сообщенияВы не можете удалять свои сообщенияВы не можете голосовать в опросахВы не можете прикреплять файлы к сообщениямВы можете скачивать файлы

piratbit.ru

Взрыв из прошлого через торрент

ОбщееУникальный идентификатор : 204553964861465625803344955952151913609 (0x99E3A91E31D1A298AB29B523AB77E489)Полное имя : D:\Video\Взрыв из прошлого.1999.BDRip.AVC.mkvФормат : MatroskaВерсия формата : Version 4 / Version 2Размер файла : 3,07 ГбайтПродолжительность : 1 ч. 52 м.Общий поток : 3918 Кбит/секНазвание фильма : BDRip -- STarankovДата кодирования : UTC 2015-08-10 14:11:24Программа кодирования : mkvmerge v8.2.0 ('World of Adventure') 64bitБиблиотека кодирования : libebml v1.3.1 + libmatroska v1.4.2DURATION : 01:50:25.659000000NUMBER_OF_FRAMES : 1610NUMBER_OF_BYTES : 56896_STATISTICS_WRITING_APP : mkvmerge v8.2.0 ('World of Adventure') 64bit_STATISTICS_WRITING_DATE_UTC : 2015-08-10 14:11:24_STATISTICS_TAGS : BPS DURATION NUMBER_OF_FRAMES NUMBER_OF_BYTES

ВидеоИдентификатор : 1Формат : AVCФормат/Информация : Advanced Video CodecПрофиль формата : [email protected]Параметр CABAC формата : ДаПараметр ReFrames формата : 9 кадровИдентификатор кодека : V_MPEG4/ISO/AVCПродолжительность : 1 ч. 52 м.Битрейт : 2368 Кбит/секШирина : 1024 пикселяВысота : 426 пикселейСоотношение сторон : 2,40:1Режим частоты кадров : ПостоянныйЧастота кадров : 23,976 кадра/секЦветовое пространство : YUVСубдискретизация насыщенности : 4:2:0Битовая глубина : 8 битТип развёртки : ПрогрессивнаяБит/(Пиксели*Кадры) : 0.226Размер потока : 1,85 Гбайт (60%)Библиотека кодирования : x264 core 146 r2538 121396cНастройки программы : cabac=1 / ref=9 / deblock=1:-2:-2 / analyse=0x3:0x113 / me=umh / subme=10 / psy=1 / psy_rd=1.00:0.15 / mixed_ref=1 / me_range=32 / chroma_me=1 / trellis=2 / 8x8dct=1 / cqm=0 / deadzone=21,11 / fast_pskip=1 / chroma_qp_offset=-3 / threads=6 / lookahead_threads=1 / sliced_threads=0 / nr=0 / decimate=1 / interlaced=0 / bluray_compat=0 / constrained_intra=0 / bframes=10 / b_pyramid=2 / b_adapt=2 / b_bias=0 / direct=1 / weightb=1 / open_gop=0 / weightp=2 / keyint=230 / keyint_min=23 / scenecut=40 / intra_refresh=0 / rc_lookahead=40 / rc=crf / mbtree=0 / crf=18.0 / qcomp=0.60 / qpmin=0 / qpmax=69 / qpstep=4 / vbv_maxrate=40000 / vbv_bufsize=50000 / crf_max=0.0 / nal_hrd=none / filler=0 / ip_ratio=1.40 / pb_ratio=1.30 / aq=1:1.00Язык : EnglishDefault : ДаForced : НетDURATION : 01:52:06.303000000NUMBER_OF_FRAMES : 161270NUMBER_OF_BYTES : 2055097680_STATISTICS_WRITING_APP : mkvmerge v8.2.0 ('World of Adventure') 64bit_STATISTICS_WRITING_DATE_UTC : 2015-08-10 14:11:24_STATISTICS_TAGS : BPS DURATION NUMBER_OF_FRAMES NUMBER_OF_BYTES

Аудио #1Идентификатор : 2Формат : AC-3Формат/Информация : Audio Coding 3Расширение режима : CM (complete main)Параметр Endianness формата : BigИдентификатор кодека : A_AC3Продолжительность : 1 ч. 52 м.Вид битрейта : ПостоянныйБитрейт : 448 Кбит/секКаналы : 6 каналовРасположение каналов : Front: L C R, Side: L R, LFEЧастота : 48,0 КГцМетод сжатия : С потерямиРазмер потока : 359 Мбайт (11%)Заголовок : DUB (с добавлением MVO)Язык : RussianDefault : ДаForced : Нет

Аудио #2Идентификатор : 3Формат : AC-3Формат/Информация : Audio Coding 3Расширение режима : CM (complete main)Параметр Endianness формата : BigИдентификатор кодека : A_AC3Продолжительность : 1 ч. 52 м.Вид битрейта : ПостоянныйБитрейт : 384 Кбит/секКаналы : 6 каналовРасположение каналов : Front: L C R, Side: L R, LFEЧастота : 48,0 КГцМетод сжатия : С потерямиРазмер потока : 308 Мбайт (10%)Заголовок : MVOЯзык : RussianDefault : НетForced : Нет

Аудио #3Идентификатор : 4Формат : AC-3Формат/Информация : Audio Coding 3Расширение режима : CM (complete main)Параметр Endianness формата : BigИдентификатор кодека : A_AC3Продолжительность : 1 ч. 52 м.Вид битрейта : ПостоянныйБитрейт : 192 Кбит/секКаналы : 2 каналаРасположение каналов : Front: L RЧастота : 48,0 КГцМетод сжатия : С потерямиРазмер потока : 154 Мбайт (5%)Заголовок : AVO (Юрий Живов)Язык : RussianDefault : НетForced : Нет

Аудио #4Идентификатор : 5Формат : AC-3Формат/Информация : Audio Coding 3Расширение режима : CM (complete main)Параметр Endianness формата : BigИдентификатор кодека : A_AC3Продолжительность : 1 ч. 52 м.Вид битрейта : ПостоянныйБитрейт : 448 Кбит/секКаналы : 6 каналовРасположение каналов : Front: L C R, Side: L R, LFEЧастота : 48,0 КГцМетод сжатия : С потерямиРазмер потока : 359 Мбайт (11%)Заголовок : OriginalЯзык : EnglishDefault : НетForced : Нет

Текст #1Идентификатор : 6Формат : UTF-8Идентификатор кодека : S_TEXT/UTF8Идентификатор кодека/Информация : UTF-8 Plain TextЗаголовок : русскийЯзык : RussianDefault : НетForced : Нет

Текст #2Идентификатор : 7Формат : UTF-8Идентификатор кодека : S_TEXT/UTF8Идентификатор кодека/Информация : UTF-8 Plain TextЗаголовок : английский (для слабослышащих)Default : НетForced : Нет

piratbit.ru

Скачать фильм Взрыв из прошлого через торрент в хорошем качестве бесплатно DVDRip-AVC

Раздают: 1 [ 0 KB/s ]
Размер: 1.46 GB | Добавлен: 5 лет 8 мес. назад | Торрент скачан:278 раз
Реклама Дарим 3000 рублей за регистрацию, не упусти свой шанс получить шикарный бонус!!!

04-02-2012 05:47 Взрыв из прошлого Скачать торрент  

Взрыв из прошлого / Blast from the Past Год выпуска: 1999Страна: СШАЖанр: Комедия, мелодрамаПродолжительность: 01:38:32Перевод: Профессиональный (дублированный)Cубтитры: русскиеОригинальная аудиодорожка: английскийРежиссер: Хью Уилсон / Hugh WilsonВ ролях: Брендан Фрэйзер, Алисия Сильверстоун, Кристофер Уокен, Хью Уилсон, Джон Розелиус, Донован Скотт, Рекс Линн, Джоуи Злотник, Сисси Спэйсек, Йессо Дон, Дэйв Фоули, Дэйл Рауль, Синтия Мэйс, Гарри С. Мерфи, Уэндел Мелдурм, Билл ГраттонОписание: Адам Уэббер родился нормальным ребенком, но, по глупому недоразумению, провел 35 лет в бомбоубежище вместе со своими родителями. Наивный и искренний, он впервые оказывается среди людей в бушующем Лос-Анджелесе 90-х! И кто знает — может, он еще успеет наверстать упущенное?!Качество : DVDRip-AVC(Исх. DVD9)Формат : MKVВидео кодек: x264Аудио кодек: АС3Видео: [email protected] ( 2.35:1), x264, 25.000 fps, 1344 KbpsАудио 1: 48 kHz, AC3 Dolby Digital, 3/2 (L,C,R,l,r) + LFE ch, ~384 kbps RUSАудио 2: 48 kHz, AC3 Dolby Digital, 3/2 (L,C,R,l,r) + LFE ch, ~384 kbps ENGФормат субтитров: softsub (SRT) Скачать Взрыв из прошлого через торрент http://i17.fastpic.ru/big/2011/0314/1f/51b458d805dbf2168fdb989613d3f41f.png Скачать фильм Взрыв из прошлого через торрент бесплантно в хорошем качестве Описание: Адам Уэббер родился нормальным ребенком, но, по глупому недоразумению, провел 35 лет в бомбоубежище вместе со своими родителями. ... 2012-02-04 05:47 10 10 2

Loading...

Loading...

Рекламный пират

Дорогой пользователь! Огромная просьба, поблагодарите релизера, оцените раздачу и оставьте свои комментарий, если Вы скачали Взрыв из прошлого через торрент бесплатно! Внесите свою лепту в развитие PiratBit!

Комментировать посты могут только пользователи прошедшие не сложную регистрацию

Взрыв из прошлого через торрент Скачать бесплатно Взрыв из прошлого Взрыв из прошлого скачать торрент Взрыв из прошлого смотреть онлайн Cкачать фильм Взрыв из прошлого бесплатно Взрыв из прошлого скачать торрент в хорошем качестве Взрыв из прошлого смотреть онлайн бесплатно в хорошем качестве

Вы не можете начинать темыВы не можете отвечать на сообщенияВы не можете редактировать свои сообщенияВы не можете удалять свои сообщенияВы не можете голосовать в опросахВы не можете прикреплять файлы к сообщениямВы можете скачивать файлы

piratbit.ru


Смотрите также