Скачать фильм через торрент золотой ребенок в хорошем качестве


Скачать фильм Золотой ребенок (1986) через торрент

5 июля 2016 06:49 Золотой ребенок / The Golden Child (1986) WEB-DLRip-AVC от NNM-CLUB .torrent   [Информация о файле (нажмите для просмотра)] Перевод: Профессиональный (многоголосый, закадровый), профессиональный (двухголосый, закадровый), авторский (одноголосый, закадровый)Субтитры: ОтсутствуютВидео: AVC, 1024x576 (16:9), 23.976 fps, 3 431 Kbps (0.243 bit/pixel)Аудио #1: AC-3, 48.0 KHz, 6 ch, 384 Kbps, CBR (Russian) - многоголосый (iTunes)Аудио #2: AC-3, 48.0 KHz, 6 ch, 384 Kbps, CBR (Russian) - авторский А.ГавриловАудио #3: AC-3, 48.0 KHz, 6 ch, 448 Kbps, CBR (Russian) - авторский А.МихалёвАудио #4: AC-3, 48.0 KHz, 2 ch, 192 Kbps, CBR (Russian) - авторский В.ГорчаковАудио #5: AC-3, 48.0 KHz, 2 ch, 192 Kbps, CBR (Russian) - двухголосый (Премьер Видео Фильм)Аудио #6: AC-3, 48.0 KHz, 2 ch, 192 Kbps, CBR (Russian) - многоголосый (ТВЦ)Аудио #7: AC-3, 48.0 KHz, 2 ch, 256 Kbps, CBR (Russian) - двухголосый (НТВ+)Видео: Идентификатор : 1 Формат : AVC Формат/Информация : Advanced Video Codec Профиль формата : [email protected] Параметр CABAC формата : Да Параметр ReFrames формата : 10 кадров Идентификатор кодека : V_MPEG4/ISO/AVC Продолжительность : 1 ч. 33 м. Битрейт : 3431 Кбит/сек Ширина : 1024 пикселя Высота : 576 пикселей Соотношение сторон : 16:9 Режим частоты кадров : Постоянный Частота кадров : 23,976 кадра/сек Цветовое пространство : YUV Субдискретизация насыщенности : 4:2:0 Битовая глубина : 8 бит Тип развёртки : Прогрессивная Бит/(Пиксели*Кадры) : 0.243 Размер потока : 2,24 Гбайт (61%) Библиотека кодирования : x264 core 142 r2431 ac76440 Настройки программы : cabac=1 / ref=10 / deblock=1:-3:-3 / analyse=0x3:0x133 / me=umh / subme=11 / psy=1 / psy_rd=1.00:0.00 / mixed_ref=1 / me_range=32 / chroma_me=1 / trellis=2 / 8x8dct=1 / cqm=0 / deadzone=21,11 / fast_pskip=1 / chroma_qp_offset=-2 / threads=12 / lookahead_threads=2 / sliced_threads=0 / nr=0 / decimate=0 / interlaced=0 / bluray_compat=0 / constrained_intra=0 / bframes=8 / b_pyramid=2 / b_adapt=2 / b_bias=0 / direct=3 / weightb=1 / open_gop=0 / weightp=2 / keyint=240 / keyint_min=23 / scenecut=40 / intra_refresh=0 / rc=crf / mbtree=0 / crf=17.5 / qcomp=0.60 / qpmin=0 / qpmax=69 / qpstep=4 / ip_ratio=1.40 / pb_ratio=1.30 / aq=1:1.00 Язык : English Default : Да Forced : НетАудио #1: Идентификатор : 2 Формат : AC-3 Формат/Информация : Audio Coding 3 Расширение режима : CM (complete main) Параметр Endianness формата : Big Идентификатор кодека : A_AC3 Продолжительность : 1 ч. 33 м. Вид битрейта : Постоянный Битрейт : 384 Кбит/сек Каналы : 6 каналов Расположение каналов : Front: L C R, Side: L R, LFE Частота : 48,0 КГц Битовая глубина : 16 бит Метод сжатия : С потерями Размер потока : 257 Мбайт (7%) Заголовок : AC3 5.1 @ 384 kbps MVO Язык : Russian Default : Да Forced : НетАудио #2: Идентификатор : 3 Формат : AC-3 Формат/Информация : Audio Coding 3 Расширение режима : CM (complete main) Параметр Endianness формата : Big Идентификатор кодека : A_AC3 Продолжительность : 1 ч. 33 м. Вид битрейта : Постоянный Битрейт : 384 Кбит/сек Каналы : 6 каналов Расположение каналов : Front: L C R, Side: L R, LFE Частота : 48,0 КГц Битовая глубина : 16 бит Метод сжатия : С потерями Задержка видео : 2 с. 700 мс. Размер потока : 257 Мбайт (7%) Заголовок : Авторский А.Гаврилов Язык : Russian Default : Нет Forced : НетАудио #3: Идентификатор : 4 Формат : AC-3 Формат/Информация : Audio Coding 3 Расширение режима : CM (complete main) Параметр Endianness формата : Big Идентификатор кодека : A_AC3 Продолжительность : 1 ч. 33 м. Вид битрейта : Постоянный Битрейт : 448 Кбит/сек Каналы : 6 каналов Расположение каналов : Front: L C R, Side: L R, LFE Частота : 48,0 КГц Битовая глубина : 16 бит Метод сжатия : С потерями Задержка видео : 2 с. 700 мс. Размер потока : 300 Мбайт (8%) Заголовок : Авторский А.Михалёв Язык : Russian Default : Нет Forced : НетАудио #4: Идентификатор : 5 Формат : AC-3 Формат/Информация : Audio Coding 3 Расширение режима : CM (complete main) Параметр Endianness формата : Big Идентификатор кодека : A_AC3 Продолжительность : 1 ч. 33 м. Вид битрейта : Постоянный Битрейт : 192 Кбит/сек Каналы : 2 канала Расположение каналов : Front: L R Частота : 48,0 КГц Битовая глубина : 16 бит Метод сжатия : С потерями Задержка видео : 2 с. 600 мс. Размер потока : 128 Мбайт (3%) Заголовок : Авторский В.Горчаков Язык : Russian Default : Нет Forced : НетАудио #5: Идентификатор : 6 Формат : AC-3 Формат/Информация : Audio Coding 3 Расширение режима : CM (complete main) Параметр Endianness формата : Big Идентификатор кодека : A_AC3 Продолжительность : 1 ч. 33 м. Вид битрейта : Постоянный Битрейт : 192 Кбит/сек Каналы : 2 канала Расположение каналов : Front: L R Частота : 48,0 КГц Битовая глубина : 16 бит Метод сжатия : С потерями Задержка видео : 2 с. 600 мс. Размер потока : 128 Мбайт (3%) Заголовок : Двухголосый (Премьер Видео Фильм) Язык : Russian Default : Нет Forced : НетАудио #6: Идентификатор : 7 Формат : AC-3 Формат/Информация : Audio Coding 3 Расширение режима : CM (complete main) Параметр Endianness формата : Big Идентификатор кодека : A_AC3 Продолжительность : 1 ч. 33 м. Вид битрейта : Постоянный Битрейт : 192 Кбит/сек Каналы : 2 канала Расположение каналов : Front: L R Частота : 48,0 КГц Битовая глубина : 16 бит Метод сжатия : С потерями Задержка видео : 3 с. 200 мс. Размер потока : 128 Мбайт (3%) Заголовок : Многоголосый (ТВЦ) Язык : Russian Default : Нет Forced : НетАудио #7: Идентификатор : 8 Формат : AC-3 Формат/Информация : Audio Coding 3 Расширение режима : CM (complete main) Параметр Endianness формата : Big Идентификатор кодека : A_AC3 Продолжительность : 1 ч. 33 м. Вид битрейта : Постоянный Битрейт : 256 Кбит/сек Каналы : 2 канала Расположение каналов : Front: L R Частота : 48,0 КГц Битовая глубина : 16 бит Метод сжатия : С потерями Задержка видео : 2 с. 700 мс. Размер потока : 171 Мбайт (5%) Заголовок : Двухголосый (НТВ+) Язык : Russian Default : Нет Forced : Нет 3,65 Gb 22 1 5 июля 2016 06:49 Золотой ребенок / The Golden Child (1986) WEB-DLRip | P2 .torrent   [Информация о файле (нажмите для просмотра)] Перевод: Профессиональный (двухголосый, закадровый)Субтитры: отсутствуютКачество: WEB-DLRipВидео: MPEG4, XviD, 720x400 (16:9), 23.976 fps, 1 837 Kbps (0.266 bit/pixel)Аудио: AC-3, 48.0 KHz, 6 ch, 384 Kbps, CBR 1,46 Gb 4 2 5 июля 2016 06:49 Золотой ребенок / The Golden Child (1986) HDTVRip 1080p .torrent   [Информация о файле (нажмите для просмотра)] Перевод: Русский двухголосый закадровый |НТВ+Кодек: х264Формат: MKVКачество: HDTVRip [1080p]Видео: MPEG-4, 1920х1072, 25,000 fps, 10,5 mb/s, 0.170 bit/pixelЗвук#1: АС3, 48,0 kHz, 2 ch, 256 kbps (Русский двухголосый закадровый НТВ+)Звук#2: АС3, 48,0 kHz, 6 ch, 384 kbps (Авторский одноголосый - Михалёв)Звук#3: АС3, 48,0 kHz, 6 ch, 448 kbps (Авторский одноголосый - Гаврилов)Звук#4: АС3, 48,0 kHz, 6 ch, 448 kbps (Оригинальный английский) 7,57 Gb 4 2 5 июля 2016 06:49 Золотой ребенок / The Golden Child (1986) HDRip от Scarabey | P .torrent   [Информация о файле (нажмите для просмотра)] Перевод: Профессиональный (многоголосый, закадровый)Субтитры: НетКачество: HDRipФормат: AVIВидео: 688x384 (1.79:1), 23.976 fps, XviD build 73 ~1820 kbps avg, 0.29 bit/pixelАудио: 48 kHz, AC3 Dolby Digital, 3/2 (L,C,R,l,r) + LFE ch, ~384 kbps 1,45 Gb 16 3 5 июля 2016 06:49 Золотой ребенок / The Golden Child (1986) HDRip от Scarabey | P .torrent   [Информация о файле (нажмите для просмотра)] Перевод: Профессиональный (многоголосый, закадровый)Субтитры: НетКачество: HDRipФормат: AVIВидео: 624x352 (1.77:1), 23.976 fps, XviD build 73 ~974 kbps avg, 0.19 bit/pixelАудио: 48 kHz, MPEG Layer 3, 2 ch, ~128.00 kbps avg 743,71 Mb 7 4 5 июля 2016 06:48 Золотой ребенок / The Golden Child (1986) HDTVRip-AVC | A, P, P2 .torrent   [Информация о файле (нажмите для просмотра)] Перевод: Авторский одноголосый (Андрей Гаврилов, Алексей Михалев), Проф. многоголосый (ТВ Центр), двухголосый (НТВ+)Субтитры: Русские, АнглийскиеФормат: MKVКодек: x264Качество: HDTVRip-AVCВидео: 912x512, 25,000 fps, ~1800 kbps (crf), 0.159 bit/pixelАудио #1: Русский, AC3, 6 chnls, 384 kbps |AVO, ГавриловАудио #2: Русский, AC3, 6 chnls, 448 kbps |AVO, МихалевАудио #3: Русский, AC3, 2 chnls, 192 kbps |MVO, ТВ ЦентрАудио #4: Русский, AC3, 2 chnls, 256 kbps |DVO, НТВ+ 2 Gb 7 2 5 июля 2016 06:48 Золотой ребенок / Golden Child, The (1986) DVDRip | A .torrent   [Информация о файле (нажмите для просмотра)] Перевод: А. Гаврилов + Ориг.Качество: DVDRipВидео: DivX 5 704x368 23.98fps 1561KbpsЗвук: Dolby AC3 48000Hz 6ch 384KbpsЗвук: Dolby AC3 48000Hz stereo 192Kbps 1,41 Gb 6 1

gig-torrent.net

Скачать фильм Золотой Ребёнок через торрент в хорошем качестве бесплатно HDRip

Размер: 1.7 GB | Добавлен: 3 года 9 мес. назад | Торрент скачан:59 раз
Реклама Дарим 3000 рублей за регистрацию, не упусти свой шанс получить шикарный бонус!!!

20-01-2014 11:27 Золотой Ребёнок Скачать торрент  

Золотой Ребёнок / The Golden Child Год выпуска: 1986Страна: СШАЖанр: боевик, приключения, комедия, фэнтезиПродолжительность: 01:33:27Перевод: Профессиональный (многоголосый, закадровый) СТСРоли озвучивали: Александр Клюквин, Александр Груздев и Ольга ЗубковаПеревод 2: Профессиональный (многоголосый, закадровый) ТВ-ЦентрРоли озвучивали: Александр Клюквин, Виктор Петров и Людмила ИльинаПеревод 3: Профессиональный (двухголосый, закадровый) Премьер Видео Фильм (отдельно)Роли озвучивали: Вадим Андреев и Людмила ИльинаПеревод 4: Авторский (одноголосый, закадровый) Василий Горчаков (отдельно)Cубтитры: нет

Режиссер: Майкл Ритчи / Michael Ritchie

В ролях: Эдди Мёрфи, Дж. Л. Рит, Чарльз Дэнс, Шарлотта Льюис, Виктор Вонг, Рэндал «Текс» Кобб, Джеймс Хонг, Шакти, Тау Лого, Тайгер Чун Ли

Описание: Через каждую тысячу поколений на свет появляется идеальный ребенок, дитя, наделенное магической силой, чье предназначение — нести добро миру. Силы зла похитили ребенка… Теперь важнее всего на свете — найти его!Древний оракул Нечунг предсказал, что спасти Золотого ребенка сможет только избранный человек. Согласно предсказанию, это должен быть отважный человек с чистой душой. Под это определение подходит только один смертный — Чендлер из Лос-Анджелеса. Он должен выполнить свою миссию, отвоевать у сил зла Золотого ребенка и спасти мир…

Качество видео: HDRipФормат видео: AVIВидео кодек: XviDАудио кодек: AC3Видео: XviD, 688x384 (16:9), 23.976 fps, 1822 kbps avg (HDRip by Scarabey)Аудио №1: Русский (СТС) AC3, 48.0 khz, 2.0 ch, 192 kbps (IPTVRip by mixaiil77)Аудио №2: Русский (ТВ-Центр) AC3, 48.0 khz, 2.0 ch, 192 kbps (VHSRip by Home Video)Аудио №3: Русский (Премьер Видео Фильм) AC3, 48.0 khz, 2.0 ch, 192 kbps (VHSRip by Fikaloid)Аудио №4: Русский (Горчаков) AC3, 48.0 khz, 2.0 ch, 192 kbps (VHSRip by , взят с пиратки)

ОбщееПолное имя : E:АльбертDownloadsЗолотой РебёнокЗолотой Ребёнок.aviФормат : AVIФормат/Информация : Audio Video InterleaveРазмер файла : 1,45 ГбайтПродолжительность : 1 ч. 33 м.Общий поток : 2220 Кбит/секПрограмма кодирования : VirtualDubMod 1.5.10.2 (build 2540/release)Библиотека кодирования : VirtualDubMod build 2540/releaseВидеоИдентификатор : 0Формат : MPEG-4 VisualПрофиль формата : Advanced [email protected]Параметр BVOP формата : 1Параметр QPel формата : НетПараметр GMC формата : Без точки переходаПараметр матрицы формата : ВыборочнаяИдентификатор кодека : XVIDИдентификатор кодека/Подсказка : XviDПродолжительность : 1 ч. 33 м.Битрейт : 1822 Кбит/секШирина : 688 пикселейВысота : 384 пикселяСоотношение сторон : 16:9Частота кадров : 23,976 кадра/секЦветовое пространство : YUVСубдискретизация насыщенности : 4:2:0Битовая глубина : 8 битТип развёртки : ПрогрессивнаяМетод сжатия : С потерямиБит/(Пиксели*Кадры) : 0.288Размер потока : 1,19 Гбайт (82%)Библиотека кодирования : XviD 73Аудио #1Идентификатор : 1Формат : AC-3Формат/Информация : Audio Coding 3Расширение режима : CM (complete main)Параметр Endianness формата : BigИдентификатор кодека : 2000Продолжительность : 1 ч. 33 м.Вид битрейта : ПостоянныйБитрейт : 192 Кбит/секКаналы : 2 каналаРасположение каналов : Front: L RЧастота : 48,0 КГцБитовая глубина : 16 битМетод сжатия : С потерямиРазмер потока : 128 Мбайт (9%)Выравнивание : Разделение по промежуткамПродолжительность промежутка : 42 мс. (1,00 видеокадр)Время предзагрузки промежутка : 500 мс.Аудио #2Идентификатор : 2Формат : AC-3Формат/Информация : Audio Coding 3Расширение режима : CM (complete main)Параметр Endianness формата : BigИдентификатор кодека : 2000Продолжительность : 1 ч. 33 м.Вид битрейта : ПостоянныйБитрейт : 192 Кбит/секКаналы : 2 каналаРасположение каналов : Front: L RЧастота : 48,0 КГцБитовая глубина : 16 битМетод сжатия : С потерямиРазмер потока : 128 Мбайт (9%)Выравнивание : Разделение по промежуткамПродолжительность промежутка : 42 мс. (1,00 видеокадр)Время предзагрузки промежутка : 500 мс.

Скачать Золотой Ребёнок через торрент http://i6.imageban.ru/out/2013/12/25/1b7120eb0a202fcc04230919e5ffe010.jpg Скачать фильм Золотой Ребёнок через торрент бесплантно в хорошем качестве Описание: Через каждую тысячу поколений на свет появляется идеальный ребенок, дитя, наделенное магической силой, чье предназначение — нести ... 2014-01-20 11:27 10 10 4

Loading...

Loading...

Рекламный пират

Дорогой пользователь! Огромная просьба, поблагодарите релизера, оцените раздачу и оставьте свои комментарий, если Вы скачали Золотой Ребёнок через торрент бесплатно! Внесите свою лепту в развитие PiratBit!

Комментировать посты могут только пользователи прошедшие не сложную регистрацию

Золотой Ребёнок через торрент Скачать бесплатно Золотой Ребёнок Золотой Ребёнок скачать торрент Золотой Ребёнок смотреть онлайн Cкачать фильм Золотой Ребёнок бесплатно Золотой Ребёнок скачать торрент в хорошем качестве Золотой Ребёнок смотреть онлайн бесплатно в хорошем качестве

Вы не можете начинать темыВы не можете отвечать на сообщенияВы не можете редактировать свои сообщенияВы не можете удалять свои сообщенияВы не можете голосовать в опросахВы не можете прикреплять файлы к сообщениямВы можете скачивать файлы

piratbit.ru

Скачать фильм Золотой ребенок через торрент в хорошем качестве бесплатно HDTVRip-AVC] AVO

Размер: 2 GB | Добавлен: 4 года 10 мес. назад | Торрент скачан:134 раза
Реклама Дарим 3000 рублей за регистрацию, не упусти свой шанс получить шикарный бонус!!!

02-12-2012 15:20 Золотой ребенок Скачать торрент  

Золотой ребенок / The Golden Child«Eddie Murphy Is The Chosen One»

Год выпуска: 1986Страна: США / Eddie Murphy Productions, Industrial Light & Magic (ILM), Paramount PicturesЖанр: фэнтези, боевик, комедия, детектив, приключенияБюджет: $25 000 000Продолжительность: 01:29:37Перевод: Авторский одноголосый (Андрей Гаврилов, Алексей Михалев), Проф. многоголосый (ТВ Центр), двухголосый (НТВ+)Субтитры: Русские, Английские

В ролях: Эдди Мёрфи, Дж. Л. Рит, Чарльз Дэнс, Шарлотта Льюис, Виктор Вонг, Рэндал «Текс» Кобб, Джеймс Хонг, Шакти, Тау Лого, Тайгер Чун Ли

Описание: Через каждую тысячу поколений на свет появляется идеальный ребенок, дитя, наделенное магической силой, чье предназначение — нести добро миру. Силы зла похитили ребенка… Теперь важнее всего на свете — найти его!Древний оракул Нечунг предсказал, что спасти Золотого ребенка сможет только избранный человек. Согласно предсказанию, это должен быть отважный человек с чистой душой. Под это определение подходит только один смертный — Чендлер из Лос-Анджелеса. Он должен выполнить свою миссию, отвоевать у сил зла Золотого ребенка и спасти мир…

Инфо:* По первоначальному сценарию в главной роли предполагалось снимать Мела Гибсона, да и фильм должен был стать приключенческой драмой, но после подписания контракта с Эдди Мерфи, сценарий был переработан с добавлением в него комических сцен и диалогов.* Изначально стать режиссером фильма продюсеры предлагали Джону Карпентеру.* В основном фильм снимался в Лос-Анджелесе, а некоторые натурные съемки — в Непале.* Роль Золотого ребенка — тибетского мальчишки — исполняла девочка Дж. Л. Рейт.

Рейтинг PG-13 - Детям до 13 лет просмотр не желателен

ФайлФормат: MKVВидео кодек: x264Аудио кодек: AC3Качество: HDTVRip-AVCВидео: 912x512, 25,000 fps, ~1800 kbps (crf), 0.159 bit/pixelАудио #1: Русский, AC3, 6 chnls, 384 kbps | AVO, ГавриловАудио #2: Русский, AC3, 6 chnls, 448 kbps | AVO, МихалевАудио #3: Русский, AC3, 2 chnls, 192 kbps | MVO, ТВ ЦентрАудио #4: Русский, AC3, 2 chnls, 256 kbps | DVO, НТВ+

Скачать Золотой ребенок через торрент http://img23.binimage.org/6f/cc/9e/the_golden_child.jpg Скачать фильм Золотой ребенок через торрент бесплантно в хорошем качестве Описание: Через каждую тысячу поколений на свет появляется идеальный ребенок, дитя, наделенное магической силой, чье предназначение — нести ... 2012-12-02 15:20 10 10 5

Loading...

Loading...

Рекламный пират

02-12-2012 17:58 Золотой ребенок Скачать торрент  

Спасибки,уматный фильм,вспомним молодость.

Дорогой пользователь! Огромная просьба, поблагодарите релизера, оцените раздачу и оставьте свои комментарий, если Вы скачали Золотой ребенок через торрент бесплатно! Внесите свою лепту в развитие PiratBit!

Комментировать посты могут только пользователи прошедшие не сложную регистрацию

Золотой ребенок через торрент Скачать бесплатно Золотой ребенок Золотой ребенок скачать торрент Золотой ребенок смотреть онлайн Cкачать фильм Золотой ребенок бесплатно Золотой ребенок скачать торрент в хорошем качестве Золотой ребенок смотреть онлайн бесплатно в хорошем качестве

Вы не можете начинать темыВы не можете отвечать на сообщенияВы не можете редактировать свои сообщенияВы не можете удалять свои сообщенияВы не можете голосовать в опросахВы не можете прикреплять файлы к сообщениямВы можете скачивать файлы

piratbit.ru

Скачать фильм Золотой ребенок через торрент в хорошем качестве бесплатно 1080p

GeneralUnique ID : 249121399167573622212198409547969182076 (0xBB6B094750ECDE15B7F14DF8BF4FB97C)Complete name : D:\Proba\The.Golden.Child.1986.1080p.WEB-DL.4хMVO+3хAVO.mkvFormat : MatroskaFormat version : Version 4 / Version 2File size : 5.06 GiBDuration : 1 h 33 minOverall bit rate mode : VariableOverall bit rate : 7 746 kb/sMovie name : The.Golden.Child.1986.1080p.WEB-DL.DD5.1.h364-FGTEncoded date : UTC 2017-04-03 14:59:13Writing application : mkvmerge v10.0.0 ('To Drown In You') 64bitWriting library : libebml v1.3.4 + libmatroska v1.4.5Attachments : poster 1.jpg

VideoID : 1Format : AVCFormat/Info : Advanced Video CodecFormat profile : [email protected] settings, CABAC : YesFormat settings, ReFrames : 2 framesCodec ID : V_MPEG4/ISO/AVCDuration : 1 h 33 minBit rate mode : VariableBit rate : 5 313 kb/sMaximum bit rate : 768 kb/sWidth : 1 912 pixelsHeight : 1 072 pixelsDisplay aspect ratio : 16:9Frame rate mode : ConstantFrame rate : 23.976 (23976/1000) FPSOriginal frame rate : 25.000 FPSColor space : YUVChroma subsampling : 4:2:0Bit depth : 8 bitsScan type : ProgressiveBits/(Pixel*Frame) : 0.108Stream size : 3.47 GiB (69%)Title : The.Golden.Child.1986.1080p.WEB-DL.DD5.1.h364-FGTLanguage : EnglishDefault : YesForced : No

Audio #1ID : 2Format : AC-3Format/Info : Audio Coding 3Mode extension : CM (complete main)Format settings, Endianness : BigCodec ID : A_AC3Duration : 1 h 33 minBit rate mode : ConstantBit rate : 384 kb/sChannel(s) : 6 channelsChannel positions : Front: L C R, Side: L R, LFESampling rate : 48.0 kHzFrame rate : 31.250 FPS (1536 spf)Compression mode : LossyStream size : 257 MiB (5%)Title : AC3 5.1 @ 384 kbps MVOLanguage : RussianDefault : YesForced : No

Audio #2ID : 3Format : AC-3Format/Info : Audio Coding 3Mode extension : CM (complete main)Format settings, Endianness : BigCodec ID : A_AC3Duration : 1 h 33 minBit rate mode : ConstantBit rate : 384 kb/sChannel(s) : 6 channelsChannel positions : Front: L C R, Side: L R, LFESampling rate : 48.0 kHzFrame rate : 31.250 FPS (1536 spf)Compression mode : LossyDelay relative to video : 2 s 700 msStream size : 257 MiB (5%)Title : Авторский А.ГавриловLanguage : RussianDefault : NoForced : No

Audio #3ID : 4Format : AC-3Format/Info : Audio Coding 3Mode extension : CM (complete main)Format settings, Endianness : BigCodec ID : A_AC3Duration : 1 h 33 minBit rate mode : ConstantBit rate : 448 kb/sChannel(s) : 6 channelsChannel positions : Front: L C R, Side: L R, LFESampling rate : 48.0 kHzFrame rate : 31.250 FPS (1536 spf)Compression mode : LossyDelay relative to video : 2 s 700 msStream size : 299 MiB (6%)Title : Авторский А.МихалёвLanguage : RussianDefault : NoForced : No

Audio #4ID : 5Format : AC-3Format/Info : Audio Coding 3Mode extension : CM (complete main)Format settings, Endianness : BigCodec ID : A_AC3Duration : 1 h 33 minBit rate mode : ConstantBit rate : 192 kb/sChannel(s) : 2 channelsChannel positions : Front: L RSampling rate : 48.0 kHzFrame rate : 31.250 FPS (1536 spf)Compression mode : LossyDelay relative to video : 2 s 600 msStream size : 128 MiB (2%)Title : Авторский В.ГорчаковLanguage : RussianDefault : NoForced : No

Audio #5ID : 6Format : AC-3Format/Info : Audio Coding 3Mode extension : CM (complete main)Format settings, Endianness : BigCodec ID : A_AC3Duration : 1 h 33 minBit rate mode : ConstantBit rate : 192 kb/sChannel(s) : 2 channelsChannel positions : Front: L RSampling rate : 48.0 kHzFrame rate : 31.250 FPS (1536 spf)Compression mode : LossyDelay relative to video : 2 s 600 msStream size : 128 MiB (2%)Title : Двухголосый (Премьер Видео Фильм)Language : RussianDefault : NoForced : No

Audio #6ID : 7Format : AC-3Format/Info : Audio Coding 3Mode extension : CM (complete main)Format settings, Endianness : BigCodec ID : A_AC3Duration : 1 h 33 minBit rate mode : ConstantBit rate : 192 kb/sChannel(s) : 2 channelsChannel positions : Front: L RSampling rate : 48.0 kHzFrame rate : 31.250 FPS (1536 spf)Compression mode : LossyDelay relative to video : 3 s 200 msStream size : 128 MiB (2%)Title : Многоголосый (ТВЦ)Language : RussianDefault : NoForced : No

Audio #7ID : 8Format : AC-3Format/Info : Audio Coding 3Mode extension : CM (complete main)Format settings, Endianness : BigCodec ID : A_AC3Duration : 1 h 33 minBit rate mode : ConstantBit rate : 256 kb/sChannel(s) : 2 channelsChannel positions : Front: L RSampling rate : 48.0 kHzFrame rate : 31.250 FPS (1536 spf)Compression mode : LossyDelay relative to video : 2 s 700 msStream size : 171 MiB (3%)Title : Двухголосый (НТВ+)Language : RussianDefault : NoForced : No

Audio #8ID : 9Format : AC-3Format/Info : Audio Coding 3Mode extension : CM (complete main)Format settings, Endianness : BigCodec ID : A_AC3Duration : 1 h 33 minBit rate mode : ConstantBit rate : 384 kb/sChannel(s) : 6 channelsChannel positions : Front: L C R, Side: L R, LFESampling rate : 48.0 kHzFrame rate : 31.250 FPS (1536 spf)Compression mode : LossyStream size : 257 MiB (5%)Title : The.Golden.Child.1986.1080p.WEB-DL.DD5.1.h364-FGTLanguage : EnglishDefault : NoForced : No

Menu00:00:00.000 : en:Kidnapped00:05:54.000 : en:Lost Children00:10:46.000 : en:He's No Angel00:13:10.000 : en:Already on the Case00:17:11.000 : en:The Chosen One00:22:04.000 : en:You Will Eat00:25:12.000 : en:A Vision of the Child00:27:10.000 : en:The Yellow Dragons00:34:03.000 : en:Tommy Tong's00:37:17.000 : en:The Ajanti Dagger00:39:09.000 : en:An Attractive Offer00:44:50.000 : en:A Dagger of a Child00:47:47.000 : en:Tibet00:55:38.000 : en:Stay on the Path01:04:01.000 : en:So Little Understanding01:07:53.000 : en:Viva Nepal!01:11:05.000 : en:My Brother Numspa01:13:37.000 : en:A Pure Heart01:18:20.000 : en:Freeing the Child01:26:18.000 : en:Sundown01:29:36.000 : en:End Credits

piratbit.ru

Золотой ребенок скачать через торрент » Торрент Кино

------------------------------------------Фильм можно назвать типичным для работ Эдди Мёрфи: весёлый крикливый парень постоянно привлекает внимание окружающих, выполняет, стоящие перед ним задачи, и никогда не упускает личной выгоды. Однако эта наивность атмосферы только помогает воспринимать сюжетную линию.

С другой стороны, авторы подобрали довольно оригинальное место действия и неоднозначных персонажей второго плана. Столкновение западной и восточной культур получилось у них весьма «клюквенным», но в комедию такая стереотипность вписывается хорошо. Особенно радует то, что шутника-Мёрфи постоянно подкалывает тибетский монах (ещё больший шутник).

Главный герой не очень-то крутой парень (сам он, конечно, убеждён в обратном), поэтому он часто влипает во что-нибудь гадкое. К счастью у него есть надёжные друзья, которые готовы прийти к нему на помощь и непременно кинуть парочку саркастических взглядов.

Золотой ребенок - это сбалансированная смесь комедии, мистики и детектива, которая намертво приклеит к экрану большинство зрителей.------------------------------------------Поэтому кофе, черный------------------------------------------Прошу учесть, что это частное мнение, и вы можете с ним не соглашаться.

Американцы не были бы сами собой, если не попытались опошлить чужеродную им культуру. На этот раз под прицелом американской иронии оказывается буддийская религия с ее многовековыми традициями. Осознавая, что данное «произведение искусств» всего лишь комедия я так и не смог абстрагироваться от ощущения вторжения устава в чужой монастырь. И, разумеется, для меня данный факт стал решающим при просмотре фильма.

В связи с эти становится не удивительным тот факт, что большинство кинокритиков запада оценили данную картину весьма отрицательно. По-видимому, даже кинокритики подустали от спасения всего мира самими американцами. Когда даже простой агент по розыску детей между делом с ленцой и неохотой способен его спасти.

Тема уже к тому времени настолько изрядно поистрепалась, что ни юмор, ни что-то другое (уровень спецэффектов того времени был несопоставим с уровнем «Армагеддона», так же холодно встреченный кинокритиками) не способно спасти картину. А, если учесть бездарный подбор типажей актеров, главный буддийский злодей британец Чарльз Дэнс, ну а их единственная надежда чернокожий американец, единственное, что знающий о Тибете так это то, что там холодно, то так и напрашивается вопрос, а почему бы между делом не спасти и ислам.

Постановка боевых сцен выглядит карикатурно и вызывающая скорее недоумение, чем улыбку. Пафос таких сцен, как разговор Ки со своим отцом, ее смертельное прощание лишь добавляют масла в и без того негаснущий огонь неудовлетворенности от картины. Лучше бы Майкал Ричи/ Michael Ritchie продолжал свою историю о Флэтче.

И если бы не присутствие Мэрфи, то картину и вовсе не стоило бы смотреть. Он единственное, что достойно внимания в этой картине. Обаяние и шарм, юмор и непринужденность были и остаются визитной карточкой Эдди Мэрфи. Сцена Мэрфи с демоном - Чарльзом Дэнси, просто пик картины, к сожалению таких сцен очень мало.

- Мой дорогой, любимый брат Нумси... (Дэнси превращается в демона) Я вижу, ты сейчас занят, я зайду в другой раз.------------------------------------------------------------------------------------Сегодня пересматривая фильмы Эдди Мёрфи, больше всего удовольствия доставляют его работы 1980-х, и это, конечно же, комедии.

Чернокожий молодой человек по имени Чендлер - частный детектив. Он занимается поиском пропавших детей в Лос-Анжелесе. Однажды к нему обращаются с необычной просьбой. Он должен найти ребенка, от судьбы которого зависит весь мир. Замысел довольно интересен и легкая манера повествования позволяет расслабиться во время просмотра. Герою придется побывать в загадочных местах и попасть в переделки. И хотя фильм лишен почти всякой серьезности, нужно ведь делать сноску на имя актера, сыгравшего главную роль. Здесь много юмора и после просмотра остается довольно хорошее настроение. Вымысел в этой истории подкреплен неплохими, для своего времени, спецэффектами. Вообще, здесь много действия и интересных ситуаций. Это еще одна история о борьбе добра со злом, только в интересной манере.

Веселый фильм, который придется по вкусу поклонникам великого комика Эдди Мёрфи и тем, кто просто хочется расслабиться.

torrent-kino.org


Смотрите также