Скачать фильм черная роза через торрент бесплатно в хорошем качестве


Скачать фильм Черная роза через торрент в хорошем качестве бесплатно WEB-DLRip

Размер: 1.37 GB | Добавлен: 3 года 3 мес. назад | Торрент скачан:376 раз
Реклама Дарим 3000 рублей за регистрацию, не упусти свой шанс получить шикарный бонус!!!

29-05-2014 08:18 Черная роза Скачать торрент  

Черная роза «Он - русский неудержимый» ✦ Год выпуска: 2013✦ Страна:США, Россия✦ Жанр:детектив, триллер, криминал✦ Продолжительность:01:22:50✦ Перевод: Дублированное + Оригинал (русский) [iTunes] ✦ Субтитры: Нет✦ Режиссер: Александр Невский
  • В ролях: Александр Невский (Влад Казатов), Кристанна Локен, Эдриан Пол, Роберт Дави, Роберт Мадрид (Antonio Banuelos), Маттиас Хьюз, Оксана Сидоренко, Эммануил Виторган (Громов), Ольга Родионова (Наталья), Дмитрий Бикбаев (официант)
  • Описание:Майор московской полиции, отправляется в Лос-Анджелес для помощи местным стражам порядка в расследовании серии убийств русских эмигрантов. Вместе с американской напарницей российский полицейский начинает погоню за новым Джеком Потрошителем.
      ✦ Качество: WEB-DLRip✦ Формат: AVI✦ Видео кодек: XviD✦ Аудио кодек:AC3✦ Видео: XviD, 720x400 (16:9), 1968 kbps, 24 fps, 0,285 bpp✦ Аудио: AC3 / 5.1 / 48 kHz / 384 kbps / 16 bit

    Код:

    GeneralComplete name                            : D:\Торенты\Chernaya.Roza.2014.D.WEB-DLRip.1400MB.aviFormat                                   : AVIFormat/Info                              : Audio Video InterleaveFile size                                : 1.37 GiBDuration                                 : 1h 22mnOverall bit rate                         : 2 362 KbpsWriting application                      : VirtualDubMod 1.5.10.2 (build 2540/release)Writing library                          : VirtualDubMod build 2540/release

    VideoID                                       : 0Format                                   : MPEG-4 VisualFormat profile                           : Advanced [email protected] settings, BVOP                    : 2Format settings, QPel                    : NoFormat settings, GMC                     : No warppointsFormat settings, Matrix                  : CustomCodec ID                                 : XVIDCodec ID/Hint                            : XviDDuration                                 : 1h 22mnBit rate                                 : 1 969 KbpsWidth                                    : 720 pixelsHeight                                   : 400 pixelsDisplay aspect ratio                     : 16:9Frame rate                               : 24.000 fpsColor space                              : YUVChroma subsampling                       : 4:2:0Bit depth                                : 8 bitsScan type                                : ProgressiveCompression mode                         : LossyBits/(Pixel*Frame)                       : 0.285Stream size                              : 1.14 GiB (83%)Writing library                          : XviD 1.2.1 (UTC 2008-12-04)

    AudioID                                       : 1Format                                   : AC-3Format/Info                              : Audio Coding 3Mode extension                           : CM (complete main)Codec ID                                 : 2000Duration                                 : 1h 22mnBit rate mode                            : ConstantBit rate                                 : 384 KbpsChannel(s)                               : 6 channelsChannel positions                        : Front: L C R, Side: L R, LFESampling rate                            : 48.0 KHzBit depth                                : 16 bitsCompression mode                         : LossyStream size                              : 228 MiB (16%)Alignment                                : Split accross interleavesInterleave, duration                     : 42 ms (1.00 video frame)Interleave, preload duration             : 500 ms

    Скриншоты: Каталог Новинок (Фильмы-трейлеры, Игры, Сериалы, Мультфильмы) © Оформление by Raven
  • Скачать Черная роза через торрент http://pic.pb.wtf/images/6/stazu.jpg Скачать фильм Черная роза через торрент бесплантно в хорошем качестве Описание:Майор московской полиции, отправляется в Лос-Анджелес для помощи местным стражам порядка в расследовании серии убийств русских ... 2014-07-25 07:48 7.8 10 48

    Loading...

    Loading...

    Рекламный пират

    29-05-2014 19:23 Черная роза Скачать торрент  

    "Шедевр"...

    30-05-2014 13:05 Черная роза Скачать торрент  

    "Возвращение Мухтара" по сравнению с этим, просто шедевр.

    09-06-2014 06:41 Черная роза Скачать торрент  

    Будем ждать обзор от BadComedian'а на этот шедевр. К Невскому у него особая любовь. Вот так вот.

    09-06-2014 15:47 Черная роза Скачать торрент  

    хороший фильм,вот сняли бы еще на пленке,а не в цифровом было бы здорово

    11-06-2014 10:54 Черная роза Скачать торрент  

    Да вы что, фильм охеренный,очередной ШЕДЕВР НЕВСКОГО, в кинопоиске столько хороших рецензий, жаль только сам не посмотрел.

    15-06-2014 14:45 Черная роза Скачать торрент  

    нее это смотреть не буду дрянь

    21-06-2014 10:23 Черная роза Скачать торрент  

    Ахахахаха бляяя...)))) Все что я могу прокомментировать по поводу фильма

    (посмотрите лучше обзор бедкомендианта на этот фильм - хоть поржете)

    28-06-2014 05:25 Черная роза Скачать торрент  

    Фильм не смотрел. Посмотрел обзор Бэдкомедиана на 46 минут! Вот там реально можно смотреть! Потратьте время лучше на него!

    Pекламный агент PB

    28-06-2014 05:52 Черная роза Скачать торрент  

    ЖЕНЯ РУЛИТ АХАХ!!!

    25-07-2014 08:09 Черная роза Скачать торрент  

    25-07-2014 10:49 Черная роза Скачать торрент  

    константиниванов

    25-07-2014 18:04 Черная роза Скачать торрент  

    25-07-2014 23:09 Черная роза Скачать торрент  

    Фильм такое УГ...Этому невскому только в туалете "занято" кричать,а не в кино сниматься.Досмотрел только чтоб узнать кто убийца.
    KШмель писал(а):

    За раскрытие сюжета, без спойлера, будет даваться пред.

    27-07-2014 15:43 Черная роза Скачать торрент  

    plaha_m писал(а):

    Фильм такое УГ...Этому невскому только в туалете "занято" кричать,а не в кино сниматься.Досмотрел только чтоб узнать кто убийца.Убийца - полицейский.

    Ну зачем написал кто убийца..теперь не интересно смотреть(((

    Дорогой пользователь! Огромная просьба, поблагодарите релизера, оцените раздачу и оставьте свои комментарий, если Вы скачали Черная роза через торрент бесплатно! Внесите свою лепту в развитие PiratBit!

    Комментировать посты могут только пользователи прошедшие не сложную регистрацию

    Черная роза через торрент Скачать бесплатно Черная роза Черная роза скачать торрент Черная роза смотреть онлайн Cкачать фильм Черная роза бесплатно Черная роза скачать торрент в хорошем качестве Черная роза смотреть онлайн бесплатно в хорошем качестве

    Вы не можете начинать темыВы не можете отвечать на сообщенияВы не можете редактировать свои сообщенияВы не можете удалять свои сообщенияВы не можете голосовать в опросахВы не можете прикреплять файлы к сообщениямВы можете скачивать файлы

    piratbit.ru

    Скачать сериал Чёрный цветок через торрент бесплатно

    37 (торренты отсутствуют) 10.06.2016 Скачать 36 (торренты отсутствуют) 03.06.2016 Скачать 35 (торренты отсутствуют) 27.05.2016 Скачать 34 (торренты отсутствуют) 20.05.2016 Скачать 33 (торренты отсутствуют) 13.05.2016 Скачать 32 (торренты отсутствуют) 06.05.2016 Скачать 31 (торренты отсутствуют) 29.04.2016 Скачать 30 (торренты отсутствуют) 22.04.2016 Скачать 29 (торренты отсутствуют) 15.04.2016 Скачать 28 (торренты отсутствуют) 08.04.2016 Скачать 27 (торренты отсутствуют) 01.04.2016 Скачать 26 (торренты отсутствуют) 25.03.2016 Скачать 25 (торренты отсутствуют) 18.03.2016 Скачать 24 (торренты отсутствуют) 11.03.2016 Скачать 23 (торренты отсутствуют) 04.03.2016 Скачать 22 (торренты отсутствуют) 26.02.2016 Скачать 21 (торренты отсутствуют) 19.02.2016 Скачать 20 (торренты отсутствуют) 12.02.2016 Скачать 19 (торренты отсутствуют) 05.02.2016 Скачать 18 (торренты отсутствуют) 29.01.2016 Скачать 17 (торренты отсутствуют) 22.01.2016 Скачать 16 (торренты отсутствуют) 15.01.2016 Скачать 15 (торренты отсутствуют) 08.01.2016 Скачать 14 (торренты отсутствуют) 01.01.2016 Скачать 13 (торренты отсутствуют) 25.12.2015 Скачать 12 (торренты отсутствуют) 18.12.2015 Скачать 11 (торренты отсутствуют) 11.12.2015 Скачать 10 (торренты отсутствуют) 04.12.2015 Скачать 9 (торренты отсутствуют) 27.11.2015 Скачать 8 (торренты отсутствуют) 20.11.2015 Скачать 7 (торренты отсутствуют) 13.11.2015 Скачать 6 (торренты отсутствуют) 06.11.2015 Скачать 5 (торренты отсутствуют) 30.10.2015 Скачать 4 (торренты отсутствуют) 23.10.2015 Скачать 3 (торренты отсутствуют) 16.10.2015 Скачать 2 (торренты отсутствуют) 09.10.2015 Скачать 1 (торренты отсутствуют) 02.10.2015 Скачать

    www.torrentino.me

    Скачать фильм Черная роза через торрент в хорошем качестве бесплатно 2014 г.

    Размер: 1.37 GB | Добавлен: 3 года 5 мес. назад | Торрент скачан:335 раз
    Реклама Дарим 3000 рублей за регистрацию, не упусти свой шанс получить шикарный бонус!!!

    10-05-2014 09:43 Черная роза Скачать торрент  

    Черная роза / Black Rose

    Год выпуска: 2014Страна: США, РоссияЖанр: детектив, триллер, криминалПродолжительность: 01:22:59Перевод: Дубляж

    Режиссер: Александр НевскийПродюссер: Александр Невский, Брайан Горес, Александр ИзотовСценарий: Брент Хафф, Джордж Саундерс

    http://www.kinopoisk.ru/film/771753/

    В ролях: Александр Невский, Кристанна Локен, Эдриан Пол, Роберт Дави, Роберт Мадрид, Маттиас Хьюз, Оксана Сидоренко, Эммануил Виторган, Ольга Родионова, Дмитрий Бикбаев

    Описание: Майор московской полиции, отправляется в Лос-Анджелес для помощи местным стражам порядка в расследовании серии убийств русских эмигрантов. Вместе с американской напарницей российский полицейский начинает погоню за новым Джеком Потрошителем.

    Качество: TeleSynchФормат: AVIВидео кодек: XviDАудио кодек: AC3Видео: 720x384 (1.88:1), 29.970 fps, XviD build 73 ~2092 kbps avg, 0.25 bit/pixelАудио#1: 48 kHz, AC3 Dolby Digital, 2/0 (L,R) ch, ~256 kbps

    Скачать Черная роза через торрент http://pic.pb.wtf/new/img/2014-05/10/wk7a4fwhf97wf59pkvz7ly42x.png Скачать фильм Черная роза через торрент бесплантно в хорошем качестве Описание: Майор московской полиции, отправляется в Лос-Анджелес для помощи местным стражам порядка в расследовании серии убийств русских ... 2014-05-10 09:43 8.7 10 16

    Loading...

    Loading...

    Рекламный пират

    10-05-2014 10:15 Черная роза Скачать торрент  

    10-05-2014 10:29 Черная роза Скачать торрент  

    10-05-2014 11:26 Черная роза Скачать торрент  

    НЕЕЕЕЕЕЕЕЕЕЕЕЕЕЕЕЕЕвский ухаха

    10-05-2014 11:33 Черная роза Скачать торрент  

    Я посмотрел этот фильм за 11 минут! Кто быстрее?

    10-05-2014 11:46 Черная роза Скачать торрент  

    10-05-2014 12:56 Черная роза Скачать торрент  

    Мне показалось, что на постере у него глазницы пустые, а не очки....

    10-05-2014 17:32 Черная роза Скачать торрент  

    бред какой то,невский с понтом актер такой крутой что даже на обложке есть :jest3:

    константиниванов

    12-05-2014 18:12 Черная роза Скачать торрент  

    ох уж этот невский . хоть бы фамилию сменил что-ли . врачи его давно осматривали?

    Pекламный агент PB

    Дорогой пользователь! Огромная просьба, поблагодарите релизера, оцените раздачу и оставьте свои комментарий, если Вы скачали Черная роза через торрент бесплатно! Внесите свою лепту в развитие PiratBit!

    Комментировать посты могут только пользователи прошедшие не сложную регистрацию

    Черная роза через торрент Скачать бесплатно Черная роза Черная роза скачать торрент Черная роза смотреть онлайн Cкачать фильм Черная роза бесплатно Черная роза скачать торрент в хорошем качестве Черная роза смотреть онлайн бесплатно в хорошем качестве

    Вы можете начинать темыВы можете отвечать на сообщенияВы не можете редактировать свои сообщенияВы не можете удалять свои сообщенияВы не можете голосовать в опросахВы не можете прикреплять файлы к сообщениямВы можете скачивать файлы

    piratbit.ru

    Скачать фильм Черная роза через торрент в хорошем качестве бесплатно WEB-DLRip

    Размер: 1.37 GB | Добавлен: 3 года 5 мес. назад | Торрент скачан:623 раза
    Реклама Дарим 3000 рублей за регистрацию, не упусти свой шанс получить шикарный бонус!!!

    24-05-2014 04:15 Черная роза Скачать торрент  

    Черная роза / Black Rose«Он - русский неудержимый»Год выпуска: 2014Страна: США, РоссияЖанр: детектив, триллер, криминалПродолжительность: 01:22:55Перевод: Профессиональный (полное дублирование)Субтитры: НетРежиссер: Александр НевскийСценарий: Брент Хафф, Джордж СаундерсПродюсер: Александр Невский, Брайан Горес, Александр Изотов, Шелдон Леттич, Роберт МадридОператор: Руди ХарбонКомпозитор: Шон МюррэйВ ролях:Александр Невский (Влад Казатов), Кристанна Локен, Эдриан Пол, Роберт Дави, Роберт Мадрид (Antonio Banuelos), Маттиас Хьюз, Оксана Сидоренко, Эммануил Виторган (Громов), Ольга Родионова (Наталья), Дмитрий БикбаевРоли дублировали:Владимир Еремин (Роберт Дави), Никита Прозоровский (Antonio Banuelos), Ольга Зубкова (Наталья), Прохор Чеховской (официант)Бюджет: $7 000 000Сборы в России: $855 450Описание:Майор московской полиции, отправляется в Лос-Анджелес для помощи местным стражам порядка в расследовании серии убийств русских эмигрантов. Вместе с американской напарницей российский полицейский начинает погоню за новым Джеком Потрошителем.Рейтингkinopoisk.ru: 2.254 (639)imdb.com: 3.00 (31)Качество: WEB-DLRipФормат: AVIВидео кодек: XviDАудио кодек: AC3Видео: 1970 Кбит/сек, 720*384 (1,85:1), в 24,000 кадра/сек, MPEG-4 Visual (XviD)Аудио: 384 Кбит/сек, 48,0 КГц, 16 бит, 2 канала, AC-3 ОбщееПолное имя : H:\ТОРРЕНТЫ\Черная роза.aviФормат : AVIФормат/Информация : Audio Video InterleaveРазмер файла : 1,37 ГбайтПродолжительность : 1 ч. 22 м.Общий поток : 2364 Кбит/секПрограмма кодирования : VirtualDubMod 1.5.10.3 | www.virtualdub-fr.org || (build 2550/release)Библиотека кодирования : VirtualDubMod build 2550/release

    ВидеоИдентификатор : 0Формат : MPEG-4 VisualПрофиль формата : Advanced [email protected]Параметр BVOP формата : 2Параметр QPel формата : НетПараметр GMC формата : Без точки переходаПараметр матрицы формата : ВыборочнаяИдентификатор кодека : XVIDИдентификатор кодека/Подсказка : XviDПродолжительность : 1 ч. 22 м.Битрейт : 1970 Кбит/секШирина : 720 пикселейВысота : 384 пикселяСоотношение сторон : 1,85:1Частота кадров : 24,000 кадра/секЦветовое пространство : YUVСубдискретизация насыщенности : 4:2:0Битовая глубина : 8 битТип развёртки : ПрогрессивнаяМетод сжатия : С потерямиБит/(Пиксели*Кадры) : 0.297Размер потока : 1,14 Гбайт (83%)Библиотека кодирования : XviD 1.2.1 (UTC 2008-12-04)

    АудиоИдентификатор : 1Формат : AC-3Формат/Информация : Audio Coding 3Расширение режима : CM (complete main)Параметр Endianness формата : BigИдентификатор кодека : 2000Продолжительность : 1 ч. 22 м.Вид битрейта : ПостоянныйБитрейт : 384 Кбит/секКаналы : 2 каналаРасположение каналов : Front: L RЧастота : 48,0 КГцБитовая глубина : 16 битМетод сжатия : С потерямиРазмер потока : 228 Мбайт (16%)Выравнивание : Разделение по промежуткамПродолжительность промежутка : 42 мс. (1,00 видеокадр)Время предзагрузки промежутка : 500 мс.

    Скачать Черная роза через торрент http://pic.pb.wtf/images/6/oci2l.jpg Скачать фильм Черная роза через торрент бесплантно в хорошем качестве Описание:Майор московской полиции, отправляется в Лос-Анджелес для помощи местным стражам порядка в расследовании серии убийств русских ... 2014-05-24 04:15 9.2 10 19

    Loading...

    Loading...

    Рекламный пират

    24-05-2014 04:38 Черная роза Скачать торрент  

    Да уж, рейтинг у фильма офигенный, а судя по семплу он еще и завышенный вдвдое

    24-05-2014 04:53 Черная роза Скачать торрент  

    akimov71 писал(а):

    Да уж, рейтинг у фильма офигенный, а судя по семплу он еще и завышенный вдвдое зато наши люди в голливуде, и Кровавый Дождик в ролях.вот так вот

    24-05-2014 06:30 Черная роза Скачать торрент  

    Посмотрел ровно до того момента, как красавчик-супергерой освободил заложников в банке (почти начало фильма) и удалил. Настолько пафосно, ужасно все снято, что и смотреть дальше не было смысла. Что могу еще сказать, Российское кино оно такое

    24-05-2014 07:13 Черная роза Скачать торрент  

    Саша Невский(он же Курицын) известный в России как мистер :pleasantry: ВСЕЛЕННАЯ :pleasantry: ни как не угомонится, а продолжает пиариться и снимать ШЛАК! Автору спасибо за труды.

    24-05-2014 11:10 Черная роза Скачать торрент  

    24-05-2014 20:59 Черная роза Скачать торрент  

    А чё он сразу не назвал фильм "Красная жара"?! )) Как же ему хочеццо стать Шварцем...

    25-05-2014 07:12 Черная роза Скачать торрент  

    Невский как актер-говно!Выскочка.

    25-05-2014 18:20 Черная роза Скачать торрент  

    москаль есть москаль))

    Pекламный агент PB

    26-05-2014 00:41 Черная роза Скачать торрент  

    отстой полный!примитив а-ля "боевик 90-х"

    27-05-2014 08:00 Черная роза Скачать торрент  

    Дорогой пользователь! Огромная просьба, поблагодарите релизера, оцените раздачу и оставьте свои комментарий, если Вы скачали Черная роза через торрент бесплатно! Внесите свою лепту в развитие PiratBit!

    Комментировать посты могут только пользователи прошедшие не сложную регистрацию

    Черная роза через торрент Скачать бесплатно Черная роза Черная роза скачать торрент Черная роза смотреть онлайн Cкачать фильм Черная роза бесплатно Черная роза скачать торрент в хорошем качестве Черная роза смотреть онлайн бесплатно в хорошем качестве

    Вы можете начинать темыВы можете отвечать на сообщенияВы не можете редактировать свои сообщенияВы не можете удалять свои сообщенияВы не можете голосовать в опросахВы не можете прикреплять файлы к сообщениямВы можете скачивать файлы

    piratbit.ru


    Смотрите также