Скачать фильм день патриота в хорошем качестве через торрент


Скачать фильм День патриота через торрент в хорошем качестве бесплатно WEB-DLRip

Раздают: 3 [ 0 KB/s ]
Размер: 2.05 GB | Добавлен: 7 мес. назад | Торрент скачан:558 раз
Реклама Дарим 3000 рублей за регистрацию, не упусти свой шанс получить шикарный бонус!!!

День патриота / Patriots Day

Год выпуска: 2016Страна: СШАЖанр: триллер, драма, историяПродолжительность: 02:14:20Перевод: Любительский (многоголосый) - [@[email protected]]Субтитры: отсутствуют

Режиссер: Питер Берг

В ролях:

Мелисса Бенойст, Мишель Монахэн, Марк Уолберг, Дж.К. Симмонс, Кевин Бейкон, Джон Гудман, Рэйчел Броснахэн, Майкл Бич, Алекс Вулф, Лана Кондор

Описание:

Взгляд на бостонскую трагедию 2013 года глазами комиссара полиции Эда Дэвиса. Два взрыва на марафонском забеге оглушили мировую общественность, но не Эда и его коллег, которые разворачивают розыск террористов по горячим следам.

Качество: WEB-DLRipФормат: AVIВидео кодек: XviDАудио кодек: AC3

Видео: 720x304 (2.37:1), 23.976 fps, XviD build 50 ~1797 kbps, 0.34 bit/pixelАудио#1: 48 kHz, AC3 Dolby Digital, 2/0 (L,R) ch, ~384 kbps

Скачать День патриота через торрент http://pic1.pb.wtf/images/11/h2gtk.jpg Скачать фильм День патриота через торрент бесплантно в хорошем качестве Описание:Взгляд на бостонскую трагедию 2013 года глазами комиссара полиции Эда Дэвиса. Два взрыва на марафонском забеге оглушили мировую ... 2017-03-14 21:14 8.8 10 18

Loading...

Loading...

Рекламный пират

отличное кино

сильный фильм.

Дорогой пользователь! Огромная просьба, поблагодарите релизера, оцените раздачу и оставьте свои комментарий, если Вы скачали День патриота через торрент бесплатно! Внесите свою лепту в развитие PiratBit!

Комментировать посты могут только пользователи прошедшие не сложную регистрацию

День патриота через торрент Скачать бесплатно День патриота День патриота скачать торрент День патриота смотреть онлайн Cкачать фильм День патриота бесплатно День патриота скачать торрент в хорошем качестве День патриота смотреть онлайн бесплатно в хорошем качестве

Вы можете начинать темыВы можете отвечать на сообщенияВы не можете редактировать свои сообщенияВы не можете удалять свои сообщенияВы не можете голосовать в опросахВы не можете прикреплять файлы к сообщениямВы можете скачивать файлы

piratbit.ru

Скачать фильм День патриота через торрент в хорошем качестве бесплатно 1080p

ОбщееУникальный идентификатор : 229487583276036499237186313819921506064 (0xACA5B36AE1C1D22AB85F25540A9EDF10)Полное имя : E:\Torrent\film\Patriots.Day.2016.MVO.BDRip.1O8Op.mkvФормат : MatroskaВерсия формата : Version 2Размер файла : 13,9 ГбайтПродолжительность : 2 ч. 13 м.Общий поток : 15,0 Мбит/секДата кодирования : UTC 2017-06-04 16:12:54Программа кодирования : mkvmerge v7.8.0 ('River Man') 32bit built on Apr 3 2015 12:11:22Библиотека кодирования : libebml v1.3.1 + libmatroska v1.4.2

ВидеоИдентификатор : 1Формат : AVCФормат/Информация : Advanced Video CodecПрофиль формата : [email protected]Параметр CABAC формата : ДаПараметр ReFrames формата : 4 кадраИдентификатор кодека : V_MPEG4/ISO/AVCПродолжительность : 2 ч. 13 м.Битрейт : 12,5 Мбит/секШирина : 1920 пикселейВысота : 800 пикселейСоотношение сторон : 2,40:1Режим частоты кадров : ПостоянныйЧастота кадров : 23,976 (24000/1001) кадра/секЦветовое пространство : YUVСубдискретизация насыщенности : 4:2:0Битовая глубина : 8 битТип развёртки : ПрогрессивнаяБит/(Пиксели*Кадры) : 0.340Размер потока : 11,7 Гбайт (84%)Библиотека кодирования : x264 core 149 r2771+45 509cceb 7mod [[email protected] X86_64]Настройки программы : cabac=1 / ref=4 / deblock=1:-3:-3 / analyse=0x3:0x113 / me=umh / subme=10 / psy=1 / fade_compensate=0.00 / psy_rd=1.00:0.05 / mixed_ref=1 / me_range=48 / chroma_me=1 / trellis=2 / 8x8dct=1 / cqm=0 / deadzone=21,11 / fast_pskip=0 / chroma_qp_offset=-2 / threads=12 / lookahead_threads=2 / sliced_threads=0 / nr=0 / decimate=1 / interlaced=0 / bluray_compat=0 / constrained_intra=0 / fgo=0 / bframes=8 / b_pyramid=2 / b_adapt=2 / b_bias=0 / direct=3 / weightb=1 / open_gop=0 / weightp=2 / keyint=250 / keyint_min=23 / scenecut=40 / intra_refresh=0 / rc_lookahead=40 / rc=crf / mbtree=0 / crf=19.5000 / qcomp=0.60 / qpmin=0:0:0 / qpmax=69:69:69 / qpstep=4 / vbv_maxrate=35000 / vbv_bufsize=35000 / crf_max=0.0 / nal_hrd=none / filler=0 / ip_ratio=1.40 / pb_ratio=1.30 / aq=3:1.00 / aq-sensitivity=10.00 / aq-factor=1.00:1.00:1.00 / aq2=0 / aq3=0Язык : EnglishDefault : ДаForced : НетЦветовой диапазон : LimitedКоэффициенты матрицы : BT.709

Аудио #1Идентификатор : 2Формат : AC-3Формат/Информация : Audio Coding 3Параметр Endianness формата : BigИдентификатор кодека : A_AC3Продолжительность : 2 ч. 13 м.Вид битрейта : ПостоянныйБитрейт : 640 Кбит/секКаналы : 6 каналовРасположение каналов : Front: L C R, Side: L R, LFEЧастота : 48,0 КГцЧастота кадров : 31,250 кадров/сек (1536 spf)Битовая глубина : 16 битМетод сжатия : С потерямиРазмер потока : 610 Мбайт (4%)Заголовок : MVOЯзык : RussianServiceKind/String : Complete MainDefault : ДаForced : Нет

Аудио #2Идентификатор : 3Формат : DTSФормат/Информация : Digital Theater SystemsРежим : 16Параметр Endianness формата : BigИдентификатор кодека : A_DTSПродолжительность : 2 ч. 13 м.Вид битрейта : ПостоянныйБитрейт : 1509 Кбит/секКаналы : 6 каналовРасположение каналов : Front: L C R, Side: L R, LFEЧастота : 48,0 КГцЧастота кадров : 93,750 кадра/сек (512 spf)Битовая глубина : 24 битМетод сжатия : С потерямиРазмер потока : 1,40 Гбайт (10%)Язык : EnglishDefault : НетForced : Нет

ТекстИдентификатор : 4Формат : UTF-8Идентификатор кодека : S_TEXT/UTF8Идентификатор кодека/Информация : UTF-8 Plain TextЯзык : EnglishDefault : НетForced : Нет

Меню00:00:00.000 : en:00:00:00.00000:08:30.510 : en:00:08:30.51000:17:48.067 : en:00:17:48.06700:24:56.328 : en:00:24:56.32800:32:35.954 : en:00:32:35.95400:41:44.502 : en:00:41:44.50200:49:23.002 : en:00:49:23.00200:58:35.512 : en:00:58:35.51201:07:10.026 : en:01:07:10.02601:19:05.157 : en:01:19:05.15701:24:20.055 : en:01:24:20.05501:33:48.623 : en:01:33:48.62301:45:17.311 : en:01:45:17.31101:50:24.618 : en:01:50:24.61801:57:57.070 : en:01:57:57.07002:05:25.518 : en:02:05:25.518

piratbit.ru

Скачать фильм День патриота через торрент в хорошем качестве бесплатно WEB-DLRip

Раздают: 1 [ 0 KB/s ]
Размер: 1.37 GB | Добавлен: 7 мес. назад | Торрент скачан:167 раз
Реклама Дарим 3000 рублей за регистрацию, не упусти свой шанс получить шикарный бонус!!!

День патриота / Patriots Day

Год выпуска: 2016Страна: СШАЖанр: триллер, драма, историяПродолжительность: 02:14:20Перевод: Любительский (многоголосый) - [@[email protected]]Субтитры: отсутствуют

Режиссер: Питер Берг

В ролях:

Мелисса Бенойст, Мишель Монахэн, Марк Уолберг, Дж.К. Симмонс, Кевин Бейкон, Джон Гудман, Рэйчел Броснахэн, Майкл Бич, Алекс Вулф, Лана Кондор

Описание:

Взгляд на бостонскую трагедию 2013 года глазами комиссара полиции Эда Дэвиса. Два взрыва на марафонском забеге оглушили мировую общественность, но не Эда и его коллег, которые разворачивают розыск террористов по горячим следам.

Качество: WEB-DLRipФормат: AVIВидео кодек: XviDАудио кодек: AC3

Видео: 720x304 (2.37:1), 23.976 fps, XviD build 50 ~1254 kbps, 0.24 bit/pixelАудио#1: 48 kHz, AC3 Dolby Digital, 2/0 (L,R) ch, ~192 kbps

Скачать День патриота через торрент http://pic1.pb.wtf/images/11/h2gtk.jpg Скачать фильм День патриота через торрент бесплантно в хорошем качестве Описание: Взгляд на бостонскую трагедию 2013 года глазами комиссара полиции Эда Дэвиса. Два взрыва на марафонском забеге оглушили мировую ... 2017-03-14 20:57 8.4 10 11

Loading...

Loading...

Рекламный пират

Дорогой пользователь! Огромная просьба, поблагодарите релизера, оцените раздачу и оставьте свои комментарий, если Вы скачали День патриота через торрент бесплатно! Внесите свою лепту в развитие PiratBit!

Комментировать посты могут только пользователи прошедшие не сложную регистрацию

День патриота через торрент Скачать бесплатно День патриота День патриота скачать торрент День патриота смотреть онлайн Cкачать фильм День патриота бесплатно День патриота скачать торрент в хорошем качестве День патриота смотреть онлайн бесплатно в хорошем качестве

Вы можете начинать темыВы можете отвечать на сообщенияВы не можете редактировать свои сообщенияВы не можете удалять свои сообщенияВы не можете голосовать в опросахВы не можете прикреплять файлы к сообщениямВы можете скачивать файлы

piratbit.ru

Скачать фильм День патриота через торрент в хорошем качестве бесплатно HDRip

Раздают: 4 [ 0 KB/s ]
Размер: 1.37 GB | Добавлен: 6 мес. назад | Торрент скачан:249 раз
Реклама Дарим 3000 рублей за регистрацию, не упусти свой шанс получить шикарный бонус!!!

День патриота / Patriots Day

Год выпуска: 2016Страна: СШАЖанр: триллер, драма, историяПродолжительность: 02:14:08Перевод: Любительский (многоголосый) - [@[email protected]] Субтитры: отсутствуют

Режиссер: Питер Берг

В ролях:

Мелисса Бенойст, Мишель Монахэн, Марк Уолберг, Дж.К. Симмонс, Кевин Бейкон, Джон Гудман, Рэйчел Броснахэн, Майкл Бич, Алекс Вулф, Лана Кондор

Описание:

Взгляд на бостонскую трагедию 2013 года глазами комиссара полиции Эда Дэвиса. Два взрыва на марафонском забеге оглушили мировую общественность, но не Эда и его коллег, которые разворачивают розыск террористов по горячим следам.

Качество: HDRipФормат: AVIВидео кодек: XviDАудио кодек: AC3

Видео: 720x304 (2.37:1), 23.976 fps, XviD build 50 ~1257 kbps, 0.24 bit/pixelАудио#1: 48 kHz, AC3 Dolby Digital, 2/0 (L,R) ch, ~192 kbps

Скачать День патриота через торрент http://s019.radikal.ru/i605/1703/7b/2401249872a7.png Скачать фильм День патриота через торрент бесплантно в хорошем качестве Описание: Взгляд на бостонскую трагедию 2013 года глазами комиссара полиции Эда Дэвиса. Два взрыва на марафонском забеге оглушили мировую ... 2017-03-28 15:51 8.4 10 12

Loading...

Loading...

Рекламный пират

Дорогой пользователь! Огромная просьба, поблагодарите релизера, оцените раздачу и оставьте свои комментарий, если Вы скачали День патриота через торрент бесплатно! Внесите свою лепту в развитие PiratBit!

Комментировать посты могут только пользователи прошедшие не сложную регистрацию

День патриота через торрент Скачать бесплатно День патриота День патриота скачать торрент День патриота смотреть онлайн Cкачать фильм День патриота бесплатно День патриота скачать торрент в хорошем качестве День патриота смотреть онлайн бесплатно в хорошем качестве

Вы можете начинать темыВы можете отвечать на сообщенияВы не можете редактировать свои сообщенияВы не можете удалять свои сообщенияВы не можете голосовать в опросахВы не можете прикреплять файлы к сообщениямВы можете скачивать файлы

piratbit.ru


Смотрите также