Скачать фильм грязь через торрент в хорошем качестве бесплатно


Скачать фильм Грязь через торрент в хорошем качестве бесплатно DVDRip-AVC

Размер: 1.46 GB | Добавлен: 3 года 10 мес. назад | Торрент скачан:386 раз
Реклама Дарим 3000 рублей за регистрацию, не упусти свой шанс получить шикарный бонус!!!

05-12-2013 13:15 Грязь Скачать торрент  

Грязь / Filth

Год выпуска: 2013 Страна: ВеликобританияЖанр: Драма, Комедия, КриминалПродолжительность: 01:33:35Перевод: Дублированный [лицензия]

Режиссер: Джон С. Бейрд / Jon S. BairdПродюссер: Марк Эмин, Кристиан Ангермейер, Джон С. БейрдВ ролях: Джеймс МакЭвой, Джейми Белл, Джим Бродбент, Имоджен Путс, Йен де Кестекер, Джоанн Фроггатт, Иман Эллиотт, Ширли Хендерсон, Эдди Марсан, Мартин Компстон

Дата мировой премьеры: 16 сентября 2013Дата российской премьеры: 28 ноября 2013, «Cinema Prestige»

Описание: Главный герой — продажный шотландский полицейский Брюс Робертсон, помешанный на сексе и кокаине. Ему бы надо расследовать убийство, но ему сильно мешают собственные странности, привычка разыгрывать коллег и беготня за девушками. За Робертсоном присматривают его напарник Рэй Леннокс и начальник Боб Тоал.

  • Фильм снят по мотивам романа Ирвина Уэлша «Дерьмо» (Filth, 1998).
  • Комната, в которой проходит консультация Брюса с доктором, очень похожа на комнату из фильма «2001 год: Космическая одиссея» (1968).
  • В сцене, где больного Брюса тошнит, исполняющего его роль Джеймса МакЭвоя рвало по-настоящему.
  • Одна из певиц в машине Дэвида Соула во время исполнения песни «Silver Lady» — это его дочь, Хина Соул.
  • В ранних версиях сценария в машине должны были петь песню «I Wanna Know What Love Is» группы Foreigner. Но Ирвин Уэлш выбрал «Silver Lady».
Качество: DVDRip-AVCФормат: MKVВидео кодек: H.264Аудио кодек: AC3Видео: 1024x440, ~1842 kbps, 25 fps, 0.164 bit/pixelАудио#1: AC3 5.1, 384 kbps, 48 kHz [Русский]

Код:

Полное имя : D:Грязь-Filth.(2013).DVDRip.[H.264].mkvФормат : MatroskaВерсия формата : Version 2Размер файла : 1,46 ГбайтПродолжительность : 1 ч. 33 м.Общий поток : 2226 Кбит/секДата кодирования : UTC 2013-12-04 23:47:23Программа кодирования : mkvmerge v6.1.0 ('Old Devil') built on Mar 4 2013 09:10:42Библиотека кодирования : libebml v1.3.0 + libmatroska v1.4.0

ВидеоИдентификатор : 1Формат : AVCФормат/Информация : Advanced Video CodecПрофиль формата : [email protected]Параметр CABAC формата : ДаПараметр ReFrames формата : 10 кадровИдентификатор кодека : V_MPEG4/ISO/AVCБитрейт : 1842 Кбит/секШирина : 1024 пикселяВысота : 440 пикселейСоотношение сторон : 2,35:1Режим частоты кадров : ПеременныйЧастота кадров в оригинале : 25,000 кадров/секЦветовое пространство : YUVСубдискретизация насыщенности : 4:2:0Битовая глубина : 8 битТип развёртки : ПрогрессивнаяБит/(Пиксели*Кадры) : 0.164Библиотека кодирования : x264 core 130 r2273 b3065e6Настройки программы : cabac=1 / ref=10 / deblock=1:-3:-3 / analyse=0x3:0x133 / me=umh / subme=11 / psy=1 / psy_rd=1.00:0.20 / mixed_ref=1 / me_range=32 / chroma_me=1 / trellis=2 / 8x8dct=1 / cqm=0 / deadzone=21,11 / fast_pskip=0 / chroma_qp_offset=-3 / threads=12 / lookahead_threads=2 / sliced_threads=0 / nr=0 / decimate=0 / interlaced=0 / bluray_compat=0 / constrained_intra=0 / bframes=8 / b_pyramid=2 / b_adapt=2 / b_bias=0 / direct=3 / weightb=1 / open_gop=0 / weightp=2 / keyint=250 / keyint_min=25 / scenecut=40 / intra_refresh=0 / rc=2pass / mbtree=0 / bitrate=1842 / ratetol=1.0 / qcomp=0.60 / qpmin=0 / qpmax=69 / qpstep=4 / cplxblur=20.0 / qblur=0.5 / ip_ratio=1.40 / pb_ratio=1.30 / aq=1:1.00Default : ДаForced : Нет

АудиоИдентификатор : 2Формат : AC-3Формат/Информация : Audio Coding 3Расширение режима : CM (complete main)Параметр Endianness формата : BigИдентификатор кодека : A_AC3Продолжительность : 1 ч. 33 м.Вид битрейта : ПостоянныйБитрейт : 384 Кбит/секКаналы : 6 каналовРасположение каналов : Front: L C R, Side: L R, LFEЧастота : 48,0 КГцБитовая глубина : 16 битМетод сжатия : С потерямиРазмер потока : 257 Мбайт (17%)Default : ДаForced : Нет

Скачать Грязь через торрент http://pic.pb.wtf/images/6/pw6tv.jpg Скачать фильм Грязь через торрент бесплантно в хорошем качестве Описание: Главный герой — продажный шотландский полицейский Брюс Робертсон, помешанный на сексе и кокаине. Ему бы надо расследовать ... 2013-12-15 12:04 9.4 10 74

Loading...

Loading...

% Раздел Тема Автор DL S | L
Фильмы (Blu-ray, BD-Remux, HDDVD) [ 25.14 GB ] Грязь / Filth [2013 BD Remux 1080p] Messa-fan Скачать
Фильмы [HD 720p, 1080p] (Хороший звук DUB, MVO) [ 10.08 GB ] Грязь / Filth [2013 BDRip 1080p] DUB AVO msltel Скачать
Фильмы [HD 720p, 1080p] (Хороший звук DUB, MVO) [ 5.04 GB ] Грязь / Filth [2013 BDRip 720p] DUB AVO msltel Скачать
Фильмы 2013 [DVDrip, WEB-DLRip, HDrip] [ 1.58 GB ] Грязь / Filth [2013 DVDRip-AVC [VO] звук с TS + ] DJKOCMOC Скачать
Фильмы 2013 [DVDrip, WEB-DLRip, HDrip] [ 1.35 GB ] Грязь / Filth [2013 BDRip Ворон Скачать
Фильмы 2013 [DVDrip, WEB-DLRip, HDrip] [ 1.37 GB ] Грязь / Filth [2013 DVDRip] () VintMosina Скачать
Фильмы [HD 720p, 1080p] (Хороший звук DUB, MVO) [ 8.03 GB ] Грязь / Filth [2013 BDRip 1080p Ворон Скачать

Рекламный пират

05-12-2013 14:08 Грязь Скачать торрент  

У нас в Иванове(37 регионГород Невест) не показывают его. Тип сильно жесткий фильм как я понял).А в Шуе, где я живу собственно) сразу на Гоблине) как так?Когда ждать версию гоблина здесь)?

05-12-2013 18:13 Грязь Скачать торрент  

пилять охуенно)

06-12-2013 06:03 Грязь Скачать торрент  

очень понравилась киношка

06-12-2013 08:44 Грязь Скачать торрент  

sasha1966 очень понравилась киношка

Киношка конечно зачёт но всё же рекомендуется смотреть строго в гоблине :shoot2:

06-12-2013 09:59 Грязь Скачать торрент  

Ещё немного и будет золотой раздача ;D

06-12-2013 16:12 Грязь Скачать торрент  

Ходил в кинотеатр на него, сюжет книги изнасиловали в угоду толерастии. Фильм можно назвать по мотивам книги, но никак не экранизация.

Хотели снять жесткий и циничный фильм, но в итоге не докрутили чуть больше, чем полностью. Смотреть можно, но не ждите свежего порыва ветра говна, крови и грязи. Так, если легкий бриз.

06-12-2013 20:07 Грязь Скачать торрент  

психологическая бредятина, для ценителей..

06-12-2013 21:54 Грязь Скачать торрент  

когда гоооооооооооооооооооооооооблин?

Pекламный агент PB

07-12-2013 03:41 Грязь Скачать торрент  

классная киношка-толкни ближнего-насри на нижнего-принцып курятника-как и в жизни

07-12-2013 06:20 Грязь Скачать торрент  

Plintus23 писал(а):

Ещё немного и будет золотой раздача ;D

забирай

07-12-2013 07:30 Грязь Скачать торрент  

не понравился и думаю даже гоблин её не вытянет.кое как досмотрел - такой долгий фильм !по концовке надеюсь продолжения не будет.

07-12-2013 08:06 Грязь Скачать торрент  

На Макэвоя почти всегда интересно смотреть. надо бы скачать

07-12-2013 15:28 Грязь Скачать торрент  

моя мысля - фильм стоит посмотреть. Я, например, буду

08-12-2013 12:42 Грязь Скачать торрент  

где с гобленом скачать

08-12-2013 21:16 Грязь Скачать торрент  

"В прокате в правильном переводе Гоблина — с 28 ноября" - значит скоро и у нас будет

08-12-2013 21:22 Грязь Скачать торрент  

zaraqwert писал(а):

Ходил в кинотеатр на него, сюжет книги изнасиловали в угоду толерастии. Фильм можно назвать по мотивам книги, но никак не экранизация.

Хотели снять жесткий и циничный фильм, но в итоге не докрутили чуть больше, чем полностью. Смотреть можно, но не ждите свежего порыва ветра говна, крови и грязи. Так, если легкий бриз.

Сильно сомневаюсь что кто-то отважится на экранизацию "этой книги". А порывы из "ветра говна, крови и грязи" на нас с начала года обрушиваются, только они умело завуалированы.... это действительно самый ожидаемый фильм этого года

Pекламный агент PB

09-12-2013 15:53 Грязь Скачать торрент  

Дорогой пользователь! Огромная просьба, поблагодарите релизера, оцените раздачу и оставьте свои комментарий, если Вы скачали Грязь через торрент бесплатно! Внесите свою лепту в развитие PiratBit!

Комментировать посты могут только пользователи прошедшие не сложную регистрацию

Грязь через торрент Скачать бесплатно Грязь Грязь скачать торрент Грязь смотреть онлайн Cкачать фильм Грязь бесплатно Грязь скачать торрент в хорошем качестве Грязь смотреть онлайн бесплатно в хорошем качестве

Вы можете начинать темыВы можете отвечать на сообщенияВы не можете редактировать свои сообщенияВы не можете удалять свои сообщенияВы не можете голосовать в опросахВы не можете прикреплять файлы к сообщениямВы можете скачивать файлы

piratbit.ru

Скачать фильм Грязь через торрент в хорошем качестве бесплатно 1080p

Размер: 25.14 GB | Добавлен: 3 года 8 мес. назад | Торрент скачан:90 раз
Реклама Дарим 3000 рублей за регистрацию, не упусти свой шанс получить шикарный бонус!!!

26-01-2014 10:37 Грязь Скачать торрент  

Грязь / Filth«This Little Piggy went to town!»Год выпуска: 2013Страна: ВеликобританияЖанр: криминал, драма, комедияПродолжительность: 01:04:47Перевод: |Профессиональный (полное дублирование)|Субтитры: English (SDH)Режиссер: Джон С. Бейрд / Jon S. BairdВ ролях: Джеймс МакЭвой (Bruce Robertson), Джейми Белл (Ray Lennox), Эдди Марсан (Bladesey), Джим Бродбент (Dr. Rossi), Имоджен Путс (Amanda Drummond), Шона МакДональд (Carole Robertson), Ширли Хендерсон (Bunty), Джон Сессионс (Bob Toal), Гари Льюис (Gus Bain), Иман Эллиотт (Peter Inglis), Джоанн Фроггатт (Mary), Йен де Кестекер (Ocky)Описание: Главный герой - продажный шотландский полицейский Брюс Робертсон, помешанный на сексе и кокаине. Ему бы надо расследовать убийство, но ему сильно мешают собственные странности, привычка разыгрывать коллег и беготня за девушками. За Робертсоном присматривают его напарник Рэй Леннокс и начальник Боб Тоал.Рейтинг Качество: BD RemuxФормат: BDAVВидео кодек: AVCАудио кодек: AC3 / DTSВидео: AVC, 1920x1080p / 24 fps / 16:9 / ~ 28997 kbpsAудио#1: Russian: 48 kHz, AC3, 3/2 (L,C,R,l,r) + LFE ch, ~384.00 kbps avg |Дубляж, R5|Aудио#2: English: 48 kHz/24-bit, DTS-HD MA 5.1, ~3939.00 kbps avgAудио#3: English: 48 kHz/24-bit, DTS-HD MA 2.0, ~1663.00 kbps avg |Commentary with Writer/Director Jon S. Baird and Author Irvine Welsh|Оформление: Messa-fan DISC INFO:

Disc Title: FILTH_HDCLUBDisc Size: 44 565 162 628 bytesProtection: AACSBD-Java: NoExtras: 50Hz ContentBDInfo: 0.5.8

PLAYLIST REPORT:

Name: 00000.MPLSLength: 1:37:22.333 (h:m:s.ms)Size: 26 988 969 984 bytesTotal Bitrate: 36,96 Mbps

VIDEO:

Codec Bitrate Description ----- ------- ----------- MPEG-4 AVC Video 28997 kbps 1080p / 24 fps / 16:9 / High Profile 4.1

AUDIO:

Codec Language Bitrate Description ----- -------- ------- ----------- Dolby Digital Audio Russian 384 kbps 5.1 / 48 kHz / 384 kbps / DN -4dBDTS-HD Master Audio English 1663 kbps 2.0 / 48 kHz / 1663 kbps / 24-bit (DTS Core: 2.0 / 48 kHz / 768 kbps / 24-bit)DTS-HD Master Audio English 3939 kbps 5.1 / 48 kHz / 3939 kbps / 24-bit (DTS Core: 5.1 / 48 kHz / 768 kbps / 24-bit)

SUBTITLES:

Codec Language Bitrate Description ----- -------- ------- ----------- Presentation Graphics English 45,848 kbps

FILES:

Name Time In Length Size Total Bitrate ---- ------- ------ ---- ------------- 00000.M2TS 0:00:00.000 1:37:22.333 26 988 969 984 36 956

CHAPTERS:

Number Time In Length Avg Video Rate Max 1-Sec Rate Max 1-Sec Time Max 5-Sec Rate Max 5-Sec Time Max 10Sec Rate Max 10Sec Time Avg Frame Size Max Frame Size Max Frame Time ------ ------- ------ -------------- -------------- -------------- -------------- -------------- -------------- -------------- -------------- -------------- -------------- 1 0:00:00.000 0:08:15.500 27 449 kbps 48 670 kbps 00:01:41.333 36 846 kbps 00:01:40.416 33 517 kbps 00:01:50.583 142 953 bytes 471 901 bytes 00:01:50.625 2 0:08:15.500 0:07:41.291 30 281 kbps 35 616 kbps 00:14:58.875 33 300 kbps 00:09:22.125 32 424 kbps 00:12:59.208 157 715 bytes 362 680 bytes 00:08:43.083 3 0:15:56.791 0:08:41.875 30 172 kbps 35 834 kbps 00:18:30.208 33 102 kbps 00:20:17.875 32 465 kbps 00:20:12.875 157 143 bytes 361 548 bytes 00:16:00.500 4 0:24:38.666 0:07:57.458 30 081 kbps 35 707 kbps 00:28:14.833 32 690 kbps 00:29:21.458 32 131 kbps 00:24:41.291 156 670 bytes 391 940 bytes 00:27:28.458 5 0:32:36.125 0:08:19.791 30 453 kbps 36 099 kbps 00:40:12.500 33 147 kbps 00:39:21.041 32 164 kbps 00:40:44.000 158 610 bytes 391 868 bytes 00:39:44.666 6 0:40:55.916 0:07:04.541 30 815 kbps 36 977 kbps 00:43:48.583 34 459 kbps 00:47:14.000 34 156 kbps 00:47:12.708 160 493 bytes 397 219 bytes 00:43:48.625 7 0:48:00.458 0:08:08.541 30 561 kbps 37 157 kbps 00:49:01.458 34 342 kbps 00:48:19.583 34 209 kbps 00:48:34.291 159 174 bytes 408 965 bytes 00:49:01.500 8 0:56:09.000 0:07:34.833 30 438 kbps 36 396 kbps 00:59:38.208 34 009 kbps 00:59:36.333 33 066 kbps 00:59:36.375 158 531 bytes 426 659 bytes 01:01:02.000 9 1:03:43.833 0:10:23.875 30 699 kbps 35 745 kbps 01:04:36.666 34 433 kbps 01:09:02.333 33 551 kbps 01:09:02.958 159 893 bytes 402 410 bytes 01:04:37.625 10 1:14:07.708 0:05:07.250 30 344 kbps 39 452 kbps 01:16:31.999 34 037 kbps 01:15:33.541 32 978 kbps 01:15:26.291 158 043 bytes 619 223 bytes 01:16:32.041 11 1:19:14.958 0:09:04.208 30 440 kbps 36 006 kbps 01:22:16.374 33 363 kbps 01:19:41.541 32 356 kbps 01:27:07.333 158 539 bytes 396 648 bytes 01:23:51.375 12 1:28:19.166 0:09:03.166 17 705 kbps 45 840 kbps 01:32:00.166 34 631 kbps 01:32:08.041 33 041 kbps 01:32:08.041 92 222 bytes 829 803 bytes 01:32:46.875

  • Фильм снят по мотивам романа Ирвина Уэлша «Дерьмо» (Filth, 1998).
  • В ранних версиях сценария в машине должны были петь песню «I Wanna Know What Love Is» группы Foreigner. Но Ирвин Уэлш выбрал «Silver Lady».
  • Одна из певиц в машине Дэвида Соула во время исполнения песни «Silver Lady» - это его дочь Хина Соул.
  • Комната, в которой проходит консультация Брюса с доктором, очень похожа на комнату из фильма «2001 год: Космическая одиссея» (1968).
  • В сцене, где больного Брюса тошнит, исполняющего его роль Джеймса МакЭвоя рвало по-настоящему.
  • еще 2 факта
  • Во время отпуска в Гамбурге Блейдси читает из путеводителя Брюсу о том, что современная Германия существует уже с 1865 года. Объединение Германии фактически произошло только в 1871 году.
  • В преддверии Рождества Брюс Робертсон днем читает футбольные результаты в витрине магазина. Это происходит около 16 часов 45 минут, в такое время года на улице должно быть уже темно.
  • Скачать Грязь через торрент http://i1.imageban.ru/out/2014/01/26/1254f9af6cb67d1d0b953a5829fb4c79.png Скачать фильм Грязь через торрент бесплантно в хорошем качестве Описание: Главный герой - продажный шотландский полицейский Брюс Робертсон, помешанный на сексе и кокаине. Ему бы надо расследовать ... 2014-01-26 10:37 9.3 10 6

    Loading...

    Loading...

    % Раздел Тема Автор DL S | L
    Фильмы 2013 [DVDrip, WEB-DLRip, HDrip] [ 1.35 GB ] Грязь / Filth [2013 BDRip Ворон Скачать
    Фильмы 2013 [DVDrip, WEB-DLRip, HDrip] [ 1.37 GB ] Грязь / Filth [2013 DVDRip] () VintMosina Скачать
    Фильмы [HD 720p, 1080p] (Хороший звук DUB, MVO) [ 8.03 GB ] Грязь / Filth [2013 BDRip 1080p Ворон Скачать
    Фильмы [HD 720p, 1080p] (Хороший звук DUB, MVO) [ 4.43 GB ] Грязь / Filth [2013 BDRip 720p ] Neftannik Скачать
    Фильмы 2013 [DVDrip, WEB-DLRip, HDrip] [ 1008 MB ] Грязь / Filth [2013 DVDRip] VintMosina Скачать

    Рекламный пират

    22-08-2016 20:44 Грязь Скачать торрент  

    спасибо! раздайтеё!

    Дорогой пользователь! Огромная просьба, поблагодарите релизера, оцените раздачу и оставьте свои комментарий, если Вы скачали Грязь через торрент бесплатно! Внесите свою лепту в развитие PiratBit!

    Комментировать посты могут только пользователи прошедшие не сложную регистрацию

    Грязь через торрент Скачать бесплатно Грязь Грязь скачать торрент Грязь смотреть онлайн Cкачать фильм Грязь бесплатно Грязь скачать торрент в хорошем качестве Грязь смотреть онлайн бесплатно в хорошем качестве

    Вы не можете начинать темыВы не можете отвечать на сообщенияВы не можете редактировать свои сообщенияВы не можете удалять свои сообщенияВы не можете голосовать в опросахВы не можете прикреплять файлы к сообщениямВы можете скачивать файлы

    piratbit.ru

    Скачать фильм Грязь через торрент в хорошем качестве бесплатно 1080p] DUB

    frame I:1189 Avg QP:18.46 size:185712frame P:25906 Avg QP:19.47 size:106621frame B:113121 Avg QP:21.52 size: 54035

    ОбщееУникальный идентификатор : 178414201471877320428885955693372143941 (0x86395347A362C6118D3AD20C1E5E7945)Полное имя : D:\Video\Grjaz.2013.BDRip.1080p\Grjaz.2013.BDRip.1080p.mkvФормат : MatroskaВерсия формата : Version 4 / Version 2Размер файла : 9,30 ГбайтПродолжительность : 1 ч. 37 м.Общий поток : 13,7 Мбит/секДата кодирования : UTC 2014-11-07 07:50:37Программа кодирования : mkvmerge v7.3.0 ('Nouages') 64bit built on Oct 22 2014 18:53:34Библиотека кодирования : libebml v1.3.0 + libmatroska v1.4.1DURATION : 01:37:22.560000000NUMBER_OF_FRAMES : 182580NUMBER_OF_BYTES : 327183360_STATISTICS_WRITING_APP : mkvmerge v7.3.0 ('Nouages') 64bit built on Oct 22 2014 18:53:34_STATISTICS_WRITING_DATE_UTC : 2014-11-07 07:50:37_STATISTICS_TAGS : BPS DURATION NUMBER_OF_FRAMES NUMBER_OF_BYTES

    ВидеоИдентификатор : 1Формат : AVCФормат/Информация : Advanced Video CodecПрофиль формата : [email protected]Параметр CABAC формата : ДаПараметр ReFrames формата : 4 кадраИдентификатор кодека : V_MPEG4/ISO/AVCПродолжительность : 1 ч. 37 м.Битрейт : 12,2 Мбит/секШирина : 1920 пикселейВысота : 816 пикселейСоотношение сторон : 2,35:1Режим частоты кадров : ПостоянныйЧастота кадров : 24,000 кадра/секЦветовое пространство : YUVСубдискретизация насыщенности : 4:2:0Битовая глубина : 8 битТип развёртки : ПрогрессивнаяБит/(Пиксели*Кадры) : 0.324Размер потока : 8,29 Гбайт (89%)Заголовок : BDRip -- STarankovБиблиотека кодирования : x264 core 142 r2431 ac76440Настройки программы : cabac=1 / ref=4 / deblock=1:-1:-1 / analyse=0x3:0x113 / me=umh / subme=10 / psy=1 / psy_rd=1.00:0.15 / mixed_ref=1 / me_range=32 / chroma_me=1 / trellis=2 / 8x8dct=1 / cqm=0 / deadzone=21,11 / fast_pskip=1 / chroma_qp_offset=-3 / threads=6 / lookahead_threads=1 / sliced_threads=0 / nr=0 / decimate=1 / interlaced=0 / bluray_compat=0 / constrained_intra=0 / bframes=8 / b_pyramid=2 / b_adapt=2 / b_bias=0 / direct=3 / weightb=1 / open_gop=0 / weightp=2 / keyint=230 / keyint_min=23 / scenecut=40 / intra_refresh=0 / rc_lookahead=40 / rc=crf / mbtree=0 / crf=20.0 / qcomp=0.60 / qpmin=0 / qpmax=69 / qpstep=4 / vbv_maxrate=50000 / vbv_bufsize=62500 / crf_max=0.0 / nal_hrd=none / filler=0 / ip_ratio=1.40 / pb_ratio=1.30 / aq=1:1.00Язык : EnglishDefault : ДаForced : НетDURATION : 01:37:22.334000000NUMBER_OF_FRAMES : 140216NUMBER_OF_BYTES : 9095431461_STATISTICS_WRITING_APP : mkvmerge v7.3.0 ('Nouages') 64bit built on Oct 22 2014 18:53:34_STATISTICS_WRITING_DATE_UTC : 2014-11-07 07:50:37_STATISTICS_TAGS : BPS DURATION NUMBER_OF_FRAMES NUMBER_OF_BYTES

    Аудио #1Идентификатор : 2Формат : AC-3Формат/Информация : Audio Coding 3Расширение режима : CM (complete main)Параметр Endianness формата : BigИдентификатор кодека : A_AC3Продолжительность : 1 ч. 37 м.Вид битрейта : ПостоянныйБитрейт : 384 Кбит/секКаналы : 6 каналовРасположение каналов : Front: L C R, Side: L R, LFEЧастота : 48,0 КГцБитовая глубина : 16 битМетод сжатия : С потерямиРазмер потока : 267 Мбайт (3%)Заголовок : DUB (R5)Язык : RussianDefault : ДаForced : Нет

    Аудио #2Идентификатор : 3Формат : AC-3Формат/Информация : Audio Coding 3Расширение режима : CM (complete main)Параметр Endianness формата : BigИдентификатор кодека : A_AC3Продолжительность : 1 ч. 37 м.Вид битрейта : ПостоянныйБитрейт : 384 Кбит/секКаналы : 6 каналовРасположение каналов : Front: L C R, Side: L R, LFEЧастота : 48,0 КГцБитовая глубина : 16 битМетод сжатия : С потерямиРазмер потока : 267 Мбайт (3%)Заголовок : AVO (Дмитрий Пучков (Гоблин))Язык : RussianDefault : НетForced : Нет

    Аудио #3Идентификатор : 4Формат : AC-3Формат/Информация : Audio Coding 3Расширение режима : CM (complete main)Параметр Endianness формата : BigИдентификатор кодека : A_AC3Продолжительность : 1 ч. 37 м.Вид битрейта : ПостоянныйБитрейт : 448 Кбит/секКаналы : 6 каналовРасположение каналов : Front: L C R, Side: L R, LFEЧастота : 48,0 КГцБитовая глубина : 16 битМетод сжатия : С потерямиРазмер потока : 312 Мбайт (3%)Заголовок : AVO (Юрий Сербин)Язык : RussianDefault : НетForced : Нет

    Меню00:00:00.000 : :Chapter 0100:08:15.500 : :Chapter 0200:15:56.790 : :Chapter 0300:24:38.665 : :Chapter 0400:32:36.125 : :Chapter 0500:40:55.916 : :Chapter 0600:48:00.457 : :Chapter 0700:56:09.000 : :Chapter 0801:03:43.833 : :Chapter 0901:14:07.707 : :Chapter 1001:19:14.957 : :Chapter 1101:28:19.165 : :Chapter 12

    ОбщееПолное имя : D:\Video\Grjaz.2013.BDRip.1080p\Grjaz.2013.Commentary.eng.ac3Формат : AC-3Формат/Информация : Audio Coding 3Размер файла : 134 МбайтПродолжительность : 1 ч. 37 м.Режим общего битрейта : ПостоянныйОбщий поток : 192 Кбит/сек

    АудиоФормат : AC-3Формат/Информация : Audio Coding 3Расширение режима : CM (complete main)Параметр Endianness формата : BigПродолжительность : 1 ч. 37 м.Вид битрейта : ПостоянныйБитрейт : 192 Кбит/секКаналы : 2 каналаРасположение каналов : Front: L RЧастота : 48,0 КГцБитовая глубина : 16 битМетод сжатия : С потерямиРазмер потока : 134 Мбайт (100%)

    ОбщееПолное имя : D:\Video\Grjaz.2013.BDRip.1080p\Grjaz.2013.DVO.ukr.ac3Формат : AC-3Формат/Информация : Audio Coding 3Размер файла : 134 МбайтПродолжительность : 1 ч. 37 м.Режим общего битрейта : ПостоянныйОбщий поток : 192 Кбит/сек

    АудиоФормат : AC-3Формат/Информация : Audio Coding 3Расширение режима : CM (complete main)Параметр Endianness формата : BigПродолжительность : 1 ч. 37 м.Вид битрейта : ПостоянныйБитрейт : 192 Кбит/секКаналы : 2 каналаРасположение каналов : Front: L RЧастота : 48,0 КГцБитовая глубина : 16 битМетод сжатия : С потерямиРазмер потока : 134 Мбайт (100%)

    ОбщееПолное имя : D:\Video\Grjaz.2013.BDRip.1080p\Grjaz.2013.eng.SDH.srtФормат : SubRipРазмер файла : 105 Кбайт

    ТекстФормат : SubRipМетод сжатия : Без потерь

    ОбщееПолное имя : D:\Video\Grjaz.2013.BDRip.1080p\Grjaz.2013.eng.srtФормат : SubRipРазмер файла : 96,8 Кбайт

    ТекстФормат : SubRipМетод сжатия : Без потерь

    ОбщееПолное имя : D:\Video\Grjaz.2013.BDRip.1080p\Grjaz.2013.Original.eng.dtsФормат : DTSФормат/Информация : Digital Theater SystemsРазмер файла : 535 МбайтПродолжительность : 1 ч. 37 м.Режим общего битрейта : ПостоянныйОбщий поток : 768 Кбит/сек

    АудиоФормат : DTSФормат/Информация : Digital Theater SystemsРежим : 16Параметр Endianness формата : BigПродолжительность : 1 ч. 37 м.Вид битрейта : ПостоянныйБитрейт : 768 Кбит/секКаналы : 6 каналовРасположение каналов : Front: L C R, Side: L R, LFEЧастота : 48,0 КГцБитовая глубина : 24 битМетод сжатия : С потерямиРазмер потока : 535 Мбайт (100%)

    ОбщееПолное имя : D:\Video\Grjaz.2013.BDRip.1080p\Grjaz.2013.rus1.srtФормат : SubRipРазмер файла : 126 Кбайт

    ТекстФормат : SubRipМетод сжатия : Без потерь

    ОбщееПолное имя : D:\Video\Grjaz.2013.BDRip.1080p\Grjaz.2013.rus2.srtФормат : SubRipРазмер файла : 132 Кбайт

    ТекстФормат : SubRipМетод сжатия : Без потерь

    ОбщееПолное имя : D:\Video\Grjaz.2013.BDRip.1080p\Grjaz.2013.SDH.colored.eng.srtФормат : SubRipРазмер файла : 110 Кбайт

    ТекстФормат : SubRipМетод сжатия : Без потерь

    piratbit.ru

    Скачать фильм Грязь Лос-Анджелеса через торрент в хорошем качестве бесплатно WEB-DLRip

    Раздают: 1 [ 0 KB/s ]
    Размер: 1.37 GB | Добавлен: 7 мес. назад | Торрент скачан:162 раза
    Реклама Дарим 3000 рублей за регистрацию, не упусти свой шанс получить шикарный бонус!!!

    01-03-2017 07:11 Грязь Лос-Анджелеса Скачать торрент  

    Грязь Лос-Анджелеса / Alabama Dirt

    Год выпуска: 2016Страна: СШАЖанр: боевик, драма, мелодрама, семейный, спортПродолжительность: 01:30:33Перевод: Любительский (многоголосый) - [Синема УС] Субтитры: отсутствуют

    Режиссер: Том Стаут

    В ролях:

    Майкл Роарк, Трэйси Лоуренс, Лесли Истербрук, Гаррет Смит, Брент Генри, Лоуренс Тернер, Клер Гаррет, Зэк Чино, Роджер Хьюлетт

    Описание:

    Тай Харгроув хочет стать чемпионом гонок, но для этого требуются деньги и поддержка близких. А именно этого у него не хватает. Всё становится ещё сложнее , когда Тай намеревается отобрать у главного гонщика по имени Змей его титул и девушкуКачество: WEB-DLRipФормат: AVIВидео кодек: XviDАудио кодек: AC3

    Видео: 720x304 (2.37:1), 23.976 fps, XviD build 50 ~1767 kbps avg, 0.34 bit/pixelАудио#1: 48 kHz, AC3 Dolby Digital, 2/0 (L,R) ch, ~384 kbps

    Скачать Грязь Лос-Анджелеса через торрент http://s019.radikal.ru/i603/1703/1b/f0140b51a659.jpg Скачать фильм Грязь Лос-Анджелеса через торрент бесплантно в хорошем качестве Описание: Тай Харгроув хочет стать чемпионом гонок, но для этого требуются деньги и поддержка близких. А именно этого у него не хватает. ... 2017-03-01 07:11 9.3 10 15

    Loading...

    Loading...

    Рекламный пират

    01-03-2017 15:34 Грязь Лос-Анджелеса Скачать торрент  

    кто смотрел, как фильм?

    01-03-2017 18:03 Грязь Лос-Анджелеса Скачать торрент  

    01-03-2017 18:04 Грязь Лос-Анджелеса Скачать торрент  

    Но можно посмотреть

    01-03-2017 18:06 Грязь Лос-Анджелеса Скачать торрент  

    Ворон с тобой как нибудь связаться можно? Пытаюсь 3 месяц закинуть на поддержку ничего не получается......

    Дорогой пользователь! Огромная просьба, поблагодарите релизера, оцените раздачу и оставьте свои комментарий, если Вы скачали Грязь Лос-Анджелеса через торрент бесплатно! Внесите свою лепту в развитие PiratBit!

    Комментировать посты могут только пользователи прошедшие не сложную регистрацию

    Грязь Лос-Анджелеса через торрент Скачать бесплатно Грязь Лос-Анджелеса Грязь Лос-Анджелеса скачать торрент Грязь Лос-Анджелеса смотреть онлайн Cкачать фильм Грязь Лос-Анджелеса бесплатно Грязь Лос-Анджелеса скачать торрент в хорошем качестве Грязь Лос-Анджелеса смотреть онлайн бесплатно в хорошем качестве

    Вы не можете начинать темыВы не можете отвечать на сообщенияВы не можете редактировать свои сообщенияВы не можете удалять свои сообщенияВы не можете голосовать в опросахВы не можете прикреплять файлы к сообщениямВы можете скачивать файлы

    piratbit.ru


    Смотрите также