Скачать фильм кодекс вора через торрент бесплатно в хорошем качестве


Скачать фильм Кодекс вора (2008) через торрент

25 июля 2016 07:26 Кодекс вора / The Code (2008) BDRip 720p от HELLYWOOD | D, P, P2 .torrent   [Информация о файле (нажмите для просмотра)] Перевод: Дубляж, Профессиональный (многоголосый), Профессиональный (двухголосый)Субтитры: русские , английские (Full + SDH)Качество: BDRip 720pФормат: MKVВидео: AVC, 1280x544 (2.35:1), 6093 kbps, 23,976 fps, 0,365 bppАудио №1: AC3 / 2.0 / 48 kHz / 192 kbps / 16 bit| DUB - Рен ТВ Аудио №2: AC3 / 5.1 / 48 kHz / 640 kbps / 16 bit| DVO - R5 Аудио №3: AC3 / 2.0 / 48 kHz / 192 kbps / 16 bit| MVO - ВГТРК Аудио №4: AC3 / 2.0 / 48 kHz / 192 kbps / 16 bit| UKR - MVO - ICTV Аудио №5: AC3 / 5.1 / 48 kHz / 640 kbps / 16 bit| ENG 5,74 Gb 11 5 25 июля 2016 07:26 Кодекс вора / The Code (2008) BDRip 1080p | D, P, P2 .torrent   [Информация о файле (нажмите для просмотра)] Качество: BDRip 1080pВидео: MPEG-4 AVC, 15000 Кбит/с, 1920х816, 23.976 кадр/сАудио #01: Russian: 48 kHz, AC3, 2/0 (L,R) ch, 192 kbps avg |Дубляж, Рен ТВ|Аудио #02: Russian: 48 kHz, AC3, 2/0 (L,R) ch, 192 kbps avg |Многоголосый закадровый, ВГТРК|Аудио #03: Russian: 48 kHz/16-bit, DTS 5.1, 1509 kbps avg |Двухголосый закадровый, CP Digital (R5)|Аудио #04: Ukrainian: 48 kHz, AC3, 2/0 (L,R) ch, 192 kbps avg |Многоголосый закадровый, ICTV|Аудио #05: Ukrainian: 48 kHz, AC3, 2/0 (L,R) ch, 192 kbps avg |Двухголосый закадровый, 2+2|Аудио #06: English: 48 kHz/16-bit, DTS 5.1, 1509 kbps avgПеревод: Дублированный, профессиональный многоголосый, профессиональный, двухголосыйСубтитры: Русские, английские 13,61 Gb 6 3 25 июля 2016 07:26 Кодекс вора / The Code (2008) HDRip от Шкипер | D .torrent   [Информация о файле (нажмите для просмотра)] Перевод: Профессиональный (полное дублирование) - (Рен ТВ)Кодек: XviDКачество: HDRipВидео: 640x272 (2.35:1), 23.976 fps, XviD build 73 ~867 kbps avg, 0.21 bit/pixelЗвук: 48 kHz, MPEG Layer 3, 2 ch, ~128.00 kbps avgСубтитры: Нет/No 745,8 Mb 10 2 25 июля 2016 07:26 Кодекс вора / The Code (2008) BDRip 720p | D, P, P2 .torrent   [Информация о файле (нажмите для просмотра)] Перевод: Дублированный, профессиональный многоголосый, профессиональный двухголосыйФормат: MKVКачество: BDRip 720pВидео: MPEG-4 AVC, 7315 Кбит/с, 1280x544Аудио 1: Русский (AC3, 2 ch, 192 Кбит/с) Дублированный (Рен ТВ)Аудио 2: Русский (AC3, 2 ch, 192 Кбит/с) Профессиональный многоголосый (ВГТРК)Аудио 3: Русский (DTS, 6 ch, 1510 Кбит/с) Профессиональный двухголосый (CP Digital, R5)Аудио 4: Украинский (AC3, 2 ch, 192 Кбит/с) Профессиональный многоголосый (ICTV)Аудио 5: Украинский (AC3, 2 ch, 192 Кбит/с) Профессиональный двухголосый (2+2)Аудио 6: Английский (DTS, 6 ch, 1510 Кбит/с)Субтитры: Русские, английскиеВидео: Идентификатор : 1 Формат : AVC Формат/Информация : Advanced Video Codec Профиль формата : [email protected] Параметр CABAC формата : Да Параметр ReFrames формата : 11 кадров Идентификатор кодека : V_MPEG4/ISO/AVC Продолжительность : 1 ч. 43 м. Битрейт : 7315 Кбит/сек Ширина : 1280 пикселей Высота : 544 пикселя Соотношение сторон : 2,35:1 Режим частоты кадров : Постоянный Частота кадров : 23,976 кадра/сек Цветовое пространство : YUV Субдискретизация насыщенности : 4:2:0 Битовая глубина : 8 бит Тип развёртки : Прогрессивная Бит/(Пиксели*Кадры) : 0.438 Размер потока : 5,12 Гбайт (64%) Заголовок : The.Code.2008.x264.BDRip.720p.BLUEBIRD Библиотека кодирования : x264 core 148 r2638 7599210 Настройки программы : cabac=1 / ref=11 / deblock=1:-3:-3 / analyse=0x3:0x113 / me=umh / subme=11 / psy=1 / psy_rd=1.00:0.15 / mixed_ref=1 / me_range=48 / chroma_me=1 / trellis=2 / 8x8dct=1 / cqm=0 / deadzone=21,11 / fast_pskip=0 / chroma_qp_offset=-3 / threads=12 / lookahead_threads=4 / sliced_threads=0 / nr=0 / decimate=0 / interlaced=0 / bluray_compat=0 / constrained_intra=0 / bframes=7 / b_pyramid=2 / b_adapt=2 / b_bias=0 / direct=3 / weightb=1 / open_gop=1 / weightp=2 / keyint=240 / keyint_min=23 / scenecut=40 / intra_refresh=0 / rc=2pass / mbtree=0 / bitrate=7315 / ratetol=1.0 / qcomp=0.60 / qpmin=0 / qpmax=69 / qpstep=4 / cplxblur=20.0 / qblur=0.5 / ip_ratio=1.40 / pb_ratio=1.30 / aq=2:0.70 Язык : English Default : Да Forced : НетАудио #1: Идентификатор : 2 Формат : AC-3 Формат/Информация : Audio Coding 3 Расширение режима : CM (complete main) Параметр Endianness формата : Big Идентификатор кодека : A_AC3 Продолжительность : 1 ч. 43 м. Вид битрейта : Постоянный Битрейт : 192 Кбит/сек Каналы : 2 канала Расположение каналов : Front: L R Частота : 48,0 КГц Частота кадров : 31,250 кадров/сек (1536 spf) Метод сжатия : С потерями Размер потока : 142 Мбайт (2%) Заголовок : Дублированный (Рен ТВ) Язык : Russian Default : Да Forced : НетАудио #2: Идентификатор : 3 Формат : AC-3 Формат/Информация : Audio Coding 3 Расширение режима : CM (complete main) Параметр Endianness формата : Big Идентификатор кодека : A_AC3 Продолжительность : 1 ч. 43 м. Вид битрейта : Постоянный Битрейт : 192 Кбит/сек Каналы : 2 канала Расположение каналов : Front: L R Частота : 48,0 КГц Частота кадров : 31,250 кадров/сек (1536 spf) Метод сжатия : С потерями Размер потока : 142 Мбайт (2%) Заголовок : Профессиональный многоголосый (ВГТРК) Язык : Russian Default : Нет Forced : НетАудио #3: Идентификатор : 4 Формат : DTS Формат/Информация : Digital Theater Systems Режим : 16 Параметр Endianness формата : Big Идентификатор кодека : A_DTS Продолжительность : 1 ч. 43 м. Вид битрейта : Постоянный Битрейт : 1509 Кбит/сек Каналы : 6 каналов Расположение каналов : Front: L C R, Side: L R, LFE Частота : 48,0 КГц Частота кадров : 93,750 кадра/сек (512 spf) Битовая глубина : 24 бит Метод сжатия : С потерями Размер потока : 1,09 Гбайт (14%) Заголовок : Профессиональный двухголосый (CP Digital, R5) Язык : Russian Default : Нет Forced : НетАудио #4: Идентификатор : 5 Формат : AC-3 Формат/Информация : Audio Coding 3 Расширение режима : CM (complete main) Параметр Endianness формата : Big Идентификатор кодека : A_AC3 Продолжительность : 1 ч. 43 м. Вид битрейта : Постоянный Битрейт : 192 Кбит/сек Каналы : 2 канала Расположение каналов : Front: L R Частота : 48,0 КГц Частота кадров : 31,250 кадров/сек (1536 spf) Метод сжатия : С потерями Размер потока : 142 Мбайт (2%) Заголовок : Профессиональный многоголосый (ICTV) Язык : Ukrainian Default : Нет Forced : НетАудио #5: Идентификатор : 6 Формат : AC-3 Формат/Информация : Audio Coding 3 Расширение режима : CM (complete main) Параметр Endianness формата : Big Идентификатор кодека : A_AC3 Продолжительность : 1 ч. 43 м. Вид битрейта : Постоянный Битрейт : 192 Кбит/сек Каналы : 2 канала Расположение каналов : Front: L R Частота : 48,0 КГц Частота кадров : 31,250 кадров/сек (1536 spf) Метод сжатия : С потерями Размер потока : 142 Мбайт (2%) Заголовок : Профессиональный двухголосый (2+2) Язык : Ukrainian Default : Нет Forced : НетАудио #6: Идентификатор : 7 Формат : DTS Формат/Информация : Digital Theater Systems Режим : 16 Параметр Endianness формата : Big Идентификатор кодека : A_DTS Продолжительность : 1 ч. 43 м. Вид битрейта : Постоянный Битрейт : 1509 Кбит/сек Каналы : 6 каналов Расположение каналов : Front: L C R, Side: L R, LFE Частота : 48,0 КГц Частота кадров : 93,750 кадра/сек (512 spf) Битовая глубина : 24 бит Метод сжатия : С потерями Размер потока : 1,09 Гбайт (14%) Язык : English Default : Нет Forced : Нет 8,03 Gb 9 6 25 июля 2016 07:26 Кодекс вора / The Code (2009) BDRip от HQ-ViDEO | P .torrent   [Информация о файле (нажмите для просмотра)] Перевод: Русский профессиональный, многоголосый + Оригинальная, английская дорожка (Отдельно)Кодек: XviDКачество: BDRip (SourceBDRemux)Видео: 1559 kbps; 0.30 bit/pixel; 720 x 304; 2.37:1; 23.976 fpsЗвук #1: AC3 Dolby Digital; 448.00 kbps, 6 Ch - MVOЗвук #2: AC3 Dolby Digital; 448.00 kbps, 6 Ch - ENG (отдельно / скачать с Яндекс Диск)Субтитры: Русские, Английские. (Отдельно) 1,46 Gb 55 5 25 июля 2016 07:26 Кодекс вора / The Code (2009) BDRip 1080p от Brazzass .torrent   [Информация о файле (нажмите для просмотра)] Перевод: Профессиональный (двухголосый, закадровый) CP DigitalКодек: H.264Качество: BDRip 1080pВидео: Формат: MKV - 1920x816, 23 fps, 10.5 MbpsЗвук: Аудио 1:Russian:48 kHz, AC3, 6ch, 640 kbps Аудио 2:English:48 KHz, DTS, 6 ch,1536 KbpsСубтитры: Russian, English 9,16 Gb 3 3 25 июля 2016 07:26 Кодекс вора / The Code (2009) HDRip от Sanjar .torrent   [Информация о файле (нажмите для просмотра)] Перевод: Профессиональное (двухголосое)Формат: AVI (XviD) |Совместимо с бытовыми плеерамиКачество: HDRipВидео: 320x136, ~350 kbpsАудио: 48 kHz, MPEG Layer 3, 2 ch, ~64.00 kbps 311,87 Mb 3 3 25 июля 2016 07:26 Кодекс вора / The Code (2008) HDRip от Scarabey | P .torrent   [Информация о файле (нажмите для просмотра)] Перевод: Профессиональный (многоголосый, закадровый)Субтитры: нетКачество: HDRipФормат: AVIВидео: 720x304 (2.37:1), 23.976 fps, XviD build 73 ~1545 kbps avg, 0.29 bit/pixelАудио: 48 kHz, AC3 Dolby Digital, 3/2 (L,C,R,l,r) + LFE ch, ~448.00 kbps avg 1,45 Gb 12 4 25 июля 2016 07:26 Кодекс вора / The Code (2008) HDRip от Scarabey | P .torrent   [Информация о файле (нажмите для просмотра)] Перевод: Профессиональный (многоголосый, закадровый)Субтитры: нетКачество: HDRipФормат: AVIВидео: 640x272 (2.35:1), 23.976 fps, XviD build 73 ~871 kbps avg, 0.21 bit/pixelАудио: 48 kHz, MPEG Layer 3, 2 ch, ~128.00 kbps avg 747,01 Mb 6 4 25 июля 2016 07:26 Кодекс вора / The Code (2008) BDRip-AVC от 0ptimus | P .torrent   [Информация о файле (нажмите для просмотра)] Перевод: Профессиональный (многоголосый закадровый)Кодек: h.264Качество: BDRip-AVCВидео: 2455 Кбит/с, 1024x436, 23.976 кадр/сЗвук: Русский, английский (AC3, 6 ch, 384 Кбит/с)Субтитры: Русские, английскиеВидео: Идентификатор : 1 Формат : AVC Формат/Информация : Advanced Video Codec Профиль формата : [email protected] Параметр CABAC формата : Да Параметр ReFrames формата : 10 кадров Идентификатор кодека : V_MPEG4/ISO/AVC Продолжительность : 1 ч. 43 м. Битрейт : 2455 Кбит/сек Ширина : 1024 пикселя Высота : 436 пикселей Соотношение сторон : 2,35:1 Частота кадров : 23,976 кадра/сек Цветовое пространство : YUV Субдискретизация насыщенности : 4:2:0 Битовая глубина : 8 бит Тип развёртки : Прогрессивная Бит/(Пиксели*Кадры) : 0.229 Размер потока : 1,73 Гбайт (74%) Заголовок : Rip by 0ptimus Библиотека кодирования : x264 core 133 r2334 a3ac64b Настройки программы : cabac=1 / ref=10 / deblock=1:-3:-3 / analyse=0x3:0x113 / me=umh / subme=11 / psy=1 / psy_rd=1.00:0.20 / mixed_ref=1 / me_range=48 / chroma_me=1 / trellis=2 / 8x8dct=1 / cqm=0 / deadzone=21,11 / fast_pskip=0 / chroma_qp_offset=-3 / threads=4 / lookahead_threads=1 / sliced_threads=0 / nr=0 / decimate=0 / interlaced=0 / bluray_compat=0 / constrained_intra=0 / bframes=8 / b_pyramid=2 / b_adapt=2 / b_bias=0 / direct=3 / weightb=1 / open_gop=0 / weightp=2 / keyint=240 / keyint_min=23 / scenecut=40 / intra_refresh=0 / rc_lookahead=40 / rc=2pass / mbtree=0 / bitrate=2455 / ratetol=1.0 / qcomp=0.60 / qpmin=0 / qpmax=69 / qpstep=4 / cplxblur=20.0 / qblur=0.5 / vbv_maxrate=50000 / vbv_bufsize=50000 / nal_hrd=none / ip_ratio=1.40 / pb_ratio=1.30 / aq=1:1.00 Язык : EnglishАудио #1: Идентификатор : 2 Формат : AC-3 Формат/Информация : Audio Coding 3 Расширение режима : CM (complete main) Идентификатор кодека : A_AC3 Продолжительность : 1 ч. 43 м. Вид битрейта : Постоянный Битрейт : 384 Кбит/сек Каналы : 6 каналов Расположение каналов : Front: L C R, Side: L R, LFE Частота : 48,0 КГц Битовая глубина : 16 бит Метод сжатия : С потерями Размер потока : 284 Мбайт (12%) Заголовок : Многоголосый закадровый AC3 5.1 @ 384 kbps Язык : RussianАудио #2: Идентификатор : 3 Формат : AC-3 Формат/Информация : Audio Coding 3 Расширение режима : CM (complete main) Идентификатор кодека : A_AC3 Продолжительность : 1 ч. 43 м. Вид битрейта : Постоянный Битрейт : 384 Кбит/сек Каналы : 6 каналов Расположение каналов : Front: L C R, Side: L R, LFE Частота : 48,0 КГц Битовая глубина : 16 бит Метод сжатия : С потерями Размер потока : 284 Мбайт (12%) Заголовок : AC3 5.1 @ 384 kbps Язык : English 2,33 Gb 3 2 25 июля 2016 07:26 Кодекс вора / The Code (2009) BDRip от Rulya74 .torrent   [Информация о файле (нажмите для просмотра)] Перевод: Профессиональный (многоголосый закадровый), Профессиональный (двухголосый закадровый) |Украинский 1+1Кодек: XviDКачество: BDRipВидео: 720x304 (2.37:1), 23.976 fps, 1603 kbps, 0.305 bit/pixelАудио #1: 48 kHz, AC3, 2/0 (L,R) ch, 192.00 kbps (Русский)Аудио #2: 48 kHz, AC3, 2/0 (L,R) ch, 192.00 kbps (Украинский) 1,45 Gb 3 3 25 июля 2016 07:26 Кодекс вора / The Code (2009) BDRip 720p от aac-vp .torrent   [Информация о файле (нажмите для просмотра)] Перевод: Профессиональный (многоголосый, закадровый)[Лицензия]Субтитры: Русские, АнглийскиеФормат: MKVКачество: BDRip 720pВидео: 1280x544 (2.35:1), 23.976 fps, H.264, 7279 kbps avg, 0.436 bit/pixelАудио #1: 48 kHz, AC3 Dolby Digital 5.1, 640 kbps - Русский, Профессиональный (многоголосый, закадровый)Аудио #2: 48 kHz, AC3 Dolby Digital 5.1, 640 kbps - Английский 6,35 Gb 2 1 25 июля 2016 07:26 Кодекс вора / The Code (2009) Blu-ray .torrent   [Информация о файле (нажмите для просмотра)] Перевод: Профессиональный (многоголосый, закадровый) с лицензииКодек: VC-1Качество: Blu-rayВидео: 1920x1080, 23,976 fps, ~22501 kbpsЗвук: Аудио 1: Russian (AC3, 5.1, 640 kbps / 48 kHz) Аудио 2: English (AC3, 5.1, 640 kbps / 48 kHz) Аудио 3: English (AC3, 2.0, 192 kbps / 48 kHz) (комментарии) 22,32 Gb 3 1 25 июля 2016 07:26 Кодекс вора / The Code (2009) BDRip от HQCLUB .torrent   [Информация о файле (нажмите для просмотра)] Перевод: Профессиональный (многоголосый, закадровый) + Оригинальная дорогаСубтитры: русские, английские (внешние, srt*)Формат: AVIКачество: BDRip (источник: -DaRkY- / BD-Remux / 1080p)Видео: 720x304 (2.37:1), 23.976 fps, XviD build 50 ~2117 kbps avg, 0.40 bit/pixelАудио #1: 48 kHz, AC3 Dolby Digital, 3/2 (L,C,R,l,r) + LFE ch, ~448.00 kbps avgАудио #2: 48 kHz, AC3 Dolby Digital, 3/2 (L,C,R,l,r) + LFE ch, ~448.00 kbps avg 2,18 Gb 1 2 25 июля 2016 07:26 Кодекс вора / The Code (2008) DVDRip .torrent   [Информация о файле (нажмите для просмотра)] Качество: DVDRipВидео: AVI (XviD), 704x288 (2.44:1), 25 fps, XviD build 50 ~1058 kbps avg, 0.21 bit/pixelЗвук #1: Русский (Многоголосый) AC3 Dolby Digital, 2/0 (L,R) ch, ~128.00 kbps (Лицензионный)Звук #2: Английский (Оригинал) AC3 Dolby Digital, 2/0 (L,R) ch, ~128.00 kbps 944,88 Mb 3 2

gig-torrent.net

Скачать фильм Кодекс вора через торрент в хорошем качестве бесплатно 720p / 60 FPS

ОбщееУникальный идентификатор : 208389996692456141559522227543547270716 (0x9CC67416E08548448728DDF2228B563C)Полное имя : E:\The.Code.(2008).BDRip.720p.(60 Fps).mkvФормат : MatroskaВерсия формата : Version 4 / Version 2Размер файла : 3,92 ГбайтПродолжительность : 1 ч. 43 м.Общий поток : 5417 Кбит/секНазвание фильма : Кодекс вора / The Code (2008) BDRip 720p (60 Fps)Дата кодирования : UTC 2017-05-30 13:22:41Программа кодирования : mkvmerge v9.1.0 ('Little Earthquakes') 64bitБиблиотека кодирования : libebml v1.3.3 + libmatroska v1.4.4

ВидеоИдентификатор : 1Формат : AVCФормат/Информация : Advanced Video CodecПрофиль формата : [email protected]Параметр CABAC формата : ДаПараметр ReFrames формата : 4 кадраИдентификатор кодека : V_MPEG4/ISO/AVCПродолжительность : 1 ч. 43 м.Битрейт : 5053 Кбит/секШирина : 1280 пикселейВысота : 544 пикселяСоотношение сторон : 2,35:1Режим частоты кадров : ПостоянныйЧастота кадров : 60,000 кадров/секЦветовое пространство : YUVСубдискретизация насыщенности : 4:2:0Битовая глубина : 8 битТип развёртки : ПрогрессивнаяБит/(Пиксели*Кадры) : 0.121Размер потока : 3,64 Гбайт (93%)Заголовок : slaventi-69 ( R.G. HD-Films | 60 fps )Библиотека кодирования : x264 core 146 r2538 121396cНастройки программы : cabac=1 / ref=4 / deblock=1:-1:-1 / analyse=0x3:0x113 / me=hex / subme=9 / psy=1 / psy_rd=1.00:0.00 / mixed_ref=1 / me_range=16 / chroma_me=1 / trellis=2 / 8x8dct=1 / cqm=0 / deadzone=21,11 / fast_pskip=1 / chroma_qp_offset=-2 / threads=8 / lookahead_threads=1 / sliced_threads=0 / nr=0 / decimate=1 / interlaced=0 / bluray_compat=0 / constrained_intra=0 / bframes=4 / b_pyramid=2 / b_adapt=2 / b_bias=0 / direct=3 / weightb=1 / open_gop=0 / weightp=2 / keyint=250 / keyint_min=25 / scenecut=40 / intra_refresh=0 / rc_lookahead=40 / rc=2pass / mbtree=1 / bitrate=5053 / ratetol=1.0 / qcomp=0.60 / qpmin=0 / qpmax=69 / qpstep=4 / cplxblur=20.0 / qblur=0.5 / vbv_maxrate=14000 / vbv_bufsize=14000 / nal_hrd=none / filler=0 / ip_ratio=1.40 / aq=1:1.00Язык : EnglishDefault : ДаForced : Нет

АудиоИдентификатор : 2Формат : AC-3Формат/Информация : Audio Coding 3Расширение режима : CM (complete main)Параметр Endianness формата : BigИдентификатор кодека : A_AC3Продолжительность : 1 ч. 43 м.Вид битрейта : ПостоянныйБитрейт : 384 Кбит/секКаналы : 2 каналаРасположение каналов : Front: L RЧастота : 48,0 КГцЧастота кадров : 31,250 кадров/сек (1536 spf)Метод сжатия : С потерямиРазмер потока : 285 Мбайт (7%)Заголовок : DUB - Рен ТВЯзык : RussianDefault : ДаForced : Нет

piratbit.ru

Скачать фильм Кодекс вора через торрент в хорошем качестве бесплатно HDRip

Размер: 1.47 GB | Добавлен: 4 года 8 мес. назад | Торрент скачан:367 раз
Реклама Дарим 3000 рублей за регистрацию, не упусти свой шанс получить шикарный бонус!!!

20-02-2013 18:25 Кодекс вора Скачать торрент  

Кодекс вора / Thick as Thieves«Never trust a thief.»

Год выхода: 2009Жанр: триллер, криминалВыпущено: США, Германия / Millennium Films , Revelations Entertainment , Equity Pictures Medienfonds GmbH & Co. KG IVПродолжительность: 01:43:28Озвучивание: Дублированное [РЕН-ТВ]

Режиссер: Мими ЛедерВ ролях: Морган Фриман, Антонио Бандерас, Раде Шербеджия, Том Харди, Роберт Форстер, Рада Митчелл, Иван Петрушинов, Виктор Бойчев, Николай Хаджийминев, Джеррит Вурен

Описание:

Кит Рипли, опытный вор из Нью-Йорка, приглашает из Майами молодого, но уже проявившего себя «коллегу», Габриэля Мартина. Рипли нужен напарник для кражи двух старинных и очень ценных яиц Фаберже. Они вместе с другими драгоценностями российской династии Романовых хранятся в хорошо защищенном сейфе. Каждое яйцо на черном рынке стоит двадцать миллионов долларов. Украв раритет, Рипли планирует вернуть долг криминальному боссу Ники. Сумеет ли вор расплатиться по счетам, если в планы «преступной парочки» хочет вмешаться лейтенант полиции Вебер?

СэмплКачество: HDRipФормат: AVIВидео: 720x304 (2.37:1), 23.976 fps, XviD build 50 ~1565 kbps avg, 0.30 bit/pixelАудио#1: 48 kHz, AC3 Dolby Digital, 2/0 (L,R) ch, ~224.00 kbps avg / DUBАудио#2: 48 kHz, AC3 Dolby Digital, 2/0 (L,R) ch, ~224.00 kbps avg / MVO Скачать Кодекс вора через торрент http://pic.pb.wtf/images/1/bbohi7ttum.png Скачать фильм Кодекс вора через торрент бесплантно в хорошем качестве Описание: Кит Рипли, опытный вор из Нью-Йорка, приглашает из Майами молодого, но уже проявившего себя «коллегу», Габриэля Мартина. Рипли ... 2013-02-20 18:25 10 10 3

Loading...

Loading...

Рекламный пират

Дорогой пользователь! Огромная просьба, поблагодарите релизера, оцените раздачу и оставьте свои комментарий, если Вы скачали Кодекс вора через торрент бесплатно! Внесите свою лепту в развитие PiratBit!

Комментировать посты могут только пользователи прошедшие не сложную регистрацию

Кодекс вора через торрент Скачать бесплатно Кодекс вора Кодекс вора скачать торрент Кодекс вора смотреть онлайн Cкачать фильм Кодекс вора бесплатно Кодекс вора скачать торрент в хорошем качестве Кодекс вора смотреть онлайн бесплатно в хорошем качестве

Вы не можете начинать темыВы не можете отвечать на сообщенияВы не можете редактировать свои сообщенияВы не можете удалять свои сообщенияВы не можете голосовать в опросахВы не можете прикреплять файлы к сообщениямВы можете скачивать файлы

piratbit.ru

Скачать фильм Кодекс вора через торрент в хорошем качестве бесплатно 720p от potroks] DUB

Общее Уникальный идентификатор : 187730240577145165240203550736483607642 (0x8D3B87784E02307F82C863F581BFE45A) Полное имя : Kodeks.Vora.2009.3xRus.Ukr.Eng.BDRip.720p.by_potroks.mkv Формат : Matroska Версия формата : Version 4 / Version 2 Размер файла : 5,74 Гбайт Продолжительность : 1 ч. 43 м. Общий поток : 7927 Кбит/сек Название фильма : The Code (2009) Дата кодирования : UTC 2016-03-29 09:11:17 Программа кодирования : mkvmerge v5.9.0 ('On The Loose') built on Dec 15 2012 16:39:58 Библиотека кодирования : libebml v1.3.0 + libmatroska v1.4.0

Видео Идентификатор : 1 Формат : AVC Формат/Информация : Advanced Video Codec Профиль формата : [email protected] Параметр CABAC формата : Да Параметр ReFrames формата : 9 кадров Идентификатор кодека : V_MPEG4/ISO/AVC Продолжительность : 1 ч. 43 м. Битрейт : 6093 Кбит/сек Ширина : 1280 пикселей Высота : 544 пикселя Соотношение сторон : 2,35:1 Режим частоты кадров : Постоянный Частота кадров : 23,976 кадра/сек Цветовое пространство : YUV Субдискретизация насыщенности : 4:2:0 Битовая глубина : 8 бит Тип развёртки : Прогрессивная Бит/(Пиксели*Кадры) : 0.365 Размер потока : 4,29 Гбайт (75%) Заголовок : potroks Библиотека кодирования : x264 core 148 r2665M a01e339 Настройки программы : cabac=1 / ref=9 / deblock=1:-3:-3 / analyse=0x3:0x133 / me=umh / subme=11 / psy=1 / psy_rd=0.96:0.00 / mixed_ref=1 / me_range=48 / chroma_me=1 / trellis=2 / 8x8dct=1 / cqm=0 / deadzone=21,11 / fast_pskip=0 / chroma_qp_offset=-2 / threads=9 / lookahead_threads=2 / sliced_threads=0 / nr=0 / decimate=1 / interlaced=0 / bluray_compat=0 / constrained_intra=0 / bframes=10 / b_pyramid=2 / b_adapt=2 / b_bias=0 / direct=3 / weightb=1 / open_gop=0 / weightp=2 / keyint=240 / keyint_min=23 / scenecut=40 / intra_refresh=0 / rc=2pass / mbtree=0 / bitrate=6093 / ratetol=1.0 / qcomp=0.70 / qpmin=0 / qpmax=69 / qpstep=4 / cplxblur=20.0 / qblur=0.5 / ip_ratio=1.35 / pb_ratio=1.25 / aq=1:0.80 Язык : English Default : Да Forced : Нет Цветовой диапазон : Limited Основные цвета : BT.709 Характеристики трансфера : BT.709 Коэффициенты матрицы : BT.709

Аудио #1 Идентификатор : 2 Формат : AC-3 Формат/Информация : Audio Coding 3 Расширение режима : CM (complete main) Параметр Endianness формата : Big Идентификатор кодека : A_AC3 Продолжительность : 1 ч. 43 м. Вид битрейта : Постоянный Битрейт : 192 Кбит/сек Каналы : 2 канала Расположение каналов : Front: L R Частота : 48,0 КГц Метод сжатия : С потерями Размер потока : 142 Мбайт (2%) Заголовок : Dub | DD 2.0 @ 192 kbps - Ren TV Язык : Russian Default : Да Forced : Нет

Аудио #2 Идентификатор : 3 Формат : AC-3 Формат/Информация : Audio Coding 3 Расширение режима : CM (complete main) Параметр Endianness формата : Big Идентификатор кодека : A_AC3 Продолжительность : 1 ч. 43 м. Вид битрейта : Постоянный Битрейт : 640 Кбит/сек Каналы : 6 каналов Расположение каналов : Front: L C R, Side: L R, LFE Частота : 48,0 КГц Метод сжатия : С потерями Размер потока : 475 Мбайт (8%) Заголовок : DVO | DD 5.1 @ 640 kbps - R5 Язык : Russian Default : Нет Forced : Нет

Аудио #3 Идентификатор : 4 Формат : AC-3 Формат/Информация : Audio Coding 3 Расширение режима : CM (complete main) Параметр Endianness формата : Big Идентификатор кодека : A_AC3 Продолжительность : 1 ч. 43 м. Вид битрейта : Постоянный Битрейт : 192 Кбит/сек Каналы : 2 канала Расположение каналов : Front: L R Частота : 48,0 КГц Метод сжатия : С потерями Размер потока : 142 Мбайт (2%) Заголовок : MVO | DD 2.0 @ 192 kbps - VGTRK Язык : Russian Default : Нет Forced : Нет

Аудио #4 Идентификатор : 5 Формат : AC-3 Формат/Информация : Audio Coding 3 Расширение режима : CM (complete main) Параметр Endianness формата : Big Идентификатор кодека : A_AC3 Продолжительность : 1 ч. 43 м. Вид битрейта : Постоянный Битрейт : 192 Кбит/сек Каналы : 2 канала Расположение каналов : Front: L R Частота : 48,0 КГц Метод сжатия : С потерями Размер потока : 142 Мбайт (2%) Заголовок : MVO | DD 2.0 @ 192 kbps - ICTV Язык : Ukrainian Default : Нет Forced : Нет

Аудио #5 Идентификатор : 6 Формат : AC-3 Формат/Информация : Audio Coding 3 Расширение режима : CM (complete main) Параметр Endianness формата : Big Идентификатор кодека : A_AC3 Продолжительность : 1 ч. 43 м. Вид битрейта : Постоянный Битрейт : 640 Кбит/сек Каналы : 6 каналов Расположение каналов : Front: L C R, Side: L R, LFE Частота : 48,0 КГц Метод сжатия : С потерями Размер потока : 475 Мбайт (8%) Заголовок : Original | DD 5.1 @ 640 kbps Язык : English Default : Нет Forced : Нет

Текст #1 Идентификатор : 7 Формат : UTF-8 Идентификатор кодека : S_TEXT/UTF8 Идентификатор кодека/Информация : UTF-8 Plain Text Язык : Russian Default : Нет Forced : Нет

Текст #2 Идентификатор : 8 Формат : UTF-8 Идентификатор кодека : S_TEXT/UTF8 Идентификатор кодека/Информация : UTF-8 Plain Text Заголовок : Full Язык : English Default : Нет Forced : Нет

Текст #3 Идентификатор : 9 Формат : UTF-8 Идентификатор кодека : S_TEXT/UTF8 Идентификатор кодека/Информация : UTF-8 Plain Text Заголовок : SDH Язык : English Default : Нет Forced : Нет

Меню 00:00:00.000 : :(01)00:00:00:000 00:08:54.659 : :(02)00:08:54:659 00:21:31.164 : :(03)00:21:31:164 00:30:27.242 : :(04)00:30:27:242 00:42:07.399 : :(05)00:42:07:399 00:52:02.702 : :(06)00:52:02:702 01:01:54.961 : :(07)01:01:54:961 01:11:11.100 : :(08)01:11:11:100 01:22:35.658 : :(09)01:22:35:658 01:33:09.292 : :(10)01:33:09:292

piratbit.ru

Скачать фильм Кодекс вора через торрент в хорошем качестве бесплатно BDRip)

Размер: 1.77 GB | Добавлен: 7 лет 11 мес. назад | Торрент скачан:375 раз
Реклама Дарим 3000 рублей за регистрацию, не упусти свой шанс получить шикарный бонус!!!

Кодекс вора / Код / Thick as thieves / The Code

Год выпуска: 2009Страна: СШАЖанр: криминалПродолжительность: 01:43:28Перевод: Профессиональный (многоголосый, закадровый)

Режиссер: Мими Ледер

В ролях: Морган Фриман, Антонио Бандерас, Рада Митчел, Роберт Форстер, Раде Шербеджия, Майкл Хейден, Марсель Юрес, Гари Вернтц, Велизaр Бинев, Энтони Бирн

Описание: Пожилой вор, специализирующийся на краже драгоценностей, берет в напарники менее опытного коллегу, чтобы совершить грандиозное ограбление (речь пойдет о знаменитых яйцах Фаберже) в счет уплаты долга русской мафии

Качество: BDRipФормат: AVIВидео кодек: XviDАудио кодек: AC3Видео: XVID 720x304 25.00fps 1799Kbps [Video 0]Аудио: Dolby AC3 48000Hz 6ch 640Kbps [Audio 1]

Скачать Кодекс вора через торрент http://img11.nnm.ru/6/4/1/7/f/6417f36b8a9bb0cec8a0fbbd749f42ce_full.jpg Скачать фильм Кодекс вора через торрент бесплантно в хорошем качестве Описание: Пожилой вор, специализирующийся на краже драгоценностей, берет в напарники менее опытного коллегу, чтобы совершить грандиозное ... 2009-10-27 13:52 7.8 10 6

Loading...

Loading...

Последний раз редактировалось: tyry999 (2009-10-27 18:48), всего редактировалось 1 раз

Рекламный пират

видел . классный фильм !

Спасибо большое, посмотрим что за фильм!

tyry999Спасибо за фильм!!!Забераю!!!Будет,что на ночь,перед сном посмотреть!!!!! :ad:

AaronCarter1q2w340uklopp

всем большое пожалуйста , скачаете - оставайтесь плиз на раздаче

Что за бредовое название? Фильм называется просто:Код

фильм классный советую

Скачаю Стану на раздачу ( норм скорость ) будет.

Ste1n

пасиб добрый человек...

Pекламный агент PB

Gugevus

ты фильм то хоть смотрел ???

Да действительно фильм называется " Код" . А фильм классный , советую !!!

раздача стоит!качаю второй день и только 39%

ФИЛЬМ ПРОСТО СУПЕР !

Спасибо посмотрим!

Дайте пожалуйста скорости

Дорогой пользователь! Огромная просьба, поблагодарите релизера, оцените раздачу и оставьте свои комментарий, если Вы скачали Кодекс вора через торрент бесплатно! Внесите свою лепту в развитие PiratBit!

Комментировать посты могут только пользователи прошедшие не сложную регистрацию

Кодекс вора через торрент Скачать бесплатно Кодекс вора Кодекс вора скачать торрент Кодекс вора смотреть онлайн Cкачать фильм Кодекс вора бесплатно Кодекс вора скачать торрент в хорошем качестве Кодекс вора смотреть онлайн бесплатно в хорошем качестве

Вы не можете начинать темыВы не можете отвечать на сообщенияВы не можете редактировать свои сообщенияВы не можете удалять свои сообщенияВы не можете голосовать в опросахВы не можете прикреплять файлы к сообщениямВы можете скачивать файлы

piratbit.ru


Смотрите также