Скачать фильм леденец через торрент в хорошем качестве бесплатно


Скачать фильм Леденец через торрент в хорошем качестве бесплатно 720p by msltel] DUB

ОбщееУникальный идентификатор : 219863084791397324143713296395262688605 (0xA56817017DDA4D2E9E7D33099B8EFD5D)Полное имя : D:\Video\Леденец.2005.BDRip.720p.mkvФормат : MatroskaВерсия формата : Version 4 / Version 2Размер файла : 4,53 ГбайтПродолжительность : 1 ч. 44 м.Общий поток : 6225 Кбит/секДата кодирования : UTC 2016-08-22 19:02:32Программа кодирования : mkvmerge v8.2.0 ('World of Adventure') 64bitБиблиотека кодирования : libebml v1.3.1 + libmatroska v1.4.2

ВидеоИдентификатор : 1Формат : AVCФормат/Информация : Advanced Video CodecПрофиль формата : [email protected]Параметр CABAC формата : ДаПараметр ReFrames формата : 9 кадровИдентификатор кодека : V_MPEG4/ISO/AVCПродолжительность : 1 ч. 44 м.Битрейт : 4878 Кбит/секШирина : 1280 пикселейВысота : 550 пикселейСоотношение сторон : 2,35:1Режим частоты кадров : ПостоянныйЧастота кадров : 23,976 (24000/1001) кадра/секЦветовое пространство : YUVСубдискретизация насыщенности : 4:2:0Битовая глубина : 8 битТип развёртки : ПрогрессивнаяБит/(Пиксели*Кадры) : 0.289Размер потока : 3,55 Гбайт (78%)Библиотека кодирования : x264 core 146 r2538 121396cНастройки программы : cabac=1 / ref=9 / deblock=1:-2:-2 / analyse=0x3:0x113 / me=umh / subme=10 / psy=1 / psy_rd=1.00:0.15 / mixed_ref=1 / me_range=32 / chroma_me=1 / trellis=2 / 8x8dct=1 / cqm=0 / deadzone=21,11 / fast_pskip=1 / chroma_qp_offset=-3 / threads=6 / lookahead_threads=1 / sliced_threads=0 / nr=0 / decimate=1 / interlaced=0 / bluray_compat=0 / constrained_intra=0 / bframes=8 / b_pyramid=2 / b_adapt=2 / b_bias=0 / direct=1 / weightb=1 / open_gop=0 / weightp=2 / keyint=230 / keyint_min=23 / scenecut=40 / intra_refresh=0 / rc_lookahead=40 / rc=crf / mbtree=0 / crf=18.5 / qcomp=0.60 / qpmin=0 / qpmax=69 / qpstep=4 / vbv_maxrate=40000 / vbv_bufsize=50000 / crf_max=0.0 / nal_hrd=none / filler=0 / ip_ratio=1.40 / pb_ratio=1.30 / aq=1:1.00Язык : EnglishDefault : ДаForced : Нет

Аудио #1Идентификатор : 2Формат : AC-3Формат/Информация : Audio Coding 3Расширение режима : CM (complete main)Параметр Endianness формата : BigИдентификатор кодека : A_AC3Продолжительность : 1 ч. 44 м.Вид битрейта : ПостоянныйБитрейт : 448 Кбит/секКаналы : 6 каналовРасположение каналов : Front: L C R, Side: L R, LFEЧастота : 48,0 КГцЧастота кадров : 31,250 кадров/сек (1536 spf)Метод сжатия : С потерямиРазмер потока : 334 Мбайт (7%)Заголовок : DUBЯзык : RussianDefault : ДаForced : Нет

Аудио #2Идентификатор : 3Формат : AC-3Формат/Информация : Audio Coding 3Расширение режима : CM (complete main)Параметр Endianness формата : BigИдентификатор кодека : A_AC3Продолжительность : 1 ч. 44 м.Вид битрейта : ПостоянныйБитрейт : 448 Кбит/секКаналы : 6 каналовРасположение каналов : Front: L C R, Side: L R, LFEЧастота : 48,0 КГцЧастота кадров : 31,250 кадров/сек (1536 spf)Метод сжатия : С потерямиРазмер потока : 334 Мбайт (7%)Заголовок : AVO (Алексей Матвеев (Doctor Joker))Язык : RussianDefault : НетForced : Нет

Аудио #3Идентификатор : 4Формат : AC-3Формат/Информация : Audio Coding 3Расширение режима : CM (complete main)Параметр Endianness формата : BigИдентификатор кодека : A_AC3Продолжительность : 1 ч. 44 м.Вид битрейта : ПостоянныйБитрейт : 448 Кбит/секКаналы : 6 каналовРасположение каналов : Front: L C R, Side: L R, LFEЧастота : 48,0 КГцЧастота кадров : 31,250 кадров/сек (1536 spf)Метод сжатия : С потерямиРазмер потока : 334 Мбайт (7%)Заголовок : originalЯзык : EnglishDefault : НетForced : Нет

Текст #1Идентификатор : 5Формат : UTF-8Идентификатор кодека : S_TEXT/UTF8Идентификатор кодека/Информация : UTF-8 Plain TextПродолжительность : 1 ч. 39 м.Битрейт : 91 бит/секCount of elements : 1039Размер потока : 66,9 Кбайт (0%)Заголовок : русскиеЯзык : RussianDefault : НетForced : Нет

Текст #2Идентификатор : 6Формат : UTF-8Идентификатор кодека : S_TEXT/UTF8Идентификатор кодека/Информация : UTF-8 Plain TextПродолжительность : 1 ч. 36 м.Битрейт : 59 бит/секCount of elements : 1042Размер потока : 41,7 Кбайт (0%)Заголовок : английскиеЯзык : EnglishDefault : НетForced : Нет

piratbit.ru

Леденец 2005 - скачать бесплатно через торрент в хорошем качестве. Без регистрации

Название: Леденец / Hard Candy (2005) HDRip от MegaPeer | A
Качество видео: HDRip
Перевод: Авторский (одноголосый, закадровый) | Алексей Матвеев
Формат видео: AVI
Видео: XviD, 704x304, 23.976 fps, 1555 kbps
Аудио: AC3, 6 ch, 448 kbps
Скачать

Загрузка начнется в течение 5 сек.

1.46 GB

Название: Леденец / Hard Candy (2005) BDRip-AVC от R.G. HD-Films | 60 fps
Качество видео: BDRip-AVC 60fps
Перевод: Дубляж
Формат видео: MKV
Видео: AVC, 1024x440 (2.35:1), 4000 kbps, 59,940 fps, 0,148 bpp
Аудио: AC3 / 5.1 / 48 kHz / 640 kbps / 16 bit
Скачать

Загрузка начнется в течение 5 сек.

3.37 GB

Название: Леденец / Hard Candy (2005) BDRip 1080p | A
Качество видео: BDRip 1080p
Перевод: Авторский (одноголосый закадровый) - А. Матвеев
Формат видео: MKV
Видео: MPEG4/AVC, 10.8 Мбит/сек, 1920х826 (2.35:1), 23.976 кадра/сек
Аудио: AC3, 6 каналов, 448 Кбит/сек | РусскийDTS, 6 каналов, 1509 Кбит/сек | РусскийDTS, 6 каналов, 1509 Кбит/сек | Английский
Скачать

Загрузка начнется в течение 5 сек.

10.61 GB

Название: Леденец / Hard Candy (2005) BDRip-AVC от MediaClub | D
Качество видео: BDRip-AVC
Перевод: Дублированный, украинский
Видео: MPEG-4 AVC 3200 Кбит/с, 1024x440, 25.000 кадр/с
Аудио: Русский (AC3, 6 ch, 448 Кбит/с) / Профессиональный многоголосыйАнглийский (AC3, 6 ch, 448 Кбит/с)
Скачать

Загрузка начнется в течение 5 сек.

3.17 GB

Название: Леденец / Hard Candy (2005) BDRip 1080p | D
Качество видео: BDRip [1080p]
Перевод: Русский дублированный
Видео: H.264 1896x816 (2.35:1) at 23.976 fps, AVC at 13200 kbps
Аудио: 1: АС3 5.1 640 kbps - Русский дублированный
Скачать

Загрузка начнется в течение 5 сек.

10.71 GB

Название: Леденец / Hard Candy (2005) BDRip-AVC | iPad | D
Качество видео: BDRip-AVC [576p]
Перевод: Русский дублированный
Видео: H.264 1024x436 (2.35:1) at 23.976 fps, AVC at 3000 kbps
Аудио: 1: АAС 2.0 137 kbps - Русский дублированный
Скачать

Загрузка начнется в течение 5 сек.

2.40 GB

Название: Леденец / Hard Candy (2005) BDRip 720p от HQ-ViDEO
Качество видео: BDRip 720p (Исходник: Blu-ray Disc)
Перевод: Русский дублированный перевод + Оригинальная английская дорожка
Формат видео: MKV; MPEG-4 AVC; H.264 codec
Видео: 1280 x 544; 23.976 fps; 4990 kbps; 0.299 bit/pixel
Аудио: Russian AC3 Dolby Digital; 448 kbps; 5.1 Ch; 48 kHzEnglish AC3 Dolby Digital; 448 kbps; 5.1 Ch; 48 kHz
Скачать

Загрузка начнется в течение 5 сек.

4.37 GB

Название: Леденец / Hard Candy (2005) BDRip 720p
Качество видео: BDRip 720p
Перевод: Профессиональный (полное дублирование)
Видео: MKV 1280x552, 4497 kbps, 23.976 fps
Аудио: Russian: DTS 5.1, 48 KHz, 1536 kbpsEnglish: DTS 5.1, 48 KHz, 1536 kbps
Скачать

Загрузка начнется в течение 5 сек.

5.47 GB

www.kinovit.net

Скачать фильм Леденец через торрент в хорошем качестве бесплатно 1080p

GeneralUnique ID                   : 248390195900638357470919664136972545009 (0xBADE362C9448948982DBA0EF59A22BF1)Complete name               : E:\торрент\Hard.Candy.2005.BDRip.1080p.D.mkvFormat                      : MatroskaFormat version              : Version 4 / Version 2File size                   : 10.7 GiBDuration                    : 1h 43mnOverall bit rate            : 14.8 MbpsMovie name                  : Hard Candy (2005)Encoded date                : UTC 2014-05-02 12:11:20Writing application         : mkvmerge v6.9.1 ('Blue Panther') 32bit built on Apr 18 2014 18:15:44Writing library             : libebml v1.3.0 + libmatroska v1.4.1Attachements                : cover.jpg

VideoID                          : 1Format                      : AVCFormat/Info                 : Advanced Video CodecFormat profile              : [email protected] settings, CABAC      : YesFormat settings, ReFrames   : 4 framesCodec ID                    : V_MPEG4/ISO/AVCDuration                    : 1h 43mnBit rate                    : 13.2 MbpsWidth                       : 1 896 pixelsHeight                      : 816 pixelsDisplay aspect ratio        : 2.35:1Frame rate mode             : ConstantFrame rate                  : 23.976 fpsColor space                 : YUVChroma subsampling          : 4:2:0Bit depth                   : 8 bitsScan type                   : ProgressiveBits/(Pixel*Frame)          : 0.356Stream size                 : 9.57 GiB (89%)Title                       : Hard Candy (2005)Writing library             : x264 core 142 r2409 d6b4e63Encoding settings           : cabac=1 / ref=4 / deblock=1:-3:-3 / analyse=0x3:0x133 / me=tesa / subme=11 / psy=1 / psy_rd=1.00:0.15 / mixed_ref=1 / me_range=48 / chroma_me=1 / trellis=2 / 8x8dct=1 / cqm=0 / deadzone=21,11 / fast_pskip=0 / chroma_qp_offset=-3 / threads=18 / lookahead_threads=3 / sliced_threads=0 / nr=0 / decimate=0 / interlaced=0 / bluray_compat=0 / constrained_intra=0 / bframes=8 / b_pyramid=2 / b_adapt=2 / b_bias=0 / direct=3 / weightb=1 / open_gop=0 / weightp=2 / keyint=250 / keyint_min=23 / scenecut=40 / intra_refresh=0 / rc=crf / mbtree=0 / crf=18.0 / qcomp=0.65 / qpmin=0 / qpmax=69 / qpstep=4 / ip_ratio=1.40 / pb_ratio=1.25 / aq=1:0.90Language                    : EnglishDefault                     : YesForced                      : NoColor range                 : LimitedColor primaries             : BT.709

Audio #1ID                          : 2Format                      : AC-3Format/Info                 : Audio Coding 3Mode extension              : CM (complete main)Format settings, Endianness : BigCodec ID                    : A_AC3Duration                    : 1h 43mnBit rate mode               : ConstantBit rate                    : 640 KbpsChannel(s)                  : 6 channelsChannel positions           : Front: L C R, Side: L R, LFESampling rate               : 48.0 KHzCompression mode            : LossyStream size                 : 475 MiB (4%)Title                       : DubLanguage                    : RussianDefault                     : YesForced                      : No

Audio #2ID                          : 3Format                      : AC-3Format/Info                 : Audio Coding 3Mode extension              : CM (complete main)Format settings, Endianness : BigCodec ID                    : A_AC3Duration                    : 1h 43mnBit rate mode               : ConstantBit rate                    : 640 KbpsChannel(s)                  : 6 channelsChannel positions           : Front: L C R, Side: L R, LFESampling rate               : 48.0 KHzCompression mode            : LossyStream size                 : 475 MiB (4%)Title                       : OriginalLanguage                    : EnglishDefault                     : NoForced                      : No

Menu00:00:00.000                : en:00:00:00.00000:01:44.438                : en:00:01:44.43800:05:15.482                : en:00:05:15.48200:10:11.027                : en:00:10:11.02700:14:02.633                : en:00:14:02.63300:17:12.657                : en:00:17:12.65700:19:53.567                : en:00:19:53.56700:25:31.697                : en:00:25:31.69700:29:38.276                : en:00:29:38.27600:33:23.919                : en:00:33:23.91900:36:44.702                : en:00:36:44.70200:38:41.236                : en:00:38:41.23600:43:24.018                : en:00:43:24.01800:46:27.576                : en:00:46:27.57600:50:32.363                : en:00:50:32.36300:54:25.429                : en:00:54:25.42900:59:54.257                : en:00:59:54.25701:02:55.438                : en:01:02:55.43801:07:46.604                : en:01:07:46.60401:12:11.494                : en:01:12:11.49401:16:18.783                : en:01:16:18.78301:19:25.052                : en:01:19:25.05201:22:01.625                : en:01:22:01.62501:26:34.106                : en:01:26:34.10601:30:10.363                : en:01:30:10.36301:35:35.939                : en:01:35:35.93901:38:16.474                : en:01:38:16.47401:40:11.797                : en:01:40:11.797

piratbit.ru

Скачать фильм Брайтонский леденец через торрент в хорошем качестве бесплатно HDRip

Размер: 1.37 GB | Добавлен: 4 года 5 мес. назад | Торрент скачан:34 раза
Реклама Дарим 3000 рублей за регистрацию, не упусти свой шанс получить шикарный бонус!!!

25-05-2013 09:37 Брайтонский леденец Скачать торрент  

Брайтонский леденец / Brighton Rock

Год выпуска: 2010Страна: ВеликобританияЖанр: триллер, драма, криминал,Продолжительность: 111 мин. / 01:51Перевод: Любительский одноголосый

Режиссер: Роуэн ЖоффеПродюссер: Пол Уэбстер, Дженни Боргарс, Уилл КларкСценарий: Роуэн Жоффе, Грэм Грин

Бюджет: $12 000 000Премьера в мире: 13 сентября 2010

IMDB 5.70 (3 394)

В ролях: Сэм Райли, Андреа Райзборо, Хелен Миррен, Джон Хёрт, Филип Дэвис, Нонсо Анози, Крэйг Паркинсон, Энди Серкис, Шон Харрис, Джофф Белл,

Описание: Мелкий хулиган собирается жениться на официантке, которая может доказать, что тот замешан в убийстве местного головореза.

Качество: HDRipФормат: AVIВидео кодек: XviDАудио кодек: AC3Видео: 720x304 (2.37:1), 23.976 fps, XviD MPEG-4 ~1367 kbps avg, 0.26 bit/pixelАудио#1: 48 kHz, AC3 Dolby Digital, 3/2 (L,C,R,l,r) + LFE ch, ~384 kbpsРелиз от: xGhost

Брайтонский леденец скачать торрент

Скачать Брайтонский леденец через торрент http://i30.fastpic.ru/big/2011/0831/6d/8938642f0b40df0507f1b8658a11fa6d.jpg Скачать фильм Брайтонский леденец через торрент бесплантно в хорошем качестве Описание: Мелкий хулиган собирается жениться на официантке, которая может доказать, что тот замешан в убийстве местного ... 2013-05-25 09:37 9.7 10 3

Loading...

Loading...

Рекламный пират

Дорогой пользователь! Огромная просьба, поблагодарите релизера, оцените раздачу и оставьте свои комментарий, если Вы скачали Брайтонский леденец через торрент бесплатно! Внесите свою лепту в развитие PiratBit!

Комментировать посты могут только пользователи прошедшие не сложную регистрацию

Брайтонский леденец через торрент Скачать бесплатно Брайтонский леденец Брайтонский леденец скачать торрент Брайтонский леденец смотреть онлайн Cкачать фильм Брайтонский леденец бесплатно Брайтонский леденец скачать торрент в хорошем качестве Брайтонский леденец смотреть онлайн бесплатно в хорошем качестве

Вы не можете начинать темыВы не можете отвечать на сообщенияВы не можете редактировать свои сообщенияВы не можете удалять свои сообщенияВы не можете голосовать в опросахВы не можете прикреплять файлы к сообщениямВы можете скачивать файлы

piratbit.ru

Скачать фильм Твердые леденцы через торрент в хорошем качестве бесплатно HDRip

Размер: 1.36 GB | Добавлен: 5 лет 3 мес. назад | Торрент скачан:411 раз
Реклама Дарим 3000 рублей за регистрацию, не упусти свой шанс получить шикарный бонус!!!

13-07-2012 20:10 Твердые леденцы Скачать торрент  

[img=right]http:// СПАМТвердые леденцы / Hard Boiled SweetsГод выпуска: 2012Страна: Великобритания, Fatal BlackЖанр: триллер, криминалПродолжительность: 01:24:30Перевод: Любительский (одноголосый) [xixidok]

Режиссер: Дэвид Хьюз

В ролях: Фил Барантини, Элизабет Беррингтон, Адриан Бауэр, Лиз Мэй, Брайс Пол, Фримен Ти, Глейсер Лора, Гринвуд Иэн, Харт Натаниэль, Мартелло-Уайт, Дэнни Сапани

Описание: Бывший уголовник Джонни, вынужден участвовать в ограбление Босса мафии, который держит в доме миллионы на черный день. Но он не знает, что на деньги Босса имеют виды еще 7 преступников...

Доп. информация: Качество: HDRipФормат: AVIВидео кодек: XviDАудио кодек: MP3 Видео: 1945 Kb/s, 720x304,23,976 fpsАудио#1: Russian: MP3 , 128 Kb/s (2 ch),48,0 KhzАудио#2: English: AC3, 224 Kb/s (6 ch),48,0 Khz Скачать Твердые леденцы через торрент http://imdb.snick.ru/ratefor/02/tt1711458.png Скачать фильм Твердые леденцы через торрент бесплантно в хорошем качестве Описание: Бывший уголовник Джонни, вынужден участвовать в ограбление Босса мафии, который держит в доме миллионы на черный день. Но он не ... 2012-07-13 20:10 4.6 10 21

Loading...

Loading...

Рекламный пират

14-07-2012 09:46 Твердые леденцы Скачать торрент  

По сюжету вроде не чего

24-07-2012 15:09 Твердые леденцы Скачать торрент  

полнейшее!!!!!!!

25-07-2012 12:19 Твердые леденцы Скачать торрент  

Неплохой фильмец)

27-07-2012 16:12 Твердые леденцы Скачать торрент  

.....авно полнейшее!!!

27-07-2012 16:31 Твердые леденцы Скачать торрент  

...авницо - ...авнище беспантовейшее {*/ НЕЦЕНЗУРНАЯ БРАНЬ /*}

28-07-2012 16:26 Твердые леденцы Скачать торрент  

согласен на все 100

Дорогой пользователь! Огромная просьба, поблагодарите релизера, оцените раздачу и оставьте свои комментарий, если Вы скачали Твердые леденцы через торрент бесплатно! Внесите свою лепту в развитие PiratBit!

Комментировать посты могут только пользователи прошедшие не сложную регистрацию

Твердые леденцы через торрент Скачать бесплатно Твердые леденцы Твердые леденцы скачать торрент Твердые леденцы смотреть онлайн Cкачать фильм Твердые леденцы бесплатно Твердые леденцы скачать торрент в хорошем качестве Твердые леденцы смотреть онлайн бесплатно в хорошем качестве

Вы не можете начинать темыВы не можете отвечать на сообщенияВы не можете редактировать свои сообщенияВы не можете удалять свои сообщенияВы не можете голосовать в опросахВы не можете прикреплять файлы к сообщениямВы можете скачивать файлы

piratbit.ru


Смотрите также