Скачать фильм повар на колесах в хорошем качестве через торрент


Скачать торрент Повар на колесах / Chef (2014) BDRip 1080p

Информация о фильмеНазвание: Повар на колесахОригинальное название: ChefГод выхода: 2014Жанр: комедия, драма, семейныйРежиссер: Джон ФавроВ ролях: Джон Фавро, Джон Легуизамо, Бобби Каннавале, Эмджей Энтони, Скарлетт Йоханссон, Дастин Хоффман, София Вергара, Оливер Платт, Эми Седарис, Роберт Дауни мл.

О фильме: Сюжет фильма разворачивается вокруг шеф-повара Карла Каспера, потерявшего работу в известном ресторане Лос-Анджелеса. Карл решает открыть свою закусочную на колесах, чтобы отыскать потерянное кулинарное вдохновение и попутно наладить отношения с семьей.

Выпущено: Open Road Films, StudioCanalПродолжительность: 01:55:05Перевод: Дублированный (R5) + украинский профессиональный многоголосый закадровый (Цікава ідея)

ФайлКодек: x264Качество: BDRip (источник: Blu-ray Disc)Видео: 1920x800 (2,40:1), 23.976 fps, 8315 kbpsАудио #1: AC-3, 6 ch, 448 kbps (Rus)Аудио #2: AC-3, 6 ch, 448 kbps (Ukr)Аудио #3: AC-3, 6 ch, 448 kbps (Eng)Субтитры: АнглийскиеСкачать: сэмпл

Скриншоты

MI

General Unique ID : 178702248857272913291233822481342043160 (0x8670CD1CC6FA9926B8BCE30ECC309418) Complete name : D:Chef.2014.BDRip.1080p.Rus.Ukr.Eng.mkv Format : Matroska Format version : Version 2 File size : 7.77 GiB Duration : 1h 55mn Overall bit rate : 9 660 Kbps Movie name : Повар на колесах / Chef (2014) Encoded date : UTC 2015-06-19 10:26:59 Writing application : mkvmerge v5.8.0 ('No Sleep / Pillow') built on Sep 2 2012 15:37:04 Writing library : libebml v1.2.3 + libmatroska v1.3.0 Attachements : cover.png / logfile.log

Video ID : 1 Format : AVC Format/Info : Advanced Video Codec Format profile : [email protected] Format settings, CABAC : Yes Format settings, ReFrames : 5 frames Codec ID : V_MPEG4/ISO/AVC Duration : 1h 55mn Bit rate : 8 315 Kbps Width : 1 920 pixels Height : 800 pixels Display aspect ratio : 2.40:1 Frame rate mode : Constant Frame rate : 23.976 fps Color space : YUV Chroma subsampling : 4:2:0 Bit depth : 8 bits Scan type : Progressive Bits/(Pixel*Frame) : 0.226 Stream size : 6.53 GiB (84%) Title : Повар на колесах / Chef (2014) Writing library : x264 core 146 r0+2586 e393126 t_mod_Custom [[email protected] X86_64] Encoding settings : cabac=1 / ref=5 / deblock=1:-3:-3 / analyse=0x3:0x133 / me=umh / subme=11 / psy=1 / fade_compensate=0.00 / psy_rd=1.05:0.00 / mixed_ref=1 / me_range=32 / chroma_me=1 / trellis=2 / 8x8dct=1 / cqm=0 / deadzone=21,11 / fast_pskip=0 / chroma_qp_offset=-2 / threads=12 / lookahead_threads=3 / sliced_threads=0 / nr=0 / decimate=1 / interlaced=0 / bluray_compat=0 / constrained_intra=0 / fgo=0 / bframes=10 / b_pyramid=2 / b_adapt=2 / b_bias=0 / direct=3 / weightb=1 / open_gop=0 / weightp=2 / keyint=240 / keyint_min=23 / scenecut=40 / intra_refresh=0 / rc=2pass / mbtree=0 / bitrate=8315 / ratetol=1.0 / qcomp=0.70 / qpmin=0:0:0 / qpmax=69:69:69 / qpstep=4 / cplxblur=20.0 / qblur=0.5 / ip_ratio=1.40 / pb_ratio=1.30 / aq=1:0.70 / aq-sensitivity=10.00 / aq-factor=1.00:1.00:1.00 / aq2=0 / aq3=0 Language : English Default : Yes Forced : No

Audio #1 ID : 2 Format : AC-3 Format/Info : Audio Coding 3 Mode extension : CM (complete main) Format settings, Endianness : Big Codec ID : A_AC3 Duration : 1h 55mn Bit rate mode : Constant Bit rate : 448 Kbps Channel(s) : 6 channels Channel positions : Front: L C R, Side: L R, LFE Sampling rate : 48.0 KHz Bit depth : 16 bits Compression mode : Lossy Stream size : 369 MiB (5%) Title : Дубляж, R5 Language : Russian Default : Yes Forced : No

Audio #2 ID : 3 Format : AC-3 Format/Info : Audio Coding 3 Mode extension : CM (complete main) Format settings, Endianness : Big Codec ID : A_AC3 Duration : 1h 55mn Bit rate mode : Constant Bit rate : 448 Kbps Channel(s) : 6 channels Channel positions : Front: L C R, Side: L R, LFE Sampling rate : 48.0 KHz Bit depth : 16 bits Compression mode : Lossy Stream size : 369 MiB (5%) Title : Многоголосый закадровый, Цікава ідея Language : Ukrainian Default : No Forced : No

Audio #3 ID : 4 Format : AC-3 Format/Info : Audio Coding 3 Mode extension : CM (complete main) Format settings, Endianness : Big Codec ID : A_AC3 Duration : 1h 55mn Bit rate mode : Constant Bit rate : 448 Kbps Channel(s) : 6 channels Channel positions : Front: L C R, Side: L R, LFE Sampling rate : 48.0 KHz Bit depth : 16 bits Compression mode : Lossy Stream size : 369 MiB (5%) Title : English Language : English Default : No Forced : No

Text #1 ID : 5 Format : UTF-8 Codec ID : S_TEXT/UTF8 Codec ID/Info : UTF-8 Plain Text Title : English Language : English Default : No Forced : No

Text #2 ID : 6 Format : UTF-8 Codec ID : S_TEXT/UTF8 Codec ID/Info : UTF-8 Plain Text Title : English (SDH) Language : English Default : No Forced : No

Text #3 ID : 7 Format : UTF-8 Codec ID : S_TEXT/UTF8 Codec ID/Info : UTF-8 Plain Text Title : English (SDH Colored) Language : English Default : No Forced : No

Menu 00:00:00.000 : :Chapter 01 00:05:58.191 : :Chapter 02 00:10:36.093 : :Chapter 03 00:16:00.250 : :Chapter 04 00:20:53.585 : :Chapter 05 00:26:59.117 : :Chapter 06 00:34:49.212 : :Chapter 07 00:39:53.182 : :Chapter 08 00:44:51.480 : :Chapter 09 00:51:39.471 : :Chapter 10 00:56:15.413 : :Chapter 11 01:00:43.222 : :Chapter 12 01:07:25.041 : :Chapter 13 01:13:37.663 : :Chapter 14 01:19:37.355 : :Chapter 15 01:27:21.694 : :Chapter 16 01:33:31.981 : :Chapter 17 01:40:11.296 : :Chapter 18 01:44:13.205 : :Chapter 19 01:48:41.890 : :Chapter 20

x264

x264 [info]: frame I:1379 Avg QP:13.73 size:247048 x264 [info]: frame P:35396 Avg QP:15.96 size: 80733 x264 [info]: frame B:128801 Avg QP:18.04 size: 30869 x264 [info]: consecutive B-frames: 1.9% 3.2% 9.4% 12.0% 16.0% 52.2% 3.6% 0.5% 0.5% 0.3% 0.4%

krutor.org

Скачать фильм Повар на колесах через торрент в хорошем качестве бесплатно 1080p

GeneralUnique ID                                : 244158760260518482124748249338120933761 (0xB7AF444A3023824BB3B4FFEAA5CE9181)Complete name                            : E:\Повар на колесах (2014) 1080p BDRip.mkvFormat                                   : MatroskaFormat version                           : Version 4 / Version 2File size                                : 10.6 GiBDuration                                 : 1h 49mnOverall bit rate                         : 13.8 MbpsMovie name                               : SeedtankEncoded date                             : UTC 2014-10-11 19:42:46Writing application                      : mkvmerge v6.9.1 ('Blue Panther') 64bit built on Apr 18 2014 18:23:38Writing library                          : libebml v1.3.0 + libmatroska v1.4.1Attachment                               : Yes

VideoID                                       : 1Format                                   : AVCFormat/Info                              : Advanced Video CodecFormat profile                           : [email protected] settings, CABAC                   : YesFormat settings, ReFrames                : 5 framesCodec ID                                 : V_MPEG4/ISO/AVCDuration                                 : 1h 49mnBit rate                                 : 11.6 MbpsWidth                                    : 1 920 pixelsHeight                                   : 800 pixelsDisplay aspect ratio                     : 2.40:1Frame rate                               : 25.000 fpsColor space                              : YUVChroma subsampling                       : 4:2:0Bit depth                                : 8 bitsScan type                                : ProgressiveBits/(Pixel*Frame)                       : 0.301Stream size                              : 8.88 GiB (84%)Writing library                          : x264 core 142 r2479 dd79a61Encoding settings                        : cabac=1 / ref=5 / deblock=1:-3:-3 / analyse=0x3:0x133 / me=umh / subme=10 / psy=1 / psy_rd=1.03:0.00 / mixed_ref=1 / me_range=48 / chroma_me=1 / trellis=2 / 8x8dct=1 / cqm=0 / deadzone=21,11 / fast_pskip=1 / chroma_qp_offset=-2 / threads=6 / lookahead_threads=1 / sliced_threads=0 / nr=0 / decimate=1 / interlaced=0 / bluray_compat=0 / constrained_intra=0 / bframes=8 / b_pyramid=2 / b_adapt=2 / b_bias=0 / direct=3 / weightb=1 / open_gop=0 / weightp=2 / keyint=250 / keyint_min=25 / scenecut=40 / intra_refresh=0 / rc_lookahead=150 / rc=crf / mbtree=0 / crf=16.4 / qcomp=0.75 / qpmin=0 / qpmax=69 / qpstep=4 / vbv_maxrate=50000 / vbv_bufsize=62500 / crf_max=0.0 / nal_hrd=none / filler=0 / ip_ratio=1.20 / pb_ratio=1.10 / aq=1:0.75Language                                 : EnglishDefault                                  : YesForced                                   : No

Audio #1ID                                       : 2Format                                   : AC-3Format/Info                              : Audio Coding 3Mode extension                           : CM (complete main)Codec ID                                 : A_AC3Duration                                 : 1h 49mnBit rate mode                            : ConstantBit rate                                 : 448 KbpsChannel(s)                               : 6 channelsChannel positions                        : Front: L C R, Side: L R, LFESampling rate                            : 48.0 KHzBit depth                                : 16 bitsCompression mode                         : LossyStream size                              : 352 MiB (3%)Language                                 : RussianDefault                                  : YesForced                                   : No

Audio #2ID                                       : 3Format                                   : DTSFormat/Info                              : Digital Theater SystemsCodec ID                                 : A_DTSDuration                                 : 1h 49mnBit rate mode                            : ConstantBit rate                                 : 1 510 KbpsChannel(s)                               : 6 channelsChannel positions                        : Front: L C R, Side: L R, LFESampling rate                            : 48.0 KHzBit depth                                : 24 bitsCompression mode                         : LossyStream size                              : 1.16 GiB (11%)Language                                 : EnglishDefault                                  : NoForced                                   : No

Menu00:00:00.000                             : :00:00:00.00000:05:20.520                             : :00:05:20.52000:10:36.520                             : :00:10:36.52000:16:33.080                             : :00:16:33.08000:19:57.520                             : :00:19:57.52000:25:29.800                             : :00:25:29.80000:33:00.640                             : :00:33:00.64000:39:24.720                             : :00:39:24.72000:47:09.800                             : :00:47:09.80000:51:40.560                             : :00:51:40.56000:57:51.000                             : :00:57:51.00001:04:16.360                             : :01:04:16.36001:13:13.000                             : :01:13:13.00001:20:26.760                             : :01:20:26.76001:26:05.200                             : :01:26:05.20001:33:08.160                             : :01:33:08.16001:39:34.080                             : :01:39:34.08001:43:51.760                             : :01:43:51.760

piratbit.ru

Скачать фильм Повар на колесах (2014) через торрент

16 февраля 2016 12:47 Повар на колесах / Chef (2014) BDRip 1080p | Лицензия .torrent   [Информация о файле (нажмите для просмотра)] Перевод: Дублированный (R5) + украинский профессиональный многоголосый закадровый (Цікава ідея)Кодек: x264Качество: BDRip (источник: Blu-ray Disc)Видео: 1920x800 (2,40:1), 23.976 fps, 8315 kbpsАудио #1: AC-3, 6 ch, 448 kbps (Rus)Аудио #2: AC-3, 6 ch, 448 kbps (Ukr)Аудио #3: AC-3, 6 ch, 448 kbps (Eng)Субтитры: Английские 7,77 Gb 64 5 16 февраля 2016 12:47 Повар на колесах / Chef (2014) BDRip от HQCLUB | D | Лицензия .torrent   [Информация о файле (нажмите для просмотра)] Перевод: Профессиональный (полное дублирование)R5Субтитры: английские (полные, полные SDH, полные SDH цветные)Формат: AVIКачество: BDRip (источник / Blu-ray Disс / 1080p)Видео: 720x304 (2.37:1), 23.976 fps, XviD build 65 ~1813 kbps avg, 0.34 bit/pixelАудио #1: 48 kHz, AC3 Dolby Digital, 3/2 (L,C,R,l,r) + LFE ch, ~448 kbps avg (DUB)Аудио #2: 48 kHz, AC3 Dolby Digital, 3/2 (L,C,R,l,r) + LFE ch, ~448 kbps avg (ENG)Аудио #3: 48 kHz, AC3 Dolby Digital, 3/2 (L,C,R,l,r) + LFE ch, ~448 kbps avg (UKR.MVO)(отдельно) 2,18 Gb 23 10 16 февраля 2016 12:47 Повар на колесах / Chef (2014) BDRip 720p от Leonardo and Scarabey | Лицензия .torrent   [Информация о файле (нажмите для просмотра)] Перевод: Профессиональный (полное дублирование) ЛицензияФормат: MKVВидео кодек: MPEG-4 AVC Аудио кодек: AC3Видео: AVC, 1280x534 (2.40:1) at 25.000 fps, AVC at 2530 kbps avg, 0.148 bit/pixelАудио: 48 kHz; AC3 Dolby Digital; 3/2 (L,C,R,l,r) + LFE ch; 448 kbps avg 2,33 Gb 95 7 16 февраля 2016 12:47 Повар на колесах / Chef (2014) DVD5 от New-Team | D | Лицензия .torrent   [Информация о файле (нажмите для просмотра)] Перевод: Профессиональный (полное дублирование)Кодек: MPEG2Качество: DVD5Видео: PAL 16:9 (720x576) VBR ~ 5553.98 kbps avgЗвук: Русский DD 5.1 (448Kbps) 4,3 Gb 18 1 16 февраля 2016 12:47 Повар на колесах / Chef (2014) HDRip от Scarabey | Лицензия .torrent   [Информация о файле (нажмите для просмотра)] Перевод: Профессиональный (полное дублирование) - ЛицензияВидео: 720x304 (2.37:1), 25 fps, XviD build 73 ~1430 kbps avg, 0.26 bit/pixelАудио: 48 kHz, AC3 Dolby Digital, 3/2 (L,C,R,l,r) + LFE ch, ~448 kbps 1,45 Gb 284 8 16 февраля 2016 12:47 Повар на колесах / Chef (2014) HDRip от Scarabey | Лицензия .torrent   [Информация о файле (нажмите для просмотра)] Перевод: Профессиональный (полное дублирование) - ЛицензияВидео: 688x288 (2.39:1), 25 fps, XviD build 73 ~811 kbps avg, 0.16 bit/pixelАудио: 48 kHz, MPEG Layer 3, 2 ch, ~128.00 kbps avg 746,38 Mb 20 4 16 февраля 2016 12:47 Повар на колесах / Chef (2014) Blu-Ray Remux 1080p от KinoRay | D | Лицензия .torrent   [Информация о файле (нажмите для просмотра)] Перевод: Дублированный (R5)Кодек: MPEG-4 AVCКачество: Blu-Ray Remux (1080p)Видео: 1920x1080, 23990 Кбит/cЗвук: Русский (AC3, 6 ch, 448 Кбит/с), английский (DTS-HD MA, 6 ch, 2194 Кбит/c)Субтитры: Английские 20,35 Gb 7 1 16 февраля 2016 12:47 Повар на колесах / Chef (2014) BDRip 720p от KinoRay | D | Лицензия .torrent   [Информация о файле (нажмите для просмотра)] Перевод: Дублированный (R5)Кодек: MPEG-4 AVCКачество: BDRip (720p)Видео: 1280x534, 5014 Кбит/сЗвук: Русский (AC3, 6 ch, 448 Кбит/с), английский (DTS, 6 ch, 1510 Кбит/с) 5,35 Gb 95 1 16 февраля 2016 12:47 Повар на колесах / Chef (2014) HDRip-AVC от ExKinoRay | Лицензия .torrent   [Информация о файле (нажмите для просмотра)] Качество: HDRip (AVC)Видео: MPEG-4 AVC, 1386 Кбит/с, 1024x426Аудио: Русский, английский (AC3, 6 ch, 448 Кбит/с)Перевод: Дублированный [Лицензия R5] 1,75 Gb 35 1 16 февраля 2016 12:47 Повар на колесах / Chef (2014) BDRip 1080p от KinoRay .torrent   [Информация о файле (нажмите для просмотра)] Перевод: Профессиональный (полное дублирование) R5Субтитры: АнглийскиеФормат: MatroskaВидео: 1920x800 at 25 fps, [email protected], ~11900 kbps avg 10,9 Gb 43 9 16 февраля 2016 12:47 Повар на колесах / Chef (2014) BDRip-AVC от HELLYWOOD | Лицензия .torrent   [Информация о файле (нажмите для просмотра)] Перевод: Профессиональный (дублированный) [лицензия R5]Субтитры: Английские, английские (SDH)Качество: BDRip-AVCФормат: MKVВидео: х.264, 960x400 (2,40:1), 25,000 fps, 1518 kbps, 0.158 bit/pixelАудио: 48 kHz, AC3 Dolby Digital, 3/2 (L,C,R,l,r) + LFE ch, 448.00 kbps 1,51 Gb 11 2 16 февраля 2016 12:47 Повар на колесах / Chef (2014) BDRip-AVC от HELLYWOOD | Лицензия .torrent   [Информация о файле (нажмите для просмотра)] Перевод: Профессиональный (дублированный) [лицензия R5]Субтитры: Английские, английские (SDH)Качество: BDRip-AVCФормат: MKVВидео: х.264, 1032x430 (2,40:1), 25,000 fps, 2007 kbps, 0.181 bit/pixelАудио#1: 48 kHz, AC3 Dolby Digital, 3/2 (L,C,R,l,r) + LFE ch, 448.00 kbps |RUSАудио#2: 48 kHz, AC3 Dolby Digital, 3/2 (L,C,R,l,r) + LFE ch, 384.00 kbps |ENG 2,18 Gb 103 5 16 февраля 2016 12:47 Повар на колесах / Chef (2014) BDRip-AVC от Leo.pard and Scarabey | НТВ .torrent   [Информация о файле (нажмите для просмотра)] Перевод: Профессиональный (дублированный) НТВ+Формат: MKVВидео: x264, 784x328 (2.40:1), 873 Kbps, 25 fpsАудио: AAC, 72 Kbps, 48 KHz, 2 channelsСубтитры: Английские (Full, SDH) 744,7 Mb 13 2 16 февраля 2016 12:46 Повар на колесах / Chef (2014) BDRip 1080p | D .torrent   [Информация о файле (нажмите для просмотра)] Перевод: Дублированный (НТВ+)Кодек: AVCКачество: BDRip 1080pВидео: 1920x800, 9588 kbps, 25 fps, 0,250 Bits/(Pixel*Frame)Звук: AC3, 48 kHz, 6 ch, 384 kbps - Дублированный (НТВ+) AC3, 48 kHz, 6 ch, 384 kbps - Оригинал (ENG)Субтитры: Английские 7,97 Gb 25 2 16 февраля 2016 12:46 Повар на колесах / Chef (2014) BDRip-AVC | iPad | D | НТВ .torrent   [Информация о файле (нажмите для просмотра)] Перевод: Русский дублированный [НТВ+]Кодек: H.264Качество: BDRip-AVC [576p]Видео: 1024x428 (2.40:1) at 25.000 fps, AVC at 1900 kbpsЗвук: 1: АAС 2.0 128 kbps - Русский дублированный 2: АAС 2.0 128 kbps - АнглийскийСубтитры: Английский 1,63 Gb 6 3 16 февраля 2016 12:46 Повар на колесах / Chef (2014) HDRip-AVC от ExKinoRay | НТВ .torrent   [Информация о файле (нажмите для просмотра)] Качество: HDRip (AVC)Видео: MPEG-4 AVC, 1386 Кбит/с, 1024x426Аудио: Русский (AC3, 6 ch, 384 Кбит/с), английский (AC3, 6 ch, 448 Кбит/с)Перевод: Дублированный [НТВ+] 1,7 Gb 7 2 16 февраля 2016 12:46 Повар на колесах / Chef (2014) HDRip от ImperiaFilm | КПК | НТВ .torrent   [Информация о файле (нажмите для просмотра)] Качество: HDRip | КПК (BDRip 720p)Видео: кодеккодек: x264,формат: mp4,размер кадра: 480x208, битрейт: 350 кб/сАудио: языкрусский, перевод: Дублированный [НТВ+], 375,98 Mb 6 5 16 февраля 2016 12:46 Повар на колесах / Chef (2014) BDRip 720p | НТВ .torrent   [Информация о файле (нажмите для просмотра)] Формат: MKV (x264)Качество: BDRip 720pВидео: 5604 kb/s, 1280x536Аудио: AC3, 384 kb/s (6 ch) / English: DTS, 1510 kb/s (6 ch) 5,76 Gb 19 1

gig-torrent.net

Скачать фильм Повар на колесах через торрент в хорошем качестве бесплатно WEBRip

Размер: 1.46 GB | Добавлен: 3 года 3 мес. назад | Торрент скачан:4010 раз
Реклама Дарим 3000 рублей за регистрацию, не упусти свой шанс получить шикарный бонус!!!

29-06-2014 17:54 Повар на колесах Скачать торрент  

Повар на колесах / Chef

Год выпуска: 2014Страна: СШАЖанр: комедия, драма, семейныйПродолжительность: 01:46:14Перевод: Дубляж, Чистый звукСубтитры: Отсутствуют

Режиссер: Джон ФавроПродюссер: Молли Аллен, Джон Бартники, Марина БеспаловСценарий: Джон Фавро

Премьера в мире: 28 апреля 2014Дата российской премьеры:5 июня 2014, «Top Film Distribution»

http://www.kinopoisk.ru/film/760763/

В ролях: Джон Фавро, Эмджей Энтони, София Вергара, Джон Легуизамо, Скарлетт Йоханссон, Оливер Платт, Бобби Каннавале, Дастин Хоффман, Роберт Дауни мл., Эми Седарис

Описание: Сюжет фильма разворачивается вокруг шеф-повара Карла Каспера, потерявшего работу в известном ресторане Лос-Анджелеса. Вместе с сыном и бывшим напарником Карл решает организовать сеть закусочных на колесах, чтобы отыскать потерянное кулинарное вдохновение и попутно наладить отношения с семьей.

Качество: WEBRipФормат: AVIВидео кодек: XviDАудио кодек: AC3 2.0Видео: 720x304,1762 kb/s,25,000 (fps)Аудио#1: AC3 2.0,192 kb/s,48,0 (KHz)

ОбщееПолное имя : D:\Раздачи\Povar.na.kolesah.2014.WEBRip.aviФормат : AVIФормат/Информация : Audio Video InterleaveРазмер файла : 1,46 ГбайтПродолжительность : 1 ч. 46 м.Общий поток : 1964 Кбит/секПрограмма кодирования : VirtualDubMod 1.5.10.2 (build 2540/release)Библиотека кодирования : VirtualDubMod build 2540/release

ВидеоИдентификатор : 0Формат : MPEG-4 VisualПрофиль формата : Advanced [email protected]Параметр BVOP формата : 2Параметр QPel формата : НетПараметр GMC формата : Без точки переходаПараметр матрицы формата : ВыборочнаяИдентификатор кодека : XVIDИдентификатор кодека/Подсказка : XviDПродолжительность : 1 ч. 46 м.Битрейт : 1762 Кбит/секШирина : 720 пикселейВысота : 304 пикселяСоотношение сторон : 2,35:1Частота кадров : 25,000 кадров/секЦветовое пространство : YUVСубдискретизация насыщенности : 4:2:0Битовая глубина : 8 битТип развёртки : ПрогрессивнаяМетод сжатия : С потерямиБит/(Пиксели*Кадры) : 0.322Размер потока : 1,31 Гбайт (90%)Библиотека кодирования : XviD 1.2.1 (UTC 2008-12-04)

АудиоИдентификатор : 1Формат : AC-3Формат/Информация : Audio Coding 3Расширение режима : CM (complete main)Параметр Endianness формата : BigИдентификатор кодека : 2000Продолжительность : 1 ч. 46 м.Вид битрейта : ПостоянныйБитрейт : 192 Кбит/секКаналы : 2 каналаРасположение каналов : Front: L RЧастота : 48,0 КГцБитовая глубина : 16 битМетод сжатия : С потерямиРазмер потока : 146 Мбайт (10%)Выравнивание : Разделение по промежуткамПродолжительность промежутка : 40 мс. (1,00 видеокадр)Время предзагрузки промежутка : 500 мс.

Скачать Повар на колесах через торрент http://pic.pb.wtf/images/6/223p9.jpg Скачать фильм Повар на колесах через торрент бесплантно в хорошем качестве Описание: Сюжет фильма разворачивается вокруг шеф-повара Карла Каспера, потерявшего работу в известном ресторане Лос-Анджелеса. Вместе с ... 2014-06-30 18:11 9.8 10 117

Loading...

Loading...

% Раздел Тема Автор DL S | L
Фильмы [HD 720p, 1080p] (Хороший звук DUB, MVO) [ 10.6 GB ] Повар на колесах / Chef [2014 BDRip 1080p Dub ] от R.G. HD-Films Seedtank Скачать
Фильмы (Blu-ray, BD-Remux, HDDVD) [ 20.26 GB ] Повар на колесах / Chef [2014 BD-Remux [НТВ Бумер Скачать
Видео для КПК и Смартфонов [ 917 MB ] [MP4 / 800x] Повар на колесах / Chef [2014 HDRip ] [НТВ Neftannik Скачать
Фильмы [HD 720p, 1080p] (Хороший звук DUB, MVO) [ 5.76 GB ] Повар на колесах / Chef [2014 BDRip 720p [НТВ Ворон Скачать
Фильмы 2014 [DVDrip, WEB-DLRip, HDrip] [ 2.05 GB ] Повар на колесах / Chef [2014 HDRip [НТВ Ворон Скачать
Фильмы 2014 [DVDrip, WEB-DLRip, HDrip] [ 1.37 GB ] Повар на колесах / Chef [2014 HDRip [НТВ Ворон Скачать

Рекламный пират

30-06-2014 18:41 Повар на колесах Скачать торрент  

никак не пойму, как так получилось, что вчера ночью я выложил этот фильм первым , перед этим сто раз в поисковике не найдя его...... мой оказался повтором

30-06-2014 21:16 Повар на колесах Скачать торрент  

haizenberg писал(а):

никак не пойму, как так получилось, что вчера ночью я выложил этот фильм первым , перед этим сто раз в поисковике не найдя его...... мой оказался повтором Я просто раньше!

30-06-2014 21:20 Повар на колесах Скачать торрент  

ninla, да я не против совершенно, но я вчера залил, не было этого фильма !

01-07-2014 16:36 Повар на колесах Скачать торрент  

маленькая тень от нашей Кухни.скучно .неинтересно.4 бакса за бутик .мдаааа...

03-07-2014 04:19 Повар на колесах Скачать торрент  

Классный фильмец! Необычно конечно от режиссера ЖЧ и Мстители. Добротный, веселый. Саундтрек шикарный. Не советую смотреть на голодынй желудок)))

12-07-2014 11:01 Повар на колесах Скачать торрент  

Действительно хороший фильм,советую посмотреть! :)

20-07-2014 05:57 Повар на колесах Скачать торрент  

Хороший, легкий фильмец. Не рекомендую смотреть на голодный желудок ;)

31-07-2014 11:39 Повар на колесах Скачать торрент  

очень понравился фильм

Pекламный агент PB

01-08-2014 20:53 Повар на колесах Скачать торрент  

kpuctaluk писал(а):

маленькая тень от нашей Кухни.скучно .неинтересно.4 бакса за бутик .мдаааа...

Учитывая что Кухня снята по буржуйской лицензии, сравнение некорректно. Эти закусочные на колесах из пиндосии как раз и пошли, так что кому как не им снимать про это фильмы? :)

04-08-2014 12:10 Повар на колесах Скачать торрент  

вроде бы пока смотришь нормально, но потом после просмотра думаешь, а что хотел режиссёр сказать этим фильмом. Как то всё хаотично. Вобщем второй раз смотреть точно не буду. Лучше "Живая сталь" пересмотреть на подобную тему.

31-08-2014 00:53 Повар на колесах Скачать торрент  

почему никто не выкладывает с оригинальными дорожками фильмы (

Дорогой пользователь! Огромная просьба, поблагодарите релизера, оцените раздачу и оставьте свои комментарий, если Вы скачали Повар на колесах через торрент бесплатно! Внесите свою лепту в развитие PiratBit!

Комментировать посты могут только пользователи прошедшие не сложную регистрацию

Повар на колесах через торрент Скачать бесплатно Повар на колесах Повар на колесах скачать торрент Повар на колесах смотреть онлайн Cкачать фильм Повар на колесах бесплатно Повар на колесах скачать торрент в хорошем качестве Повар на колесах смотреть онлайн бесплатно в хорошем качестве

Вы можете начинать темыВы можете отвечать на сообщенияВы не можете редактировать свои сообщенияВы не можете удалять свои сообщенияВы не можете голосовать в опросахВы не можете прикреплять файлы к сообщениямВы можете скачивать файлы

piratbit.ru

Скачать фильм Повар на колесах через торрент в хорошем качестве бесплатно 2014 г.

Размер: 20.26 GB | Добавлен: 3 года 1 мес. назад | Торрент скачан:23 раза
Реклама Дарим 3000 рублей за регистрацию, не упусти свой шанс получить шикарный бонус!!!

11-09-2014 13:15 Повар на колесах Скачать торрент  

Повар на колесах / Chef

Год выпуска: 2014Страна: СШАЖанр: Комедия, драмаПродолжительность: 01:49:50Перевод: Дубляж[НТВ+]+ОригиналСубтитры: Английские

Режиссер: Джон Фавро

В ролях: Джон Фавро, Эмджей Энтони, София Вергара, Джон Легуизамо, Скарлетт Йоханссон, Оливер Плэтт, Бобби Каннавейл, Дастин Хоффман, Роберт Дауни мл., Эми Седарис

Описание: Сюжет фильма разворачивается вокруг шеф-повара Карла Каспера, потерявшего работу в известном ресторане Лос-Анджелеса. Вместе с сыном и бывшим напарником Карл решает организовать сеть закусочных на колесах, чтобы отыскать потерянное кулинарное вдохновение и попутно наладить отношения с семьей.

Качество: BD-RemuxФормат: MKVВидео кодек: H.264Аудио кодек: AC3Видео: MPEG-4 AVC, (1920x1080),23990Кбит/с, 23.976 кадра/секАудио#1: AC3, 6 ch,384 kbps (Rus) 48.0 KHz Дубляж [НТВ+]Аудио#2: DTS 6 ch,1509 kbps (Eng) 48.0 KHz Оригинал

Тип потока: ВидеоДлительность: 01:49:54Кодек: AVCКодек/описание: Advanced Video CodecКодек/профиль: [email protected]Кодек/ID: V_MPEG4/ISO/AVCКодек/CABAC: YesКодек/ReFrames: 4 framesРазмеры изображения: 1920 x 1080 (16:9)Частота кадров: 25.000 fpsЧастота кадров/тип: ConstantБитрейт/макс: 36.0 MbpsБитрейт/тип: VBRЦветовое пространство: YUVТип развёртки: ProgressiveКолориметрия: 4:2:0Глубина: 8 bits: Тип потока: Звук #1Язык: RussianДлительность: 01:49:54.283Кодек: AC-3Кодек/описание: Audio Coding 3Кодек/ID: A_AC3Частота дискретизации: 48.0 KHzКаналов: 6 channelsБитрейт: 384 KbpsБитрейт/тип: ConstantРазмер потока: 302 MiB (1%)Глубина: 16 bitsМетод сжатия: Lossy: Тип потока: Звук #2Язык: EnglishДлительность: 01:49:54.283Кодек: DTSКодек/описание: Digital Theater SystemsКодек/профиль: MA / CoreКодек/ID: A_DTSЧастота дискретизации: 48.0 KHzКаналов: 6 channelsБитрейт: Unknown / 1 509 KbpsБитрейт/тип: VariableГлубина: 16 bitsМетод сжатия: Lossless / Lossy: Тип потока: Субтитры #1Язык: EnglishФормат: UTF-8Формат/подробно: UTF-8 Plain Text: Тип потока: Субтитры #2Язык: EnglishФормат: UTF-8Формат/подробно: UTF-8 Plain TextНазвание: SDH: Тип потока: Субтитры #3Язык: EnglishФормат: PGSФормат/подробно: The same subtitle format used on BDs/HD-DVDs

Скачать Повар на колесах через торрент http://pic.pb.wtf/images/7/oiolt.jpg Скачать фильм Повар на колесах через торрент бесплантно в хорошем качестве Описание: Сюжет фильма разворачивается вокруг шеф-повара Карла Каспера, потерявшего работу в известном ресторане Лос-Анджелеса. Вместе с ... 2014-09-11 13:15 7.8 10 4

Loading...

Loading...

Рекламный пират

Дорогой пользователь! Огромная просьба, поблагодарите релизера, оцените раздачу и оставьте свои комментарий, если Вы скачали Повар на колесах через торрент бесплатно! Внесите свою лепту в развитие PiratBit!

Комментировать посты могут только пользователи прошедшие не сложную регистрацию

Повар на колесах через торрент Скачать бесплатно Повар на колесах Повар на колесах скачать торрент Повар на колесах смотреть онлайн Cкачать фильм Повар на колесах бесплатно Повар на колесах скачать торрент в хорошем качестве Повар на колесах смотреть онлайн бесплатно в хорошем качестве

Вы не можете начинать темыВы не можете отвечать на сообщенияВы не можете редактировать свои сообщенияВы не можете удалять свои сообщенияВы не можете голосовать в опросахВы не можете прикреплять файлы к сообщениямВы можете скачивать файлы

piratbit.ru


Смотрите также