Скачать фильм прощай детка прощай через торрент в хорошем качестве


Скачать фильм Прощай, детка, прощай через торрент в хорошем качестве бесплатно HDRip

Размер: 2.05 GB | Добавлен: 5 лет 1 мес. назад | Торрент скачан:305 раз
Реклама Дарим 3000 рублей за регистрацию, не упусти свой шанс получить шикарный бонус!!!

05-09-2012 14:22 Прощай, детка, прощай Скачать торрент  

Прощай, детка, прощай / Gone Baby Gone

Год выпуска: 2007Страна: СШАЖанр: триллер, драма, криминал, детективПродолжительность: 01:53:55Перевод: Профессиональный |Многоголосый закадровый, Видеосервис| + Оригинал

Режиссер: Бен АффлекПродюссер: Шон Бэйли, Алан Лэдд мл., Дэнтон РисснерСценарий: Бен Аффлек, Аарон Стокард, Дэннис Лихейн

Бюджет: $19 000 000Премьера в мире: 5 сентября 2007

16+ лицам до 17 лет обязательно присутствие взрослогоМировой рейтинг IMDB 7.80 (103 378)

В ролях: Кейси Аффлек, Морган Фриман, Эд Харрис, Эми Райан, Мишель Монахэн, Джон Эштон, Эми Мэдиган, Титус Уэлливер, Майкл К. Уильямс, Эди Гатеги

Описание: В пригороде Бостона без вести пропадает четырехлетняя Аманда МакКриди. Когда официальные власти прекращают попытки найти исчезнувшую девочку, ее тетя упрашивает двух частных детективов, Патрика Кензи и Анджелу Дженнаро, начать расследование.Поначалу они не торопятся взяться за безнадежное дело, однако новые обстоятельства заставляют их поставить на кон не только собственные профессиональные репутации, но и жизни.

Доп. информация: премьера (РФ) 8 ноября 2007, «BVSPR»

Качество: HDRipФормат: AVIВидео кодек: XviDАудио кодек: AC3Видео: 704x384 (1.83:1), 23.976 fps, XviD build 64 ~1801 kbps avg, 0.28 bit/pixelАудио#1: 48 kHz, AC3 Dolby Digital, 3/2 (L,C,R,l,r) + LFE ch, ~384 kbps |Russian|Аудио#2: 48 kHz, AC3 Dolby Digital, 3/2 (L,C,R,l,r) + LFE ch, ~384 kbps |English|

XviD4PSP 6.0.4 PORTABLE----------------------------------------04.09.2012 21:13:49 ENCODING STARTED----------------------------------------Input files:Gone.Baby.Gone.2007.720p.BluRay.3xRus.2xEng.HDCLUB.mkv 6835.46s min: 0000.00s max: 6835.46s start: 0000.00s----------------------------------------Input file info: Format: MATROSKA,WEBM 7.0gb 01:53:55.456 163887 framesGone Baby Gone (2007) - Release for HDCLUBVideo: h364 1280x692p 1.850 Progressive L4.1 B2 R9 23.976fps YUV420PAudio: AC3 384kbps 6ch 48000hz Russian Многоголосый закадровый, ВидеосервисAudio: AC3 640kbps 6ch 48000hz Russian Многоголосый закадровый, КиноманияAudio: AC3 640kbps 6ch 48000hz Russian Одноголосый закадровый, В.КоролевAudio: DTS 1536kbps 6ch 48000hz English Original 11msAudio: AC3 192kbps 2ch 48000hz English Commentary by Ben Affleck and Aaron StockardSubtitle: TEXT RussianSubtitle: TEXT RussianSubtitle: TEXT RussianSubtitle: TEXT EnglishSubtitle: TEXT English----------------------------------------Output file: Gone.Baby.Gone.2007.HDRip.XviD.AC3.kep.aviOutput folder: D:\Перегон----------------------------------------AVI Стандартный : Gone.Baby.Gone.2007.HDRip.XviD.AC3.kep.aviXVID ПроизвольныйAC3 384kbps MultichAC3 384kbps Multich

04.09.2012 21:13:49 CONFIG OUTPUT STREAMS----------------------------------------Init XVID codec, threads: 6, stream: 0scale=704:384:YUV420P:LANCZOSInit AC3 codec, threads: 6, stream: 1Init AC3 codec, threads: 6, stream: 2Video codec 0 timebase: 417083 / 20000000 > 1001 / 24000Video stream 0 timebase: 1 / 1000 > 1001 / 24000Audio codec 1 timebase: 4 / 125 > 1 / 48000Audio stream 1 timebase: 1 / 1000 > 4 / 125Audio codec 2 timebase: 0 / 1 > 1 / 48000Audio stream 2 timebase: 1 / 1000 > 4 / 125Audio delay shifted: 0.011s > 0.000sAudio delay correction: 0.000sFlush decoding buffers...Flush encoding buffers...Memory usage: 98.2 MB

Оскар, 2008 год Номинации (1):Лучшая женская роль второго плана (Эми Райан)Золотой глобус, 2008 год Номинации (1):Лучшая женская роль второго плана (Эми Райан) Жорж, 2008 год Номинации (1):Лучший низкобюджетный/артхаусный фильм

Жизнь — это череда выборов.

Перед тем как осмотреть вторую режиссерскую работу Бена Аффлека, которую уже успели одарить всевозможными почестями, я решил ознакомиться, соответственно, с его дебютом на этом поприще. Дебют, нужно признать, получился очень зрелым; всё на своих местах, и всё работает.

«Прощай, детка, прощай» рассказывает нам о нелегкой жизни в Бостоне, где, куда не глянь — повсюду скопища нелюдей. Главному герою (Кейси Аффлек) предстоит хорошенько забраться в криминальную сферу, дабы отыскать пропавшую без вести девочку. Чем ближе он подходит к сути, тем больше грязи вылезает наружу, и вот второстепенные, казалось бы, порядочные герои уже предстают перед зрителем в совсем ином свете. И вроде бы каждый, преследуя свои цели, думал, что так будет лучше и для всех, но впоследствии ничего дельного из этого не вышло. В итоге, когда дело оказалось раскрытым, и все тайное стало явным ; перед героем Кейси Аффлека встал сложный выбор: пренебречь ли своими принципами ради счастья нескольких людей или же следовать закону? Он сделал свой выбор, но согласитесь ли вы с ним? Вопрос о правоте решения так и остается открытым, ведь люди так и не изменились после всех произошедших событий.

Вывод : отличная криминальная драма про людей, их действия и их решения, в которой все киноаспекты на высоком уровне. Аффлек молодец, оба Аффлека, хотя один чуть более, который режиссер.

8 из 10

«Люди не меняются

Бен Аффлек как режиссер и сценарист давно признан. Стоит лишь посмотреть на актерский состав. Да и братишка его, Кейси, с каждым фильмом набирается опыта. Отлично, с нетерпением жду их новых фильмов.

И да, если понравилась «Таинственная река», так это еще интереснее, захватывающе и глубже. Даже сама постановка сценария потрясает, за 1/4 фильма раскрыто дело, ага, думаю, а дальше что. Оказывается, так, подогрели интерес слегка лишь. И еще, сейчас ну просто невыносимо много детективов, в которых предсказуемая концовка. Тут ты не понимаешь что ждет тебя с каждой последующей секундой, ибо, как я сказал, история заканчивается на, примерно, 30 минуте фильма. Достойный конец, что не мало важно, такой прием я еще не видел, когда да, вот похититель, но… остается выбор у положительного (!) героя, надо было ему ее находить или же нет.

Сильно не ругайте, моя первая рецензия.

9 из 10

Прощай детка, прощай…

Данную картину Бена Аффлека можно назвать условно дебютной, если не брать в расчет его короткометражку «Я убил жену-лесбиянку, повесил ее на мясной крюк, и теперь у меня контракт с Диснеем на три фильма», которую он снял в девяносто третьем году скорее смеха ради. Стоит признать, что «Прощай, детка, прощай» — это кино высшего уровня — запутанное как детектив, захватывающее как триллер и по смысловой нагрузке весьма любопытное.

Ведь по сути вся история сводится к вопросу, что правильно, а что нет. Где находиться тонкая грань между добром и злом? И концовка картины лишь демонстрирует это, показывая нам человека который просто не хочет понять, что ошибся. И несмотря на то, что с одной стороны история закончилась хорошо, в конце стоит не точка, а лишь многоточие… Так что нужно признать, что сценарий просто великолепен.

К тому же к отличному сценарию, можно приписать еще внушительную актерскую игру. Конечно не совсем понятна номинация на Оскар Эми Райан, сыгравшую мать похищенной девочки — наркоманку со стажем. Причем сыграла она похвально, но не более чем. Отлично справился младший брат режиссера — Кейси Аффлек, который только начинает набирать обороты, и выходит это у него здорово. Также можно отметить небольшую роль Моргана Фримана.

Но действительно произвел впечатление Эд Харрис, который отлично справился с ролью «плохого» полицейского, и именно его стоило бы отметить зарубежным критикам, вручив Оскар. Но этого не произошло, Харрис даже не был номинирован…

Так что можно сказать, что Аффлека можно причислить к подающим надежду молодым режиссерам. А судя по его «Городу воров» на достигнутом он останавливаться не собирается.

10 из 10

File: Gone.Baby.Gone.2007.HDRip.XviD.AC3.kep.aviTitle: Прощай, детка, прощайGenre: триллер, драма, криминалCategory: ФильмыComment: Rip от кэпFilesize: 2099.65 Mb ( 2 201 640 960 bytes )Play length: 01:53:55.286 (163883 frames)Subtitles: avi (TMPlayer format)Video: 704x384 (1.83:1), 23.976 fps, XviD build 64 ~1801 kbps avg, 0.28 bit/pixelAudio #1: 48 kHz, AC3 Dolby Digital, 3/2 (L,C,R,l,r) + LFE ch, ~384 kbps |Russian|Audio #2: 48 kHz, AC3 Dolby Digital, 3/2 (L,C,R,l,r) + LFE ch, ~384 kbps |English|

Скачать Прощай, детка, прощай через торрент http://lostpic.net/images/bb36318f41e1d7af4e806b02ae06335e.png Скачать фильм Прощай, детка, прощай через торрент бесплантно в хорошем качестве Описание: В пригороде Бостона без вести пропадает четырехлетняя Аманда МакКриди. Когда официальные власти прекращают попытки найти ... 2012-09-05 14:22 10 10 5

Loading...

Loading...

Рекламный пират

Дорогой пользователь! Огромная просьба, поблагодарите релизера, оцените раздачу и оставьте свои комментарий, если Вы скачали Прощай, детка, прощай через торрент бесплатно! Внесите свою лепту в развитие PiratBit!

Комментировать посты могут только пользователи прошедшие не сложную регистрацию

Прощай, детка, прощай через торрент Скачать бесплатно Прощай, детка, прощай Прощай, детка, прощай скачать торрент Прощай, детка, прощай смотреть онлайн Cкачать фильм Прощай, детка, прощай бесплатно Прощай, детка, прощай скачать торрент в хорошем качестве Прощай, детка, прощай смотреть онлайн бесплатно в хорошем качестве

Вы не можете начинать темыВы не можете отвечать на сообщенияВы не можете редактировать свои сообщенияВы не можете удалять свои сообщенияВы не можете голосовать в опросахВы не можете прикреплять файлы к сообщениямВы можете скачивать файлы

piratbit.ru

Скачать фильм Прощай, детка, прощай через торрент в хорошем качестве бесплатно BDRip

Раздают: 2 [ 0 KB/s ]
Размер: 1.46 GB | Добавлен: 6 лет 9 мес. назад | Торрент скачан:186 раз
Реклама Дарим 3000 рублей за регистрацию, не упусти свой шанс получить шикарный бонус!!!

09-01-2011 19:15 Прощай, детка, прощай Скачать торрент  

Прощай, детка, прощай / Gone Baby Gone

Год выпуска: 2007Страна: СШАЖанр: Детектив, ДрамаПродолжительность: 01:53:55Перевод: Профессиональный (многоголосый, закадровый)

Режиссер: Бен Аффлек

Премьера в мире: 08.11.2007

В ролях: Эми Мэдигэн, Майкл К. Уильямс, Джон Эштон, Мэттью Мэхер, Джей Джанноне, Мэделин О'Брайен, Эми Райан, Том Кемп, Эд Харрис, Роберт Уолберг, Марк Марголис, Кейси Аффлек, Эди Гатеги, Морган Фриман, Мишель Монаган, Тайтэс Уэлливер

Описание: В пригороде Бостона без вести пропадает четырехлетняя Аманда МакКриди. Когда официальные власти прекращают попытки найти исчезнувшую девочку, ее тетя упрашивает двух частных детективов, Патрика Кензи и Анджелу Дженнаро, выросших в этом районе, начать собственное расследование. Поначалу они не торопятся взяться за безнадежное дело, однако новые обстоятельства заставляют их поставить на кон не только свою профессиональную репутацию, но и собственные жизни.

Качество: BDRipФормат: AVIВидео кодек: XviDАудио кодек: AC3Видео: Bit rate: 1436 Kbps, 720 x 384 pixelsАудио: Bit rate: 384 Kbps, 48.0 KHz

НЕ ЗАБЫВАЙТЕ ГОВОРИТЬ СПАСИБО!!! Скачать Прощай, детка, прощай через торрент http://piratbit.in.ua/40bcd8e1c9808c43c1587a3dc058c815.jpg Скачать фильм Прощай, детка, прощай через торрент бесплантно в хорошем качестве Описание: В пригороде Бостона без вести пропадает четырехлетняя Аманда МакКриди. Когда официальные власти прекращают попытки найти ... 2011-01-09 19:15 10 10 3

Loading...

Loading...

Рекламный пират

Дорогой пользователь! Огромная просьба, поблагодарите релизера, оцените раздачу и оставьте свои комментарий, если Вы скачали Прощай, детка, прощай через торрент бесплатно! Внесите свою лепту в развитие PiratBit!

Комментировать посты могут только пользователи прошедшие не сложную регистрацию

Прощай, детка, прощай через торрент Скачать бесплатно Прощай, детка, прощай Прощай, детка, прощай скачать торрент Прощай, детка, прощай смотреть онлайн Cкачать фильм Прощай, детка, прощай бесплатно Прощай, детка, прощай скачать торрент в хорошем качестве Прощай, детка, прощай смотреть онлайн бесплатно в хорошем качестве

Вы не можете начинать темыВы не можете отвечать на сообщенияВы не можете редактировать свои сообщенияВы не можете удалять свои сообщенияВы не можете голосовать в опросахВы не можете прикреплять файлы к сообщениямВы можете скачивать файлы

piratbit.ru

Скачать фильм Прощай, детка, прощай через торрент в хорошем качестве бесплатно 720p

ОбщееУникальный идентификатор                 : 251269699048439807178335307296960598570 (0xBD08C8A3EF775AD2AFF9C79A4AD6D22A)Полное имя                               : C:UsersСлавонDesktopНовая папкаProwaj.detka.prowaj.2007.x264.BDRip.720p.Kinozal.TV-HD.mkvФормат                                   : MatroskaВерсия формата                           : Version 2Размер файла                             : 5,69 ГбайтПродолжительность                        : 1 ч. 53 м.Режим общего битрейта                    : ПеременныйОбщий поток                              : 7155 Кбит/секНазвание фильма                          : Prowaj, detka, prowaj (2007) -=Release Kinozal.TV-HD=-Дата кодирования                         : UTC 2011-02-10 00:38:29Программа кодирования                    : mkvmerge v4.5.0 ('Speed of Light') сборка от Feb  1 2011 02:10:32Библиотека кодирования                   : libebml v1.2.0 + libmatroska v1.1.0

ВидеоИдентификатор                            : 1Формат                                   : AVCФормат/Информация                        : Advanced Video CodecПрофиль формата                          : [email protected]Параметр CABAC формата                   : ДаПараметр ReFrames формата                : 6 кадровИдентификатор кодека                     : V_MPEG4/ISO/AVCПродолжительность                        : 1 ч. 53 м.Вид битрейта                             : ПеременныйБитрейт                                  : 4845 Кбит/секМаксимальный битрейт                     : 40,0 Мбит/секШирина                                   : 1280 пикселейВысота                                   : 692 пикселяСоотношение сторон                       : 1,85:1Режим частоты кадров                     : ПостоянныйЧастота кадров                           : 23,976 кадра/секЦветовое пространство                    : YUVСубдискретизация насыщенности            : 4:2:0Битовая глубина                          : 8 битТип развёртки                            : ПрогрессивнаяБит/(Пиксели*Кадры)                      : 0.228Размер потока                            : 3,75 Гбайт (66%)Заголовок                                : Prowaj, detka, prowaj (2007) [rip by ESiR]Библиотека кодирования                   : x264 core 58 svn-736MНастройки программы                      : cabac=1 / ref=6 / deblock=1:-3:-3 / analyse=0x3:0x133 / me=umh / subme=7 / me-prepass=0 / brdo=1 / mixed_ref=1 / me_range=24 / chroma_me=1 / trellis=0 / 8x8dct=1 / cqm=2 / deadzone=9,9 / chroma_qp_offset=0 / threads=6 / nr=0 / decimate=0 / mbaff=0 / bframes=3 / b_pyramid=1 / b_adapt=1 / b_bias=0 / direct=1 / wpredb=1 / bime=1 / keyint=250 / keyint_min=25 / scenecut=40(pre) / rc=2pass / bitrate=4845 / ratetol=1.0 / rceq='blurCplx^(1-qComp)' / qcomp=1.00 / qpmin=10 / qpmax=51 / qpstep=4 / cplxblur=20.0 / qblur=0.5 / ip_ratio=1.40 / pb_ratio=1.30 / aq=1:0.6:15.Язык                                     : EnglishDefault                                  : ДаForced                                   : Нет

Аудио #1Идентификатор                            : 2Формат                                   : AC-3Формат/Информация                        : Audio Coding 3Расширение режима                        : CM (complete main)Параметр Endianness формата              : BigИдентификатор кодека                     : A_AC3Продолжительность                        : 1 ч. 53 м.Вид битрейта                             : ПостоянныйБитрейт                                  : 384 Кбит/секКаналы                                   : 6 каналовРасположение каналов                     : Front: L C R, Side: L R, LFEЧастота                                  : 48,0 КГцБитовая глубина                          : 16 битМетод сжатия                             : С потерямиРазмер потока                            : 313 Мбайт (5%)Заголовок                                : MVO (Videoservis)Язык                                     : RussianDefault                                  : ДаForced                                   : Нет

Аудио #2Идентификатор                            : 3Формат                                   : AC-3Формат/Информация                        : Audio Coding 3Расширение режима                        : CM (complete main)Параметр Endianness формата              : BigИдентификатор кодека                     : A_AC3Продолжительность                        : 1 ч. 53 м.Вид битрейта                             : ПостоянныйБитрейт                                  : 640 Кбит/секКаналы                                   : 6 каналовРасположение каналов                     : Front: L C R, Side: L R, LFEЧастота                                  : 48,0 КГцБитовая глубина                          : 16 битМетод сжатия                             : С потерямиРазмер потока                            : 522 Мбайт (9%)Заголовок                                : MVO (Kinomanija)Язык                                     : RussianDefault                                  : НетForced                                   : Нет

Аудио #3Идентификатор                            : 4Формат                                   : AC-3Формат/Информация                        : Audio Coding 3Расширение режима                        : CM (complete main)Параметр Endianness формата              : BigИдентификатор кодека                     : A_AC3Продолжительность                        : 1 ч. 53 м.Вид битрейта                             : ПостоянныйБитрейт                                  : 640 Кбит/секКаналы                                   : 6 каналовРасположение каналов                     : Front: L C R, Side: L R, LFEЧастота                                  : 48,0 КГцБитовая глубина                          : 16 битМетод сжатия                             : С потерямиРазмер потока                            : 522 Мбайт (9%)Заголовок                                : AVO (V. Korolev)Язык                                     : RussianDefault                                  : НетForced                                   : Нет

Аудио #4Идентификатор                            : 5Формат                                   : AC-3Формат/Информация                        : Audio Coding 3Расширение режима                        : CM (complete main)Параметр Endianness формата              : BigИдентификатор кодека                     : A_AC3Продолжительность                        : 1 ч. 53 м.Вид битрейта                             : ПостоянныйБитрейт                                  : 640 Кбит/секКаналы                                   : 6 каналовРасположение каналов                     : Front: L C R, Side: L R, LFEЧастота                                  : 48,0 КГцБитовая глубина                          : 16 битМетод сжатия                             : С потерямиРазмер потока                            : 522 Мбайт (9%)Язык                                     : EnglishDefault                                  : НетForced                                   : Нет

Текст #1Идентификатор                            : 6Формат                                   : UTF-8Идентификатор кодека                     : S_TEXT/UTF8Идентификатор кодека/Информация          : UTF-8 Plain TextЗаголовок                                : ForcedЯзык                                     : RussianDefault                                  : ДаForced                                   : Нет

Текст #2Идентификатор                            : 7Формат                                   : UTF-8Идентификатор кодека                     : S_TEXT/UTF8Идентификатор кодека/Информация          : UTF-8 Plain TextЗаголовок                                : FullЯзык                                     : RussianDefault                                  : НетForced                                   : Нет

Текст #3Идентификатор                            : 8Формат                                   : UTF-8Идентификатор кодека                     : S_TEXT/UTF8Идентификатор кодека/Информация          : UTF-8 Plain TextЗаголовок                                : FullЯзык                                     : EnglishDefault                                  : НетForced                                   : Нет

Текст #4Идентификатор                            : 9Формат                                   : UTF-8Идентификатор кодека                     : S_TEXT/UTF8Идентификатор кодека/Информация          : UTF-8 Plain TextЗаголовок                                : SDHЯзык                                     : EnglishDefault                                  : НетForced                                   : Нет

Меню00:00:00.000                             : en:01. Missing Child00:05:22.488                             : en:02. Kenzie & Gennaro, Private Investigators00:10:05.104                             : en:03. Meeting Helene00:16:28.445                             : en:04. The Fillmore00:20:51.750                             : en:05. The Suspects00:25:30.695                             : en:06. Questioning Helene00:30:31.871                             : en:07. Find Ray, Find the Money00:35:47.145                             : en:08. "I Promise"00:37:11.062                             : en:09. "She's Gone, Baby, Gone"00:44:31.877                             : en:10. The Quarry00:52:06.623                             : en:11. Still Missing00:56:24.714                             : en:12. "This Time Around"01:02:16.357                             : en:13. "No Right to Live"01:08:44.036                             : en:14. "Pick a Side"01:13:31.323                             : en:15. "Let It Go"01:19:15.333                             : en:16. Lionel Comes Clean01:27:00.965                             : en:17. "Die With Your Secrets"01:31:03.332                             : en:18. "Are You Sure?"01:39:31.465                             : en:19. "She's Better Off"01:44:09.785                             : en:20. Reality01:49:06.081                             : en:21. End Credits

piratbit.ru

Прощай, детка, прощай через торрент

Размер: 24.45 GB | Добавлен: 3 года 9 мес. назад | Торрент скачан:34 раза
Реклама Дарим 3000 рублей за регистрацию, не упусти свой шанс получить шикарный бонус!!!

22-01-2014 14:53 Прощай, детка, прощай Скачать торрент  

Прощай, детка, прощай / Gone Baby Gone

Год выпуска: 2007Страна: СШАЖанр: триллер, драма, криминал, детективПродолжительность: 01:53:55Перевод: Профессиональный многоголосыйСубтитры: русские, английские

Режиссер: Бен АффлекПродюссер: Шон Бэйли, Алан Лэдд мл., Чай КартерСценарий: Бен Аффлек, Аарон Стокард, Деннис ЛихейнБюджет: $19 000 000Премьера в мире: 5 сентября 2007

IMDB 7.70 (143 727)

В ролях: Кэйси Аффлек, Мишель Монахэн, Морган Фриман, Эд Харрис, Джон Эштон, Эми Райан, Эми Мэдигэн, Титус Уэлливер, Майкл К. Уильямс, Эди Гатеги

Описание: В пригороде Бостона без вести пропадает четырехлетняя Аманда МакКриди. Когда официальные власти прекращают попытки найти исчезнувшую девочку, ее тетя упрашивает двух частных детективов, Патрика Кензи и Анджелу Дженнаро, начать расследование.Поначалу они не торопятся взяться за безнадежное дело, однако новые обстоятельства заставляют их поставить на кон не только собственные профессиональные репутации, но и жизни.

Качество: BD RemuxФормат: BDAVВидео кодек: VC-1Аудио кодек: AC3 / PCMВидео: VC-1, 1920x1080, 23.976fps, 23509 kbps, Bits/(Pixel*Frame): 0.480Аудио#1: Russian: AC-3, 384 Kbps, 6 ch, 48.0 KHzАудио#2: English: PCM, 4 608 Kbps, 6 ch, 48.0 KHzАудио#3: English: AC-3, 640 Kbps, 6 ch, 48.0 KHz

GeneralID : 1 (0x1)Complete name : /etc/seedbox/home/kep/data/Gone Baby Gone rus/BDMV/STREAM/00000.m2tsFormat : BDAVFormat/Info : Blu-ray VideoFile size : 24.4 GiBDuration : 1h 53mnOverall bit rate mode : VariableOverall bit rate : 30.7 MbpsMaximum Overall bit rate : 35.5 Mbps

VideoID : 4113 (0x1011)Menu ID : 1 (0x1)Format : VC-1Format profile : [email protected] ID : 234Duration : 1h 53mnBit rate : 23.9 MbpsWidth : 1 920 pixelsHeight : 1 080 pixelsDisplay aspect ratio : 16:9Frame rate : 23.976 fpsColor space : YUVChroma subsampling : 4:2:0Bit depth : 8 bitsScan type : ProgressiveCompression mode : LossyBits/(Pixel*Frame) : 0.480Stream size : 19.0 GiB (78%)

Audio #1ID : 4352 (0x1100)Menu ID : 1 (0x1)Format : AC-3Format/Info : Audio Coding 3Mode extension : CM (complete main)Format settings, Endianness : BigCodec ID : 129Duration : 1h 53mnBit rate mode : ConstantBit rate : 384 KbpsChannel count : 6 channelsChannel positions : Front: L C R, Side: L R, LFESampling rate : 48.0 KHzBit depth : 16 bitsCompression mode : LossyStream size : 313 MiB (1%)Language : Russian

Audio #2ID : 4353 (0x1101)Menu ID : 1 (0x1)Format : PCMFormat settings, Endianness : BigFormat settings, Sign : SignedMuxing mode : Blu-rayCodec ID : 128Duration : 1h 53mnBit rate mode : ConstantBit rate : 4 608 KbpsChannel count : 6 channelsChannel positions : Front: L C R, Side: L R, LFESampling rate : 48.0 KHzBit depth : 16 bitsStream size : 3.67 GiB (15%)Language : English

Audio #3ID : 4354 (0x1102)Menu ID : 1 (0x1)Format : AC-3Format/Info : Audio Coding 3Mode extension : CM (complete main)Format settings, Endianness : BigCodec ID : 129Duration : 1h 53mnBit rate mode : ConstantBit rate : 640 KbpsChannel count : 6 channelsChannel positions : Front: L C R, Side: L R, LFESampling rate : 48.0 KHzBit depth : 16 bitsCompression mode : LossyStream size : 522 MiB (2%)Language : English

Text #1ID : 4608 (0x1200)Menu ID : 1 (0x1)Format : PGSCodec ID : 144Language : Russian

Text #2ID : 4609 (0x1201)Menu ID : 1 (0x1)Format : PGSCodec ID : 144Language : English

Скачать Прощай, детка, прощай через торрент http://i2.imageban.ru/out/2014/01/22/4a952e1786d5d5496d9e6534c1e552f5.png Скачать фильм Прощай, детка, прощай через торрент бесплантно в хорошем качестве Описание: В пригороде Бостона без вести пропадает четырехлетняя Аманда МакКриди. Когда официальные власти прекращают попытки найти ... 2014-01-22 14:53 9.6 10 8

Loading...

Loading...

Рекламный пират

Дорогой пользователь! Огромная просьба, поблагодарите релизера, оцените раздачу и оставьте свои комментарий, если Вы скачали Прощай, детка, прощай через торрент бесплатно! Внесите свою лепту в развитие PiratBit!

Комментировать посты могут только пользователи прошедшие не сложную регистрацию

Прощай, детка, прощай через торрент Скачать бесплатно Прощай, детка, прощай Прощай, детка, прощай скачать торрент Прощай, детка, прощай смотреть онлайн Cкачать фильм Прощай, детка, прощай бесплатно Прощай, детка, прощай скачать торрент в хорошем качестве Прощай, детка, прощай смотреть онлайн бесплатно в хорошем качестве

Вы не можете начинать темыВы не можете отвечать на сообщенияВы не можете редактировать свои сообщенияВы не можете удалять свои сообщенияВы не можете голосовать в опросахВы не можете прикреплять файлы к сообщениямВы можете скачивать файлы

piratbit.ru

Скачать фильм Прощай, детка, прощай через торрент в хорошем качестве бесплатно 720p]

Format                                   : MatroskaFormat version                           : Version 2File size                                : 5.75 GiBDuration                                 : 1h 53mnOverall bit rate                         : 7 229 KbpsMovie name                               : Proshhaj, detka, proshhaj.(2007).BDRip.720p.[denis100]Encoded date                             : UTC 2015-03-26 09:38:36Writing application                      : mkvmerge v5.8.0 ('No Sleep / Pillow') built on Sep  2 2012 15:37:04Writing library                          : libebml v1.2.3 + libmatroska v1.3.0

VideoID                                       : 1Format                                   : AVCFormat/Info                              : Advanced Video CodecFormat profile                           : [email protected] settings, CABAC                   : YesFormat settings, ReFrames                : 9 framesCodec ID                                 : V_MPEG4/ISO/AVCDuration                                 : 1h 53mnBit rate                                 : 4 930 KbpsWidth                                    : 1 280 pixelsHeight                                   : 692 pixelsDisplay aspect ratio                     : 1.850Frame rate                               : 23.976 fpsColor space                              : YUVChroma subsampling                       : 4:2:0Bit depth                                : 8 bitsScan type                                : ProgressiveBits/(Pixel*Frame)                       : 0.232Stream size                              : 3.80 GiB (66%)Title                                    : Proshhaj, detka, proshhaj.(2007).BDRip.720p.[denis100]Writing library                          : x264 core 146 r2538 121396cEncoding settings                        : cabac=1 / ref=9 / deblock=1:-3:-3 / analyse=0x3:0x133 / me=umh / subme=11 / psy=1 / psy_rd=1.00:0.00 / mixed_ref=1 / me_range=48 / chroma_me=1 / trellis=2 / 8x8dct=1 / cqm=0 / deadzone=21,11 / fast_pskip=0 / chroma_qp_offset=-2 / threads=6 / lookahead_threads=1 / sliced_threads=0 / nr=0 / decimate=1 / interlaced=0 / bluray_compat=0 / constrained_intra=0 / bframes=12 / b_pyramid=2 / b_adapt=2 / b_bias=0 / direct=3 / weightb=1 / open_gop=0 / weightp=2 / keyint=240 / keyint_min=23 / scenecut=40 / intra_refresh=0 / rc=2pass / mbtree=0 / bitrate=4930 / ratetol=1.0 / qcomp=0.60 / qpmin=0 / qpmax=69 / qpstep=4 / cplxblur=20.0 / qblur=0.5 / ip_ratio=1.40 / pb_ratio=1.30 / aq=1:0.90Language                                 : EnglishDefault                                  : YesForced                                   : No

Audio #1ID                                       : 2Format                                   : AC-3Format/Info                              : Audio Coding 3Mode extension                           : CM (complete main)Codec ID                                 : A_AC3Duration                                 : 1h 53mnBit rate mode                            : ConstantBit rate                                 : 384 KbpsChannel(s)                               : 6 channelsChannel positions                        : Front: L C R, Side: L R, LFESampling rate                            : 48.0 KHzBit depth                                : 16 bitsCompression mode                         : LossyStream size                              : 313 MiB (5%)Title                                    : Многоголосый закадровый, ВидеосервисLanguage                                 : RussianDefault                                  : YesForced                                   : No

Audio #2ID                                       : 3Format                                   : AC-3Format/Info                              : Audio Coding 3Mode extension                           : CM (complete main)Codec ID                                 : A_AC3Duration                                 : 1h 53mnBit rate mode                            : ConstantBit rate                                 : 640 KbpsChannel(s)                               : 6 channelsChannel positions                        : Front: L C R, Side: L R, LFESampling rate                            : 48.0 KHzBit depth                                : 16 bitsCompression mode                         : LossyStream size                              : 522 MiB (9%)Title                                    : Многоголосый закадровый, КиноманияLanguage                                 : RussianDefault                                  : NoForced                                   : No

Audio #3ID                                       : 4Format                                   : AC-3Format/Info                              : Audio Coding 3Mode extension                           : CM (complete main)Codec ID                                 : A_AC3Duration                                 : 1h 53mnBit rate mode                            : ConstantBit rate                                 : 640 KbpsChannel(s)                               : 6 channelsChannel positions                        : Front: L C R, Side: L R, LFESampling rate                            : 48.0 KHzBit depth                                : 16 bitsCompression mode                         : LossyStream size                              : 522 MiB (9%)Title                                    : Авторский, В.КоролевLanguage                                 : RussianDefault                                  : NoForced                                   : No

Audio #4ID                                       : 5Format                                   : AC-3Format/Info                              : Audio Coding 3Mode extension                           : CM (complete main)Codec ID                                 : A_AC3Duration                                 : 1h 53mnBit rate mode                            : ConstantBit rate                                 : 640 KbpsChannel(s)                               : 6 channelsChannel positions                        : Front: L C R, Side: L R, LFESampling rate                            : 48.0 KHzBit depth                                : 16 bitsCompression mode                         : LossyStream size                              : 522 MiB (9%)Language                                 : EnglishDefault                                  : NoForced                                   : No

Text #1ID                                       : 6Format                                   : UTF-8Codec ID                                 : S_TEXT/UTF8Codec ID/Info                            : UTF-8 Plain TextTitle                                    : forcedLanguage                                 : RussianDefault                                  : YesForced                                   : No

Text #2ID                                       : 7Format                                   : UTF-8Codec ID                                 : S_TEXT/UTF8Codec ID/Info                            : UTF-8 Plain TextTitle                                    : FullLanguage                                 : RussianDefault                                  : NoForced                                   : No

Text #3ID                                       : 8Format                                   : UTF-8Codec ID                                 : S_TEXT/UTF8Codec ID/Info                            : UTF-8 Plain TextTitle                                    : FullLanguage                                 : EnglishDefault                                  : NoForced                                   : No

Menu00:00:00.000                             : en:00:00:00.00000:05:22.487                             : en:00:05:22.48700:10:05.104                             : en:00:10:05.10400:16:28.445                             : en:00:16:28.44500:20:51.750                             : en:00:20:51.75000:25:30.693                             : en:00:25:30.69300:30:31.871                             : en:00:30:31.87100:35:47.143                             : en:00:35:47.14300:37:11.061                             : en:00:37:11.06100:44:31.876                             : en:00:44:31.87600:52:06.623                             : en:00:52:06.62300:56:24.713                             : en:00:56:24.71301:02:16.356                             : en:01:02:16.35601:08:44.036                             : en:01:08:44.03601:13:31.323                             : en:01:13:31.32301:19:15.332                             : en:01:19:15.33201:27:00.965                             : en:01:27:00.96501:31:03.332                             : en:01:31:03.33201:39:31.465                             : en:01:39:31.46501:44:09.783                             : en:01:44:09.78301:49:06.081                             : en:01:49:06.081

piratbit.ru


Смотрите также