Скачать фильм вирус через торрент в хорошем качестве бесплатно


Скачать фильм Вирус (2013) через торрент

12 апреля 2016 08:26 Вирус / Flu (2013) BDRip-AVC от MediaClub | L2 .torrent   [Информация о файле (нажмите для просмотра)] Видео: Идентификатор : 1 Формат : AVC Формат/Информация : Advanced Video Codec Профиль формата : [email protected] Параметр CABAC формата : Да Параметр ReFrames формата : 9 кадров Идентификатор кодека : V_MPEG4/ISO/AVC Продолжительность : 2 ч. 1 м. Битрейт : 3300 Кбит/сек Ширина : 1024 пикселя Высота : 436 пикселей Соотношение сторон : 2,35:1 Режим частоты кадров : Постоянный Частота кадров : 23,976 кадра/сек Цветовое пространство : YUV Субдискретизация насыщенности : 4:2:0 Битовая глубина : 8 бит Тип развёртки : Прогрессивная Бит/(Пиксели*Кадры) : 0.308 Размер потока : 2,74 Гбайт (77%) Библиотека кодирования : x264 core 142 r2431 ac76440 Настройки программы : cabac=1 / ref=9 / deblock=1:-3:-3 / analyse=0x3:0x133 / me=umh / subme=11 / psy=1 / psy_rd=1.00:0.25 / mixed_ref=1 / me_range=48 / chroma_me=1 / trellis=2 / 8x8dct=1 / cqm=0 / deadzone=21,11 / fast_pskip=0 / chroma_qp_offset=-4 / threads=12 / lookahead_threads=2 / sliced_threads=0 / nr=0 / decimate=0 / interlaced=0 / bluray_compat=0 / constrained_intra=0 / bframes=8 / b_pyramid=2 / b_adapt=2 / b_bias=0 / direct=3 / weightb=1 / open_gop=0 / weightp=2 / keyint=230 / keyint_min=23 / scenecut=40 / intra_refresh=0 / rc_lookahead=40 / rc=2pass / mbtree=0 / bitrate=3300 / ratetol=1.0 / qcomp=0.60 / qpmin=0 / qpmax=69 / qpstep=4 / cplxblur=20.0 / qblur=0.5 / vbv_maxrate=50000 / vbv_bufsize=52500 / nal_hrd=none / filler=0 / ip_ratio=1.40 / pb_ratio=1.30 / aq=1:1.00 Язык : Korean Default : Да Forced : НетАудио #1: Идентификатор : 2 Формат : AC-3 Формат/Информация : Audio Coding 3 Расширение режима : CM (complete main) Параметр Endianness формата : Big Идентификатор кодека : A_AC3 Продолжительность : 2 ч. 1 м. Вид битрейта : Постоянный Битрейт : 448 Кбит/сек Каналы : 6 каналов Расположение каналов : Front: L C R, Side: L R, LFE Частота : 48,0 КГц Битовая глубина : 16 бит Метод сжатия : С потерями Размер потока : 390 Мбайт (11%) Заголовок : LD Язык : Russian Default : Да Forced : НетАудио #2: Идентификатор : 3 Формат : AC-3 Формат/Информация : Audio Coding 3 Расширение режима : CM (complete main) Параметр Endianness формата : Big Идентификатор кодека : A_AC3 Продолжительность : 2 ч. 1 м. Вид битрейта : Постоянный Битрейт : 448 Кбит/сек Каналы : 6 каналов Расположение каналов : Front: L C R, Side: L R, LFE Частота : 48,0 КГц Битовая глубина : 16 бит Метод сжатия : С потерями Размер потока : 390 Мбайт (11%) Язык : Korean Default : Нет Forced : НетПеревод: Любительский двухголосый (DeadSno & den904)Кодек: x264Качество: BDRip-AVCВидео: MPEG-4 AVC, 3300 Кбит/с, 1024x436, 23.976 кадр/сЗвук: Аудио #1: Русский (AC3, 6 ch, 448 Кбит/с) / Любительский двухголосый (DeadSno & den904)Аудио #2: Корейский (AC3, 6 ch, 448 Кбит/с)Субтитры: Русские, английские 3,57 Gb 10 4 12 апреля 2016 08:26 Вирус / Flu (2013) BDRip от New-Team | L2 .torrent   [Информация о файле (нажмите для просмотра)] Перевод: Любительский (двухголосый закадровый)|DeadSno & den904, по субтитрам Murasaki|Видео: 640x272 (2.35:1), 23.976 fps, XviD 65 ~715 kbps avg, 0.171 bit/pixelАудио: 48 kHz, MPEG Layer 3, 2 ch, 128.00 kbps Constant |Двухголосый закадровый, 742,36 Mb 4 4 12 апреля 2016 08:26 Вирус / Flu (2013) BDRip от New-Team | L2 | DeadSno .torrent   [Информация о файле (нажмите для просмотра)] Перевод: Любительский (двухголосый закадровый)|DeadSno & den904, по субтитрам Murasaki|Видео: 720x304 (2.35:1), 23.976 fps, XviD 65 ~1500 kbps avg, 0.286 bit/pixelАудио: 48 kHz, AC3 Dolby Digital, 2/0 (L,R) ch, 192 kbps Constant |Двухголосый закадровый, 1,45 Gb 6 2 12 апреля 2016 08:26 Вирус / Flu (2013) BDRip 720p от CINEMANIA | L2 .torrent   [Информация о файле (нажмите для просмотра)] Формат: MKVКачество: BDRip 720p[WiKi]Видео: 5300 kb/s, 1280х544Аудио: Russian / Korean: AC3, 640 kb/s (6 ch)Субтитры: Russian[Murasaki], English 5,6 Gb 3 2 12 апреля 2016 08:26 Вирус / Flu (2013) HDRip от RG Orient Extreme | L2 .torrent   [Информация о файле (нажмите для просмотра)] Перевод: Любительский (двухголосый закадровый)Видео: MPEG-4 Visual at 1515 Кбит/сек; 720 x 304 (2.368) at 23.976 fpsАудио: AC-3 at 192 Кбит/сек; 2 канала, 48,0 КГц 1,46 Gb 3 5 12 апреля 2016 08:26 Вирус / Flu (2013) HDRip от RG Orient Extreme | L2 .torrent   [Информация о файле (нажмите для просмотра)] Перевод: Любительский (двухголосый закадровый)Видео: MPEG-4 Visual at 1913 Кбит/сек; 720 x 304 (2.368) at 23.976 fpsАудио: AC-3 at 192 Кбит/сек; 2 канала, 48,0 КГц[DVO]Аудио: AC-3 at 448 Кбит/сек; 6 каналов, 48,0 КГц[Kor] 2,19 Gb 4 3 12 апреля 2016 08:26 Вирус / Flu (2013) HDTVRip от New-Team | L2 | DeadSno .torrent   [Информация о файле (нажмите для просмотра)] Перевод: Любительский (двухголосый закадровый)|DeadSno & den904, по субтитрам Murasaki|Видео: 640x272 (2.35:1), 23.976 fps, XviD 65 ~717 kbps avg, 0.172 bit/pixelАудио: 48 kHz, MPEG Layer 3, 2 ch, 128.00 kbps Constant |Двухголосый закадровый, 745,15 Mb 4 2 12 апреля 2016 08:26 Вирус / Flu (2013) HDTVRip от New-Team | L2 | DeadSno .torrent   [Информация о файле (нажмите для просмотра)] Перевод: Любительский (двухголосый закадровый)|DeadSno & den904, по субтитрам Murasaki|Видео: 720x304 (2.35:1), 23.976 fps, XviD 65 ~1501 kbps avg, 0.286 bit/pixelАудио: 48 kHz, AC3 Dolby Digital, 2/0 (L,R) ch, 192 kbps Constant |Двухголосый закадровый, 1,45 Gb 2 2

gig-torrent.net

Скачать фильм Вирус через торрент в хорошем качестве бесплатно WEB-DLRip

Раздают: 3 [ 0 KB/s ]
Размер: 1.36 GB | Добавлен: 10 мес. назад | Торрент скачан:579 раз
Реклама Дарим 3000 рублей за регистрацию, не упусти свой шанс получить шикарный бонус!!!

09-12-2016 20:40 Вирус Скачать торрент  

Вирус / Viral

Год выпуска: 2016Страна: СШАЖанр: ужасы, фантастика, триллер, драмаПродолжительность: 01:26:18Перевод: Профессиональный (полное дублирование) Чистый звук | LineСубтитры: отсутствуют

Режиссер: Генри Джуст, Эриель Шульман

В ролях:

София Блэк-Д’Элиа, Анали Типтон, Трэвис Тоуп, Майкл Келли, Машин Ган Келли, Джон Котрэн, Стоуни Вэстмолэнд, Линзи Грэй, Джудиэнн Элдер, Филип Лэйбс

Описание:

Зло подкрадывается к городу, где вместе с родителями и сестрой живёт молодая девушка Эмма. Уже появились первые признаки эпидемии, однако сестры, несмотря на строгий запрет, решают оторваться на студенческой вечеринке. Но страшный вирус проберётся и в этот эпицентр веселья. Вирус атакует и превращает людей в озлобленных монстров. Героиня фильма пытается выжить и, спасти своих близких.

Качество: WEB-DLRipФормат: AVIВидео кодек: XviDАудио кодек: AC3

Видео: 720x304 (2.37:1), 23.976 fps, XviD build 50 ~1861 kbps avg, 0.35 bit/pixelАудио#1: 48 kHz, AC3 Dolby Digital, 2/0 (L,R) ch, ~384 kbps

Рекламы нет!

Скачать Вирус через торрент http://pic1.pb.wtf/images/11/loh9y.jpg Скачать фильм Вирус через торрент бесплантно в хорошем качестве Описание: Зло подкрадывается к городу, где вместе с родителями и сестрой живёт молодая девушка Эмма. Уже появились первые признаки ... 2016-12-09 20:40 9.2 10 21

Loading...

Loading...

Рекламный пират

Дорогой пользователь! Огромная просьба, поблагодарите релизера, оцените раздачу и оставьте свои комментарий, если Вы скачали Вирус через торрент бесплатно! Внесите свою лепту в развитие PiratBit!

Комментировать посты могут только пользователи прошедшие не сложную регистрацию

Вирус через торрент Скачать бесплатно Вирус Вирус скачать торрент Вирус смотреть онлайн Cкачать фильм Вирус бесплатно Вирус скачать торрент в хорошем качестве Вирус смотреть онлайн бесплатно в хорошем качестве

Вы можете начинать темыВы можете отвечать на сообщенияВы не можете редактировать свои сообщенияВы не можете удалять свои сообщенияВы не можете голосовать в опросахВы не можете прикреплять файлы к сообщениямВы можете скачивать файлы

piratbit.ru

Скачать фильм Вирус через торрент в хорошем качестве бесплатно WEB-DLRip

Раздают: 3 [ 0 KB/s ]
Размер: 1.36 GB | Добавлен: 1 год 2 мес. назад | Торрент скачан:1111 раз
Реклама Дарим 3000 рублей за регистрацию, не упусти свой шанс получить шикарный бонус!!!

03-08-2016 17:44 Вирус Скачать торрент  

Вирус / Viral Год выпуска: 2016Страна: СШАЖанр: ужасы, фантастика, триллерПродолжительность: 01:26:23Перевод: Любительский (Многоголосый)[СПД]Субтитры: Отсутствуют

Режиссер: Генри Джуст, Эриель ШульманПродюссер: Джейсон Блум, Шеррил Кларк, Жанетт БриллСценарий: Кристофер Лэндон, Барбара Маршалл

Премьера в мире: 29 июля 2016

лицам до 17 лет обязательно присутствие взрослогоhttp://www.imdb.com/title/tt2597892/

В ролях: София Блэк-Д’Элиа, Анали Типтон, Трэвис Тоуп, Майкл Келли, Машин Ган Келли, Джон Котрэн, Стоуни Вэстмолэнд, Линзи Грэй, Джудиэнн Элдер, Филип Лэйбс

Описание: Фильм рассказывает о вспышке вируса, который уничтожает большую часть населения нашей планеты. Молодая женщина документирует жизнь своей семьи в карантине и пытается защитить зараженную сестру. Присутствует Реклама!!! Качество: WEB-DLRipФормат: AVIВидео кодек: XviDАудио кодек: AC3Видео: 720x304 (2.37:1), 23.976 fps, XviD build 50 ~1857 kbps avg, 0.35Аудио#1: 48 kHz, AC3 Dolby Digital, 2/0 (L,R) ch, ~384 kbps

GeneralComplete name : D:\Viral.2016.P.WEB-DLRip.1400MB.aviFormat : AVIFormat/Info : Audio Video InterleaveFile size : 1.36 GiBDuration : 1h 26mnOverall bit rate : 2 250 KbpsWriting application : VirtualDubMod 1.5.10.2 (build 2540/release)Writing library : VirtualDubMod build 2540/release

VideoID : 0Format : MPEG-4 VisualFormat profile : Advanced [email protected] settings, BVOP : 2Format settings, QPel : NoFormat settings, GMC : No warppointsFormat settings, Matrix : CustomCodec ID : XVIDCodec ID/Hint : XviDDuration : 1h 26mnBit rate : 1 857 KbpsWidth : 720 pixelsHeight : 304 pixelsDisplay aspect ratio : 2.35:1Frame rate : 23.976 fpsColor space : YUVChroma subsampling : 4:2:0Bit depth : 8 bitsScan type : ProgressiveCompression mode : LossyBits/(Pixel*Frame) : 0.354Stream size : 1.12 GiB (83%)Writing library : XviD 1.2.1 (UTC 2008-12-04)

AudioID : 1Format : AC-3Format/Info : Audio Coding 3Mode extension : CM (complete main)Format settings, Endianness : BigCodec ID : 2000Duration : 1h 26mnBit rate mode : ConstantBit rate : 384 KbpsChannel count : 2 channelsChannel positions : Front: L RSampling rate : 48.0 KHzBit depth : 16 bitsCompression mode : LossyStream size : 237 MiB (17%)Alignment : Split accross interleavesInterleave, duration : 42 ms (1.00 video frame)Interleave, preload duration : 500 ms

Скачать Вирус через торрент http://s017.radikal.ru/i437/1608/a6/46d94110a7a2.jpg Скачать фильм Вирус через торрент бесплантно в хорошем качестве Описание: Фильм рассказывает о вспышке вируса, который уничтожает большую часть населения нашей планеты. Молодая женщина документирует ... 2016-08-03 17:44 9.2 10 30

Loading...

Loading...

% Раздел Тема Автор DL S | L
Фильмы 2016 [DVDrip, WEB-DLRip, HDrip] (DUB, MVO) [ 1.42 GB ] Вирус / Viral [2016 BDRip] - Twi7ter Скачать
R.G.Resident - Фильмы, Видео [ 1.43 GB ] Вирус / Viral [2016 BDRip-AVC от R.G. Resident] - -Lexx- Скачать
T Фильмы [HD 720p, 1080p] (Хороший звук DUB, MVO) [ 6.78 GB ] Вирус / Viral [2016 BDRip 1080p] - -Lexx- Скачать
Фильмы 2016 [DVDrip, WEB-DLRip, HDrip] (DUB, MVO) [ 699 MB ] Вирус / Viral [2016 WEB-DLRip] Sherif Скачать
Фильмы 2014 [DVDrip, WEB-DLRip, HDrip] [ 1.37 GB ] ЗЛО: Новый вирус / V/H/S: Viral [2014 WEB-DLRip ] Ворон Скачать
Фильмы [HD 720p, 1080p] (Хороший звук DUB, MVO) [ 4.59 GB ] ЗЛО: Новый вирус / V/H/S: Viral [2014 BDRip 720p - Ворон Скачать
Фильмы 2012 [ 1.46 GB ] Антивирус / Antiviral [2012 HDRip [НТВ Ворон Скачать

Рекламный пират

03-08-2016 18:54 Вирус Скачать торрент  

Скриншоты ооочень интересные и многообещающие, а главное информативные.

03-08-2016 19:18 Вирус Скачать торрент  

PIXELINTERLAN писал(а):

Скриншоты ооочень интересные и многообещающие, а главное информативные.

необычайно информативные .......

03-08-2016 20:43 Вирус Скачать торрент  

miph3332 писал(а):

PIXELINTERLAN писал(а):

Скриншоты ооочень интересные и многообещающие, а главное информативные.

необычайно информативные .......Да точно,глянул скрины и фильм как поглядел

03-08-2016 22:53 Вирус Скачать торрент  

трейлер прикольный. похоже, опять инопланетяны свои щупальца шаловливые тянут к несчастным америкашкам. бедняжки, за что им такие кары постоянно валятся? наверно заслужили)))

04-08-2016 05:31 Вирус Скачать торрент  

Придётся по ходу сам фильм пересматривать)

04-08-2016 13:03 Вирус Скачать торрент  

Кто нибудь хоть посмотрел этот "чудесный" фильм???

04-08-2016 14:23 Вирус Скачать торрент  

походу надо смотреть чтобы понять че как и почему

05-08-2016 06:28 Вирус Скачать торрент  

Фильм средний, на один раз.

Pекламный агент PB

06-08-2016 07:31 Вирус Скачать торрент  

Трейлер не впечатлил.....

06-08-2016 14:13 Вирус Скачать торрент  

Глянул, посмотреть можно не нудный , скачивайте

08-08-2016 19:49 Вирус Скачать торрент  

Вот вы блин, интриганы! Сначала почитал вас, а потом решил глянуть скрины! Долго ржал )))) Скрины "информативные" убили просто )))

24-11-2016 11:57 Вирус Скачать торрент  

фильм про глистов)

24-11-2016 11:58 Вирус Скачать торрент  

перед едой руки мыть надо)

Дорогой пользователь! Огромная просьба, поблагодарите релизера, оцените раздачу и оставьте свои комментарий, если Вы скачали Вирус через торрент бесплатно! Внесите свою лепту в развитие PiratBit!

Комментировать посты могут только пользователи прошедшие не сложную регистрацию

Вирус через торрент Скачать бесплатно Вирус Вирус скачать торрент Вирус смотреть онлайн Cкачать фильм Вирус бесплатно Вирус скачать торрент в хорошем качестве Вирус смотреть онлайн бесплатно в хорошем качестве

Вы можете начинать темыВы можете отвечать на сообщенияВы не можете редактировать свои сообщенияВы не можете удалять свои сообщенияВы не можете голосовать в опросахВы не можете прикреплять файлы к сообщениямВы можете скачивать файлы

piratbit.ru

Скачать фильм Вирус Андромеда через торрент в хорошем качестве бесплатно HDRip-AVC

Размер: 2.2 GB | Добавлен: 6 лет 8 мес. назад | Торрент скачан:133 раза
Реклама Дарим 3000 рублей за регистрацию, не упусти свой шанс получить шикарный бонус!!!

03-02-2011 22:19 Вирус Андромеда Скачать торрент  

Вирус Андромеда | The Andromeda Strain
  • Год выпуска: 2008
  • Страна: США
  • Жанр: фантастика
  • Продолжительность: 02:46:32
  • Перевод: Профессиональный (многоголосый, закадровый) | Оригинал
  • Субтитры: Нет
  • Режиссер: Микаэл Саломон
  • В ролях: Бенджамин Брэтт, Эрик МакКормак, Криста Миллер, Дэниэл Дае Ким, Виола Дэвис, Джастин Луис, Бэрри Флэтмэн, Тед Уиттэлл, Тед Атертон, Том МакБет.
Американский спутник падает неподалеку от одного городка в штате Юта, выпуская на свободу смертельный вирус, который убивает всех горожан за исключением двоих — ребенка и старика. Пока военные пытаются изолировать зону бедствия, команда лучших ученых в подземной лаборатории пытается раскрыть загадку смертельного инопланетного вируса, которому присвоено кодовое имя Андромеда. На то, чтобы спасти мир, у них осталось всего несколько дней. Отсчет начался…
  • Качество: BDRip
  • Формат: MKV
  • Видео кодек: H.264
  • Аудио кодек: AAC
  • Видео: 1024х576, 23.976 fps, 1482 kbps
  • Аудио 1: Русский: 48 kHz, stereo, 150 kbps
  • Аудио 2: Английский: 48 kHz, 6 ch, 256 kbps
                  Скачать Вирус Андромеда через торрент http://i16.fastpic.ru/big/2011/0204/95/b532268eb1007a7abce89a6c4ee25495.png Скачать фильм Вирус Андромеда через торрент бесплантно в хорошем качестве В ролях: Бенджамин Брэтт, Эрик МакКормак, Криста Миллер, Дэниэл Дае Ким, Виола Дэвис, Джастин Луис, Бэрри Флэтмэн, Тед Уиттэлл, Тед ... 2011-02-03 22:19 10 10 4

Loading...

Loading...

Рекламный пират

04-02-2011 04:26 Вирус Андромеда Скачать торрент  

04-02-2011 05:23 Вирус Андромеда Скачать торрент  

Думаю сильный фильм,судя по описаниям :)

04-02-2011 06:26 Вирус Андромеда Скачать торрент  

01-11-2014 12:14 Вирус Андромеда Скачать торрент  

вылазят зомбаки с целью всех пожрать .или просто замочить..те-же зомбаки только КОСМИЧЕСКИЕ.....

01-11-2014 12:16 Вирус Андромеда Скачать торрент  

даже трасформеры(!!!!!!!)имеют больше смысла...

Дорогой пользователь! Огромная просьба, поблагодарите релизера, оцените раздачу и оставьте свои комментарий, если Вы скачали Вирус Андромеда через торрент бесплатно! Внесите свою лепту в развитие PiratBit!

Комментировать посты могут только пользователи прошедшие не сложную регистрацию

Вирус Андромеда через торрент Скачать бесплатно Вирус Андромеда Вирус Андромеда скачать торрент Вирус Андромеда смотреть онлайн Cкачать фильм Вирус Андромеда бесплатно Вирус Андромеда скачать торрент в хорошем качестве Вирус Андромеда смотреть онлайн бесплатно в хорошем качестве

Вы не можете начинать темыВы не можете отвечать на сообщенияВы не можете редактировать свои сообщенияВы не можете удалять свои сообщенияВы не можете голосовать в опросахВы не можете прикреплять файлы к сообщениямВы можете скачивать файлы

piratbit.ru

Скачать фильм Вирус через торрент в хорошем качестве бесплатно 1080p

GeneralUnique ID : 253912424613264340808000834465961971641 (0xBF05C11209587563ACDF6214CF5D8FB9)Complete name : E:\Viral.2016.BDRip.1080p.mkvFormat : MatroskaFormat version : Version 4 / Version 2File size : 6.78 GiBDuration : 1 h 25 minOverall bit rate : 11.3 Mb/sMovie name : Вирус / Viral (2016) BDRip 1080pEncoded date : UTC 2017-07-18 18:07:22Writing application : mkvmerge v13.0.0 ('The Juggler') 64bitWriting library : libebml v1.3.4 + libmatroska v1.4.5Cover : YesAttachments : cover.jpg

VideoID : 1Format : AVCFormat/Info : Advanced Video CodecFormat profile : [email protected] settings, CABAC : YesFormat settings, ReFrames : 5 framesCodec ID : V_MPEG4/ISO/AVCDuration : 1 h 25 minBit rate : 9 453 kb/sWidth : 1 920 pixelsHeight : 808 pixelsDisplay aspect ratio : 2.40:1Frame rate mode : ConstantFrame rate : 24.000 FPSColor space : YUVChroma subsampling : 4:2:0Bit depth : 8 bitsScan type : ProgressiveBits/(Pixel*Frame) : 0.254Stream size : 5.65 GiB (83%)Writing library : x264 core 150 r2833 df79067Encoding settings : cabac=1 / ref=5 / deblock=1:0:0 / analyse=0x3:0x113 / me=umh / subme=8 / psy=1 / psy_rd=1.00:0.00 / mixed_ref=1 / me_range=16 / chroma_me=1 / trellis=2 / 8x8dct=1 / cqm=0 / deadzone=21,11 / fast_pskip=0 / chroma_qp_offset=-2 / threads=12 / lookahead_threads=2 / sliced_threads=0 / nr=0 / decimate=1 / interlaced=0 / bluray_compat=0 / constrained_intra=0 / bframes=3 / b_pyramid=2 / b_adapt=1 / b_bias=0 / direct=1 / weightb=1 / open_gop=0 / weightp=2 / keyint=250 / keyint_min=24 / scenecut=40 / intra_refresh=0 / rc_lookahead=50 / rc=2pass / mbtree=1 / bitrate=9453 / ratetol=1.0 / qcomp=0.60 / qpmin=0 / qpmax=69 / qpstep=4 / cplxblur=20.0 / qblur=0.5 / ip_ratio=1.40 / aq=1:1.00Default : YesForced : No

Audio #1ID : 2Format : AC-3Format/Info : Audio Coding 3Mode extension : CM (complete main)Format settings, Endianness : BigCodec ID : A_AC3Duration : 1 h 25 minBit rate mode : ConstantBit rate : 384 kb/sChannel(s) : 6 channelsChannel positions : Front: L C R, Side: L R, LFESampling rate : 48.0 kHzFrame rate : 31.250 FPS (1536 spf)Compression mode : LossyStream size : 235 MiB (3%)Title : DUB | iTunesLanguage : RussianDefault : YesForced : No

Audio #2ID : 3Format : DTSFormat/Info : Digital Theater SystemsMode : 16Format settings, Endianness : BigCodec ID : A_DTSDuration : 1 h 25 minBit rate mode : ConstantBit rate : 1 509 kb/sChannel(s) : 6 channelsChannel positions : Front: L C R, Side: L R, LFESampling rate : 48.0 kHzFrame rate : 93.750 FPS (512 spf)Bit depth : 24 bitsCompression mode : LossyStream size : 924 MiB (13%)Title : OriginalLanguage : EnglishDefault : NoForced : No

TextID : 4Format : UTF-8Codec ID : S_TEXT/UTF8Codec ID/Info : UTF-8 Plain TextDuration : 1 h 21 minBit rate : 52 b/sCount of elements : 919Stream size : 31.1 KiB (0%)Title : SDHLanguage : EnglishDefault : NoForced : No

piratbit.ru

Скачать фильм Инфекция (2013) через торрент

24 июня 2016 12:17 Заражённая / Contracted (2013) HDRip-AVC от New-Team | L1 .torrent   [Информация о файле (нажмите для просмотра)] Перевод: Любительский (одноголосый, закадровый) [Хихидок]Видео: 2094 Кбит/сек, 1022*434 (2,35:1), в 24,000 кадр/сек, AVCАудио #1: Russian, 192 Кбит/сек, 48,0 КГц, 16 бит, 2 канала(ов), AC-3Аудио #2: English, 192 Кбит/сек, 48,0 КГц, 16 бит, 2 канала(ов), AC-3Видео: Идентификатор : 1 Формат : AVC Формат/Информация : Advanced Video Codec Профиль формата : [email protected] Параметр CABAC формата : Да Параметр ReFrames формата : 11 кадры Идентификатор кодека : V_MPEG4/ISO/AVC Продолжительность : 1 ч. 23 м. Битрейт : 2094 Кбит/сек Ширина : 1022 пикс. Высота : 434 пикс. Соотношение сторон : 2,35:1 Частота кадров : 24,000 кадр/сек Цветовое пространство : YUV Подвыборка цветности : 4:2:0 Битовая глубина : 8 бит Тип развёртки : Прогрессивная Бит/(Пиксели*Кадры) : 0.197 Размер потока : 1,20 Гбайт (83%) Библиотека кодирования : x264 core 138 r2358 9e941d1 Настройки программы : cabac=1 / ref=11 / deblock=1:-2:-2 / analyse=0x3:0x133 / me=umh / subme=10 / psy=1 / psy_rd=1.00:0.10 / mixed_ref=1 / me_range=32 / chroma_me=1 / trellis=2 / 8x8dct=1 / cqm=0 / deadzone=21,11 / fast_pskip=0 / chroma_qp_offset=-3 / threads=6 / lookahead_threads=1 / sliced_threads=0 / nr=0 / decimate=0 / interlaced=0 / bluray_compat=0 / constrained_intra=0 / bframes=11 / b_pyramid=2 / b_adapt=2 / b_bias=0 / direct=3 / weightb=1 / open_gop=0 / weightp=2 / keyint=240 / keyint_min=24 / scenecut=40 / intra_refresh=0 / rc_lookahead=80 / rc=2pass / mbtree=1 / bitrate=2094 / ratetol=1.0 / qcomp=0.65 / qpmin=0 / qpmax=69 / qpstep=4 / cplxblur=20.0 / qblur=0.5 / vbv_maxrate=20000 / vbv_bufsize=25000 / nal_hrd=none / ip_ratio=1.40 / aq=2:0.90Аудио #1: Идентификатор : 2 Формат : AC-3 Формат/Информация : Audio Coding 3 Расширение режима : CM (complete main) Идентификатор кодека : A_AC3 Продолжительность : 1 ч. 23 м. Вид битрейта : Постоянный Битрейт : 192 Кбит/сек Канал(ы) : 2 канала(ов) Расположение каналов : Front: L R Частота : 48,0 КГц Битовая глубина : 16 бит Метод сжатия : С потерями Размер потока : 115 Мбайт (8%) Заголовок : AC3 2.0 @ 192 kbps ХиХиДок Язык : RussianАудио #2: Идентификатор : 3 Формат : AC-3 Формат/Информация : Audio Coding 3 Расширение режима : CM (complete main) Идентификатор кодека : A_AC3 Продолжительность : 1 ч. 23 м. Вид битрейта : Постоянный Битрейт : 192 Кбит/сек Канал(ы) : 2 канала(ов) Расположение каналов : Front: L R Частота : 48,0 КГц Битовая глубина : 16 бит Метод сжатия : С потерями Размер потока : 115 Мбайт (8%) Заголовок : AC3 2.0 @ 192 kbps Язык : English 1,45 Gb 4 4 24 июня 2016 12:17 Заражённая / Contracted (2013) BDRip 1080p от CINEMANIA | L1 .torrent   [Информация о файле (нажмите для просмотра)] Формат: MKVКачество: BDRip 1080p[PFa]Видео: 8673 kb/s, 1920x816Аудио: Russian: AC3, 192 kb/s (2 ch) / English: AC3, 640 kb/s (6 ch)Субтитры: EnglishВидео: Идентификатор : 1 Формат : AVC Формат/Информация : Advanced Video Codec Профиль формата : [email protected] Параметр CABAC формата : Да Параметр ReFrames формата : 5 кадров Идентификатор кодека : V_MPEG4/ISO/AVC Продолжительность : 1 ч. 23 м. Битрейт : 8673 Кбит/сек Ширина : 1920 пикселей Высота : 816 пикселей Соотношение сторон : 2,35:1 Режим частоты кадров : Постоянный Частота кадров : 24,000 кадра/сек Цветовое пространство : YUV Субдискретизация насыщенности : 4:2:0 Битовая глубина : 8 бит Тип развёртки : Прогрессивная Бит/(Пиксели*Кадры) : 0.231 Размер потока : 4,97 Гбайт (89%) Заголовок : Release Group CINEMANIA Библиотека кодирования : x264 core 142 r2389 956c8d8 Настройки программы : cabac=1 / ref=5 / deblock=1:0:0 / analyse=0x3:0x133 / me=umh / subme=8 / psy=1 / psy_rd=1.00:0.00 / mixed_ref=1 / me_range=16 / chroma_me=1 / trellis=1 / 8x8dct=1 / cqm=0 / deadzone=21,11 / fast_pskip=0 / chroma_qp_offset=-2 / threads=12 / lookahead_threads=2 / sliced_threads=0 / nr=0 / decimate=1 / interlaced=0 / bluray_compat=0 / constrained_intra=0 / bframes=3 / b_pyramid=2 / b_adapt=1 / b_bias=0 / direct=1 / weightb=1 / open_gop=0 / weightp=2 / keyint=250 / keyint_min=24 / scenecut=40 / intra_refresh=0 / rc_lookahead=40 / rc=2pass / mbtree=1 / bitrate=8673 / ratetol=1.0 / qcomp=0.60 / qpmin=0 / qpmax=69 / qpstep=4 / cplxblur=20.0 / qblur=0.5 / ip_ratio=1.40 / aq=1:1.00 Язык : English Default : Да Forced : Нет Аудио #1: Идентификатор : 2 Формат : AC-3 Формат/Информация : Audio Coding 3 Расширение режима : CM (complete main) Параметр Endianness формата : Big Идентификатор кодека : A_AC3 Продолжительность : 1 ч. 23 м. Вид битрейта : Постоянный Битрейт : 192 Кбит/сек Каналы : 2 канала Расположение каналов : Front: L R Частота : 48,0 КГц Битовая глубина : 16 бит Метод сжатия : С потерями Задержка видео : -83 мс. Размер потока : 115 Мбайт (2%) Заголовок : ХиХиДок Язык : Russian Default : Да Forced : Да Аудио #2: Идентификатор : 3 Формат : AC-3 Формат/Информация : Audio Coding 3 Расширение режима : CM (complete main) Параметр Endianness формата : Big Идентификатор кодека : A_AC3 Продолжительность : 1 ч. 23 м. Вид битрейта : Постоянный Битрейт : 640 Кбит/сек Каналы : 2 канала Расположение каналов : Front: L R Частота : 48,0 КГц Битовая глубина : 16 бит Метод сжатия : С потерями Задержка видео : -83 мс. Размер потока : 384 Мбайт (7%) Язык : English Default : Нет Forced : Нет 5,57 Gb 3 2 24 июня 2016 12:17 Заражённая / Contracted (2013) BDRip 720p от CINEMANIA | L1 .torrent   [Информация о файле (нажмите для просмотра)] Формат: MKVКачество: BDRip 720p[PFa]Видео: 4940 kb/s, 1280x544Аудио: Russian: AC3, 192 kb/s (2 ch) / English: AC3, 640 kb/s (6 ch)Субтитры: EnglishВидео: Идентификатор : 1 Формат : AVC Формат/Информация : Advanced Video Codec Профиль формата : [email protected] Параметр CABAC формата : Да Параметр ReFrames формата : 5 кадров Идентификатор кодека : V_MPEG4/ISO/AVC Продолжительность : 1 ч. 23 м. Битрейт : 4940 Кбит/сек Ширина : 1280 пикселей Высота : 544 пикселя Соотношение сторон : 2,35:1 Режим частоты кадров : Постоянный Частота кадров : 24,000 кадра/сек Цветовое пространство : YUV Субдискретизация насыщенности : 4:2:0 Битовая глубина : 8 бит Тип развёртки : Прогрессивная Бит/(Пиксели*Кадры) : 0.296 Размер потока : 2,83 Гбайт (84%) Заголовок : Release Group CINEMANIA Библиотека кодирования : x264 core 142 r2389 956c8d8 Настройки программы : cabac=1 / ref=5 / deblock=1:0:0 / analyse=0x3:0x133 / me=umh / subme=8 / psy=1 / psy_rd=1.00:0.00 / mixed_ref=1 / me_range=16 / chroma_me=1 / trellis=1 / 8x8dct=1 / cqm=0 / deadzone=21,11 / fast_pskip=0 / chroma_qp_offset=-2 / threads=12 / lookahead_threads=2 / sliced_threads=0 / nr=0 / decimate=1 / interlaced=0 / bluray_compat=0 / constrained_intra=0 / bframes=3 / b_pyramid=2 / b_adapt=1 / b_bias=0 / direct=1 / weightb=1 / open_gop=0 / weightp=2 / keyint=250 / keyint_min=24 / scenecut=40 / intra_refresh=0 / rc_lookahead=40 / rc=2pass / mbtree=1 / bitrate=4940 / ratetol=1.0 / qcomp=0.60 / qpmin=0 / qpmax=69 / qpstep=4 / cplxblur=20.0 / qblur=0.5 / ip_ratio=1.40 / aq=1:1.00 Язык : English Default : Да Forced : Нет Аудио #1: Идентификатор : 2 Формат : AC-3 Формат/Информация : Audio Coding 3 Расширение режима : CM (complete main) Параметр Endianness формата : Big Идентификатор кодека : A_AC3 Продолжительность : 1 ч. 23 м. Вид битрейта : Постоянный Битрейт : 192 Кбит/сек Каналы : 2 канала Расположение каналов : Front: L R Частота : 48,0 КГц Битовая глубина : 16 бит Метод сжатия : С потерями Размер потока : 115 Мбайт (3%) Заголовок : ХиХиДок Язык : Russian Default : Да Forced : Да Аудио #2: Идентификатор : 3 Формат : AC-3 Формат/Информация : Audio Coding 3 Расширение режима : CM (complete main) Параметр Endianness формата : Big Идентификатор кодека : A_AC3 Продолжительность : 1 ч. 23 м. Вид битрейта : Постоянный Битрейт : 640 Кбит/сек Каналы : 2 канала Расположение каналов : Front: L R Частота : 48,0 КГц Битовая глубина : 16 бит Метод сжатия : С потерями Размер потока : 384 Мбайт (11%) Язык : English Default : Нет Forced : Нет 3,38 Gb 3 2 24 июня 2016 12:17 Заражённая / Contracted (2013) WEB-DLRip | L1 .torrent   [Информация о файле (нажмите для просмотра)] Формат: AVI (XviD)Качество: WEB-DLRipВидео: 1645 kb/s, 720x304Аудио: Russian: MP3, 192 kb/s (2 ch) / English: AC3, 384 kb/s (6 ch) 1,31 Gb 3 1 24 июня 2016 12:17 Заражённая / Contracted (2013) HDRip | L1 .torrent   [Информация о файле (нажмите для просмотра)] Перевод: Любительский (одноголосый, закадровый) - Хихикающий докторКодек: XviDФормат: AVIКачество: HDRipВидео: ~ 1022 kb/s, 640x272, 23,976 fpsСубтитры: нет 736,15 Mb 3 3

gig-torrent.net

Скачать фильм Инфекция через торрент в хорошем качестве бесплатно HDRip

Раздают: 1 [ 0 KB/s ]
Размер: 1.36 GB | Добавлен: 1 год 10 мес. назад | Торрент скачан:216 раз
Реклама Дарим 3000 рублей за регистрацию, не упусти свой шанс получить шикарный бонус!!!

16-12-2015 14:48 Инфекция Скачать торрент  

Инфекция / Заражённая / Contracted ««Надо было предохраняться»» ИНФОРМАЦИЯ: Год выпуска:2013 Страна: США Жанр: триллер, ужасы, драма Продолжительность: 01:23:53 Перевод: Дубляж - [Чистый звук] Режиссер: Эрик ИнглэндВ Ролях: Неджарра Таунсенд (Samantha), Кэролин Уильямс (Sam's Mom), Элис МакДональд (Alice), Кэти Стеджман (Nikki), Мэтт Мерсер (Riley), Чарли Кунц (Zain), Саймон Баррет (BJ), Рубен Пла (Doctor), Дэйв Холмс (Therapist), Селия Финкельштейн (Woman #1), Лаура Баггетт (Woman #2), Дэвид Бауман (Customer)Описание: Фильм рассказывает о страшной вирусной болезни, преследующей молодую женщину Саманту после того, как она провела «незащищенную» ночь любви со случайным незнакомцем после пьяной вечеринки. То, что поначалу кажется ей обычной половой инфекцией, оборачивается в итоге настоящим кошмаром...
  • Мировая премьера:7 июля 2013 ТЕХ.ДАННЫЕ: Качество: HDRip Формат: AVI Видео: XviD, 720x304 (2.35:1), 1902 kbps, 24 fps, 0,350 bpp Аудио №1: AC3 / 2.0 / 48 kHz / 192 kbps / Russian Аудио №2: AC3 / 2.0 / 48 kHz / 192 kbps / English Скриншоты: © Оформление by .::Ворон::.
  • Скачать Инфекция через торрент http://pic.pb.wtf/images/6/ordi9.jpg Скачать фильм Инфекция через торрент бесплантно в хорошем качестве Описание: Фильм рассказывает о страшной вирусной болезни, преследующей молодую женщину Саманту после того, как она провела «незащищенную» ... 2015-12-16 14:48 8.3 10 11

    Loading...

    Loading...

    Рекламный пират

    16-12-2015 15:14 Инфекция Скачать торрент  

    Мерзкий и нудный фильм....

    16-12-2015 15:27 Инфекция Скачать торрент  

    Serikmakogon, Да мерзкий, только скрины глянуть.. :jest3:

    16-12-2015 15:44 Инфекция Скачать торрент  

    Это фильм намёк про предновогодние корпоративы))) Девушкам надо бы быть поосторожнее в выборе случайного"собеседника" на вечеринке.))) я бы сказал : "На большой корпоратив, не забудь презерватив"...

    16-12-2015 21:52 Инфекция Скачать торрент  

    18-12-2015 17:12 Инфекция Скачать торрент  

    лицензия когда буде-то ато говорят здесь звук рассинхронизирован

    Дорогой пользователь! Огромная просьба, поблагодарите релизера, оцените раздачу и оставьте свои комментарий, если Вы скачали Инфекция через торрент бесплатно! Внесите свою лепту в развитие PiratBit!

    Комментировать посты могут только пользователи прошедшие не сложную регистрацию

    Инфекция через торрент Скачать бесплатно Инфекция Инфекция скачать торрент Инфекция смотреть онлайн Cкачать фильм Инфекция бесплатно Инфекция скачать торрент в хорошем качестве Инфекция смотреть онлайн бесплатно в хорошем качестве

    Вы не можете начинать темыВы не можете отвечать на сообщенияВы не можете редактировать свои сообщенияВы не можете удалять свои сообщенияВы не можете голосовать в опросахВы не можете прикреплять файлы к сообщениямВы можете скачивать файлы

    piratbit.ru


    Смотрите также