Скачать фильм война дронов через торрент бесплатно в хорошем качестве


Скачать фильм Война Дронов через торрент в хорошем качестве бесплатно HDRip

Раздают: 1 [ 0 KB/s ]
Размер: 1.37 GB | Добавлен: 5 мес. 12 д. назад | Торрент скачан:373 раза
Реклама Дарим 3000 рублей за регистрацию, не упусти свой шанс получить шикарный бонус!!!

13-05-2017 10:47 Война Дронов Скачать торрент  

Война Дронов / Drone Wars

Год выпуска: 2016Страна: США / Cinetel FilmsЖанр: фантастика, боевик, триллерПродолжительность: 01:24:54Перевод: Любительский (многоголосый)["Синема УС"] Субтитры: нет

Режиссер: Джек Перез

В ролях: Корин Немек, Уитни Мур, Натин Батлер, Шон Гуннелл, Сонни Кинг, Джеймс Эстон Лэйк, Джолин Андерсен, Верона Блу, Джеймс Такер

Описание: Над объятой огнём планетой кружит несметное множество кораблей. Они выкачивают из Земли ресурсы, а среди городских руин рыщут отряды дронов, уничтожающих всех и вся.

Доп. информация: ПРИСУТСТВУЕТ РЕКЛАМА!

Качество: HDRipФормат: AVIВидео кодек: XviDАудио кодек: AC3Видео: XviD,1847 kb/s, 720x400 ,23.976 fpsАудио#1: AC3, 448 kb/s ,2 ch,48.0 KHz

GeneralComplete name : H:\релизы.торрентфайл\battlefield.drone.wars.2016.P.HDRip.14OOMB_KOSHARA.aviFormat : AVIFormat/Info : Audio Video InterleaveFile size : 1.37 GiBDuration : 1h 24mnOverall bit rate : 2 305 KbpsWriting application : VirtualDubMod 1.5.10.2 (build 2540/release)Writing library : VirtualDubMod build 2540/release

VideoID : 0Format : MPEG-4 VisualFormat profile : Advanced [email protected] settings, BVOP : 2Format settings, QPel : NoFormat settings, GMC : No warppointsFormat settings, Matrix : Default (MPEG)Codec ID : XVIDCodec ID/Hint : XviDDuration : 1h 24mnBit rate : 1 848 KbpsWidth : 720 pixelsHeight : 400 pixelsDisplay aspect ratio : 16:9Frame rate : 23.976 fpsColor space : YUVChroma subsampling : 4:2:0Bit depth : 8 bitsScan type : ProgressiveCompression mode : LossyBits/(Pixel*Frame) : 0.268Stream size : 1.10 GiB (80%)Writing library : XviD 1.2.1 (UTC 2008-12-04)

AudioID : 1Format : AC-3Format/Info : Audio Coding 3Mode extension : CM (complete main)Format settings, Endianness : BigCodec ID : 2000Duration : 1h 24mnBit rate mode : ConstantBit rate : 448 KbpsChannel(s) : 2 channelsChannel positions : Front: L RSampling rate : 48.0 KHzBit depth : 16 bitsCompression mode : LossyStream size : 272 MiB (19%)Alignment : Split accross interleavesInterleave, duration : 42 ms (1.00 video frame)Interleave, preload duration : 500 ms

Скачать Война Дронов через торрент http://i89.fastpic.ru/big/2017/0513/7d/128c64aeec3444757969c5fc8126ad7d.jpg Скачать фильм Война Дронов через торрент бесплантно в хорошем качестве Описание: Над объятой огнём планетой кружит несметное множество кораблей. Они выкачивают из Земли ресурсы, а среди городских руин рыщут ... 2017-05-13 10:47 7.3 10 18

Loading...

Loading...

Рекламный пират

13-05-2017 11:10 Война Дронов Скачать торрент  

13-05-2017 12:24 Война Дронов Скачать торрент  

erget писал(а):

скрины жуть

Не вкусняшка

13-05-2017 12:41 Война Дронов Скачать торрент  

На втором скрине,что за дрон?

13-05-2017 12:49 Война Дронов Скачать торрент  

13-05-2017 12:51 Война Дронов Скачать торрент  

erget писал(а):

скрины жуть

Очень содержательные! Особенно с ногой!

13-05-2017 12:53 Война Дронов Скачать торрент  

dnipers писал(а):

хабенский

Так это нога Хабенского?!

13-05-2017 13:06 Война Дронов Скачать торрент  

Вот пристали к скринам-ну усе ж понятно-шел чел,никого не трогал,сигаретку стрельнуть.Тут ступеньки-споткнулся ,упал,ножку сломал,головой об бетончик.Выше ребятки сидели,спустились на шум.Чего мяску то пропадать ,время то тяжелое,поели.Дальше после сытного обеда - покурить,за жизнь потереть,пивка бахнуить и к бабам...

13-05-2017 15:08 Война Дронов Скачать торрент  

Был у меня кент по прозвищу Дрон ещё по школе, вероятно он встретил второго Дрона ..?

Pекламный агент PB

14-05-2017 04:41 Война Дронов Скачать торрент  

korotkij писал(а):

Был у меня кент по прозвищу Дрон ещё по школе, вероятно он встретил второго Дрона .у меня старшина дрон был

14-05-2017 13:36 Война Дронов Скачать торрент  

ДА уж кино какашное школьники наверное на телефон снимали

14-05-2017 14:21 Война Дронов Скачать торрент  

ТВ3 рулит по сравнению с этим Г

14-05-2017 14:54 Война Дронов Скачать торрент  

Полный треш,а графан просто улетный,В Алисе с мелафоном графика лучше

15-05-2017 07:53 Война Дронов Скачать торрент  

фильм в стиле тв3 (кто в теме поймет) сюжет не понятен и не логичен, спец. эфекты , актеры разговаривают без эмоций.

Юный Чикатилла

17-05-2017 19:17 Война Дронов Скачать торрент  

KillAll366 писал(а):

ТВ3 рулит по сравнению с этим Г

batlle2009 писал(а):

ДА уж кино какашное школьники наверное на телефон снимали Точно кака? А тут Директ Икс 11-ый для просмотра нужен, не знаете?

Дорогой пользователь! Огромная просьба, поблагодарите релизера, оцените раздачу и оставьте свои комментарий, если Вы скачали Война Дронов через торрент бесплатно! Внесите свою лепту в развитие PiratBit!

Комментировать посты могут только пользователи прошедшие не сложную регистрацию

Война Дронов через торрент Скачать бесплатно Война Дронов Война Дронов скачать торрент Война Дронов смотреть онлайн Cкачать фильм Война Дронов бесплатно Война Дронов скачать торрент в хорошем качестве Война Дронов смотреть онлайн бесплатно в хорошем качестве

Вы не можете начинать темыВы не можете отвечать на сообщенияВы не можете редактировать свои сообщенияВы не можете удалять свои сообщенияВы не можете голосовать в опросахВы не можете прикреплять файлы к сообщениямВы можете скачивать файлы

piratbit.ru

Скачать торрент Война Дронов / Drone Wars (2016) BDRip от ImperiaFilm | КПК

Информация о фильмеНазвание: Война ДроновОригинальное название: Drone WarsГод выхода: 2016Жанр: фантастика, боевик, триллерРежиссер: Джек ПерезВ ролях: Корин Немек, Уитни Мур, Натин Батлер, Шон Гуннелл, Сонни Кинг, Джеймс Эстон Лэйк, Джолин Андерсен, Верона Блу, Джеймс Такер

О фильме: В одно мгновение вторжение началось и закончилось. Заполненный дымом и огнем, небо теперь усеяно инопланетными объектами, парящими над планетой в разных направлениях. Эти корабли истощают Землю добывая различные полезные ископаемые. В это время как дроны патрулирует разрушенные города, уничтожая все, что они считают угрозой. Выжившие группируются в группы, отчаянно пытаясь воскресить любое подобие нормальной жизни, которой они когда-то были. Среди хаоса небольшая команда ученых, спрятанных в недрах Лос-Анджелеса, - это все, что осталось от сопротивления, чтобы победить беспилотные летательные аппараты и раз и навсегда уничтожить материнские корабли.

Выпущено: США / Cinetel FilmsПродолжительность: 01:24:54 Озвучивание: Любительское (многоголосое) ["Синема УС"]

ПРИМЕЧАНИЕ: ПРИСУТСТВУЕТ РЕКЛАМА!

Файл Формат: MP4Качество: BDRip \| КПК Видео: Н.264, 640x360 (16:9), 29.970 fps, 500 KbpsЗвук: AAC LC, 48.0 KHz, 2 ch, 127 Kbps

MI

Общее Полное имя : C:UsersАлександрDesktopфильмbattlefield.drone.wars.2016.ImperiaFilm.mp4 Формат : MPEG-4 Профиль формата : Base Media Идентификатор кодека : isom (isom/avc1/iso6) Размер файла : 381 Мбайт Продолжительность : 1 ч. 24 м. Режим общего битрейта : Переменный Общий поток : 631 Кбит/сек Дата кодирования : UTC 2017-05-13 21:22:51 Дата пометки : UTC 2017-05-13 21:22:51

Видео Идентификатор : 1 Формат : AVC Формат/Информация : Advanced Video Codec Профиль формата : [email protected] Параметр CABAC формата : Да Параметр ReFrames формата : 10 кадров Идентификатор кодека : avc1 Идентификатор кодека/Информация : Advanced Video Coding Продолжительность : 1 ч. 24 м. Битрейт : 500 Кбит/сек Максимальный битрейт : 1864 Кбит/сек Ширина : 640 пикселей Высота : 360 пикселей Соотношение сторон : 16:9 Режим частоты кадров : Постоянный Частота кадров : 29,970 (30000/1001) кадров/сек Цветовое пространство : YUV Субдискретизация насыщенности : 4:2:0 Битовая глубина : 8 бит Тип развёртки : Прогрессивная Бит/(Пиксели*Кадры) : 0.072 Размер потока : 301 Мбайт (79%) Заголовок : [email protected] Библиотека кодирования : x264 core 146 r2538 121396c Настройки программы : cabac=1 / ref=10 / deblock=1:-3:-3 / analyse=0x3:0x113 / me=umh / subme=11 / psy=1 / psy_rd=1.00:0.00 / mixed_ref=1 / me_range=48 / chroma_me=1 / trellis=2 / 8x8dct=1 / cqm=0 / deadzone=21,11 / fast_pskip=0 / chroma_qp_offset=-2 / threads=6 / lookahead_threads=1 / sliced_threads=0 / nr=0 / decimate=0 / interlaced=0 / bluray_compat=0 / constrained_intra=0 / bframes=10 / b_pyramid=2 / b_adapt=2 / b_bias=0 / direct=3 / weightb=1 / open_gop=0 / weightp=2 / keyint=240 / keyint_min=24 / scenecut=40 / intra_refresh=0 / rc_lookahead=40 / rc=2pass / mbtree=0 / bitrate=500 / ratetol=1.0 / qcomp=0.60 / qpmin=0 / qpmax=69 / qpstep=4 / cplxblur=20.0 / qblur=0.5 / vbv_maxrate=14000 / vbv_bufsize=14000 / nal_hrd=none / filler=0 / ip_ratio=1.40 / pb_ratio=1.30 / aq=1:1.00 Дата кодирования : UTC 2017-05-13 21:22:51 Дата пометки : UTC 2017-05-13 21:23:10

Аудио Идентификатор : 2 Формат : AAC Формат/Информация : Advanced Audio Codec Профиль формата : LC Идентификатор кодека : 40 Продолжительность : 1 ч. 24 м. Вид битрейта : Переменный Битрейт : 127 Кбит/сек Максимальный битрейт : 145 Кбит/сек Каналы : 2 канала Расположение каналов : Front: L R Частота : 48,0 КГц Частота кадров : 46,875 кадров/сек (1024 spf) Метод сжатия : С потерями Размер потока : 76,8 Мбайт (20%) Дата кодирования : UTC 2017-05-13 16:46:55 Дата пометки : UTC 2017-05-13 21:23:10

Релиз от:

krutor.org

2016 HDRip

HDRip

HDRip

HDRip

HDRip

HDRip

HDRip

HDRip

HDRip

HDRip

HDRip

HDRip

HDRip

HDRip

HDRip

HDRip

HDRip

HDRip

DVDRip

HDRip

HDRip

HDRip

HDRip

HDRip

HDRip

HDRip

HDRip

:HDRip :2016 : 1.37 GB

:

: 01:24:54

: -  

:  , , , , , , , Mark Haptonstall, ,

:

. , , . . , , . , , - ...

dle 11.0
, ! , 1. !2. , ! 3. !torrentum.org - , , ! , , . , , .

torrentum.org

Война Дронов (2016) скачать фильм через торрент бесплатно в хорошем HD качестве

27 282

Физрук 4 сезон (2017)

359

Мой сын (2017)

22

Три сестры (2017)

292

Единственный живой парень в Нью-Йорке (2017)

9 664

Иностранец (2017)

1 970

Джунгли (2017)

350

Будь мужиком (2017)

1 586

Коматозники (2017)

1 374

Реальный Рокки (2017)

3 286

Геошторм (2017)

1 194

Двуличный любовник (2017)

885

Как Витька Чеснок вез Леху Штыря в дом инвалидов (2017)

13 834

Сделано в Америке (2017)

6 663

Напарник (2017)

1 226

Борг / Макинрой (2017)

1 117

Яма. Наши дни (2017)

3 791

Бегущий по лезвию 2049 (2017)

14 900

Сериал Беглец (2017)

6 274

Безбашенные (2017)

3 471

Послание от Кинга (2017)

2 343

Между нами горы (2017)

12 998

Жизнь впереди (2017)

119 776

Сериал Ольга 2 сезон 18 19 20 серия (2017)

780

Хорошее время (2017)

3 082

Любовь в городе ангелов (2017)

1 836

Уотергейт. Крушение Белого дома (2017)

7 261

Наемник (2017)

14 687

Сериал Отличница (2017)

2 743

Техасская резня бензопилой: Кожаное лицо (2017)

2 698

Убить Гюнтера (2017)

1 558

Заложники (2017)

24 691

Сериал Отчий берег (2017)

863

ЛЕГО Ниндзяго Фильм (2017)

3 432

Kingsman: Золотое кольцо (2017)

kinonax.com


Смотрите также