Скачать фильм я легенда скачать торрент в хорошем качестве


Скачать фильм Я - легенда через торрент в хорошем качестве бесплатно 720p

Размер: 3.96 GB | Добавлен: 3 года 3 мес. назад | Торрент скачан:377 раз
Реклама Дарим 3000 рублей за регистрацию, не упусти свой шанс получить шикарный бонус!!!

18-07-2014 18:31 Я - легенда Скачать торрент  

Я - легенда / I Am Legend

Театральная версия / Theatrical CutГод выпуска: 2007Страна: СШАЖанр: фантастика, триллер, драмаПродолжительность: 01:40:31Перевод: Дубляж, Лицензия

Режиссер: Френсис ЛоуренсПродюссер: Акива Голдсман, Дэвид Хейман, Джеймс ЛасситерСценарий: Марк Протосевич, Акива Голдсман, Джон Уильям Коррингтон

Бюджет: $150 000 000Премьера в мире: 5 декабря 2007

В ролях: Уилл Смит, Алиси Брага, Чарли Тахэн, Салли Ричардсон, Уиллоу Смит, Даррел Фостер, Эйприл Грэйс, Дэш Майок, Джоанна Нумата, Эбби

Роли дублировали: Всеволод Кузнецов, Александра Фатхи, Елена Ивасишина, Элиза Мартиросова, Александр Носков

Описание: Адаптация одноименного романа Ричарда Мэтисона о неизвестном вирусе, унесшем жизни половины населения земного шара, а остальную половину превратившего в вампиров. Сюжет строится вокруг единственного уцелевшего человека с необъяснимым иммунитетом, ночами держащего бесконечную осаду упырей, а днем пытающегося найти противоядие и выяснить причины эпидемии.Доп. информация: Прежде чем скачивать фильм полностью, скачайте "сэмпл", и проверьте будет ли воспроизводится видео на вашем устройстве!

На встроенном проигрывателе в TV LG 42 идет

Качество: BDRip 720pФормат: MKVВидео кодек: H.264Аудио кодек: AC3Видео: x264, 1280 x 720, (16:9) 59,880 fps, 5189 Kbps, (0.094 bit/pixel)Аудио#1: AC3, 6ch, 48.0 KHz, 448 Kbps ( Дубляж, Blu-ray CEE )

                 

x264 [info]: frame I:1959 Avg QP:14.24 size: 87541x264 [info]: frame P:91950 Avg QP:16.80 size: 25798x264 [info]: frame B:267625 Avg QP:20.32 size: 5108x264 [info]: consecutive B-frames: 2.6% 3.7% 13.6% 20.2% 59.9%

ОбщееУникальный идентификатор : 221432274339184365726322936042586066284 (0xA6964E0615F09854A5C3E315373B4D6C)Полное имя : E:\ I.Am.Legend.2007.(60fps).(CROP).mkvФормат : MatroskaВерсия формата : Version 4 / Version 2Размер файла : 3,96 ГбайтПродолжительность : 1 ч. 40 м.Общий поток : 5639 Кбит/секНазвание фильма : Я - легенда / I Am Legend (2007) BDRip 720p | 60 fps | CROPДата кодирования : UTC 2014-07-11 15:42:50Программа кодирования : mkvmerge v6.2.0 ('Promised Land') built on Apr 28 2013 12:22:01Библиотека кодирования : libebml v1.3.0 + libmatroska v1.4.0

ВидеоИдентификатор : 1Формат : AVCФормат/Информация : Advanced Video CodecПрофиль формата : [email protected]Параметр CABAC формата : ДаПараметр ReFrames формата : 4 кадраИдентификатор кодека : V_MPEG4/ISO/AVCПродолжительность : 1 ч. 40 м.Битрейт : 5189 Кбит/секШирина : 1280 пикселейВысота : 720 пикселейСоотношение сторон : 16:9Режим частоты кадров : ПостоянныйЧастота кадров : 59,880 кадров/секЧастота кадров в оригинале : 59,940 кадров/секЦветовое пространство : YUVСубдискретизация насыщенности : 4:2:0Битовая глубина : 8 битТип развёртки : ПрогрессивнаяБит/(Пиксели*Кадры) : 0.094Размер потока : 3,57 Гбайт (90%)Заголовок : I Am Legend (2007) BDRip 720p (60 fps) (CROP).mkvБиблиотека кодирования : x264 core 130 r2273 b3065e6Настройки программы : cabac=1 / ref=4 / deblock=1:-3:-3 / analyse=0x3:0x113 / me=umh / subme=9 / psy=1 / psy_rd=0.40:0.00 / mixed_ref=1 / me_range=32 / chroma_me=1 / trellis=1 / 8x8dct=1 / cqm=0 / deadzone=21,11 / fast_pskip=1 / chroma_qp_offset=-2 / threads=3 / lookahead_threads=1 / sliced_threads=0 / nr=0 / decimate=1 / interlaced=0 / bluray_compat=0 / constrained_intra=0 / bframes=4 / b_pyramid=2 / b_adapt=2 / b_bias=0 / direct=3 / weightb=1 / open_gop=0 / weightp=2 / keyint=250 / keyint_min=25 / scenecut=40 / intra_refresh=0 / rc_lookahead=50 / rc=2pass / mbtree=1 / bitrate=5189 / ratetol=1.0 / qcomp=0.60 / qpmin=0 / qpmax=69 / qpstep=4 / cplxblur=20.0 / qblur=0.5 / ip_ratio=1.40 / aq=1:0.60Язык : EnglishDefault : ДаForced : Нет

АудиоИдентификатор : 2Формат : AC-3Формат/Информация : Audio Coding 3Расширение режима : CM (complete main)Параметр Endianness формата : BigИдентификатор кодека : A_AC3Продолжительность : 1 ч. 40 м.Вид битрейта : ПостоянныйБитрейт : 448 Кбит/секКаналы : 6 каналовРасположение каналов : Front: L C R, Side: L R, LFEЧастота : 48,0 КГцБитовая глубина : 16 битМетод сжатия : С потерямиРазмер потока : 322 Мбайт (8%)Заголовок : AC3 5.1 @ 448 kbps - Дубляж, Blu-ray CEEЯзык : RussianDefault : ДаForced : Нет

Скачать Я - легенда через торрент http://pic.pb.wtf/images/6/ule3b.jpg Скачать фильм Я - легенда через торрент бесплантно в хорошем качестве Описание: Адаптация одноименного романа Ричарда Мэтисона о неизвестном вирусе, унесшем жизни половины населения земного шара, а остальную ... 2014-07-18 18:31 9.7 10 23

Loading...

Loading...

Рекламный пират

19-07-2014 05:19 Я - легенда Скачать торрент  

здесь какая оконцовка фильма их просто две одна оригинальная а вторая под сиквел который выйдет в 2015году?

19-07-2014 10:03 Я - легенда Скачать торрент  

А будет ли 1080р?

19-07-2014 18:12 Я - легенда Скачать торрент  

Я так понимаю, кадр зумом сделали 16:9?Т.к. на Blu-Ray он шёл форматом 21:9

20-07-2014 07:57 Я - легенда Скачать торрент  

Кадр обрезанный, для TV (16:9) на весь экран, в "MI" все указал (Crop).

15-09-2017 07:28 Я - легенда Скачать торрент  

а где раздающий. есть кто живой?

16-09-2017 16:07 Я - легенда Скачать торрент  

Дорогой пользователь! Огромная просьба, поблагодарите релизера, оцените раздачу и оставьте свои комментарий, если Вы скачали Я - легенда через торрент бесплатно! Внесите свою лепту в развитие PiratBit!

Комментировать посты могут только пользователи прошедшие не сложную регистрацию

Я - легенда через торрент Скачать бесплатно Я - легенда Я - легенда скачать торрент Я - легенда смотреть онлайн Cкачать фильм Я - легенда бесплатно Я - легенда скачать торрент в хорошем качестве Я - легенда смотреть онлайн бесплатно в хорошем качестве

Вы не можете начинать темыВы не можете отвечать на сообщенияВы не можете редактировать свои сообщенияВы не можете удалять свои сообщенияВы не можете голосовать в опросахВы не можете прикреплять файлы к сообщениямВы можете скачивать файлы

piratbit.ru

Скачать фильм Я - легенда через торрент в хорошем качестве бесплатно HDRip

Раздают: 1 [ 0 KB/s ]
Размер: 2.18 GB | Добавлен: 6 лет 7 мес. назад | Торрент скачан:530 раз
Реклама Дарим 3000 рублей за регистрацию, не упусти свой шанс получить шикарный бонус!!!

08-03-2011 15:25 Я - легенда Скачать торрент  

Я - легенда / I Am LegendГод выпуска: 2007Страна: СШАЖанр: фантастика, триллер, драмаСубтитры: есть(английские)Продолжительность: 96 мин.Перевод: Профессиональный (полное дублирование) [Лицензия] Тип релиза: ЛицензияРежиссер: Френсис ЛоуренсПродюссер: Акива Голдсман, Дэвид Хейман, Джеймс ЛасситерСценарий: Марк Протосевич, Акива Голдсман, Ричард МэтисонБюджет: $150 000 000

PG-13

-Детям до 13 лет просмотр не желателенМировой рейтинг IMDB 7.10 (164 147) В ролях: Уилл Смит, Алиси Брага, Чарли Тахэн, Салли Ричардсон, Уиллоу Смит, Даррел Фостер, Эйприл Грэйс, Дэш Майок, Джоанна Нумата, ЭбОписание: Адаптация одноименного романа Ричарда Мэтисона о неизвестном вирусе, унесшем жизни половины населения земного шара, а остальную половину превратившего в вампиров. Сюжет строится вокруг единственного уцелевшего человека с необъяснимым иммунитетом, ночами держащего бесконечную осаду упырей, а днем пытающегося найти противоядие и выяснить причины эпидемии.Качество: HDRipФормат: MKVВидео кодек: H.26xАудио кодек: AACВидео: AVC, 960x528 (2.35), 23.976 fps, 2 225 Kbps (0.183 bit/pixel)Аудио #1: AAC LC, 48.0 KHz, 6 ch (Russian)Аудио #2: AAC LC, 48.0 KHz, 6 ch (English) Скачать Я - легенда через торрент http://i1.imageban.ru/out/2011/03/08/2cafade611741729719b5ee7e871ee20.jpg Скачать фильм Я - легенда через торрент бесплантно в хорошем качестве Описание: Адаптация одноименного романа Ричарда Мэтисона о неизвестном вирусе, унесшем жизни половины населения земного шара, а остальную ... 2011-03-08 15:25 9.7 10 11

Loading...

Loading...

Рекламный пират

08-03-2011 15:37 Я - легенда Скачать торрент  

Thanks, good film.

08-03-2011 19:30 Я - легенда Скачать торрент  

да фильм потрясный с удовольствием посмотрю еще раз)

23-03-2013 11:59 Я - легенда Скачать торрент  

Почему загружается только 99% и всё?

Дорогой пользователь! Огромная просьба, поблагодарите релизера, оцените раздачу и оставьте свои комментарий, если Вы скачали Я - легенда через торрент бесплатно! Внесите свою лепту в развитие PiratBit!

Комментировать посты могут только пользователи прошедшие не сложную регистрацию

Я - легенда через торрент Скачать бесплатно Я - легенда Я - легенда скачать торрент Я - легенда смотреть онлайн Cкачать фильм Я - легенда бесплатно Я - легенда скачать торрент в хорошем качестве Я - легенда смотреть онлайн бесплатно в хорошем качестве

Вы не можете начинать темыВы не можете отвечать на сообщенияВы не можете редактировать свои сообщенияВы не можете удалять свои сообщенияВы не можете голосовать в опросахВы не можете прикреплять файлы к сообщениямВы можете скачивать файлы

piratbit.ru

Я - легенда 2007 - скачать бесплатно через торрент в хорошем качестве. Без регистрации

Название: Я - легенда / I Am Legend (2007) HDRip от MediaClub | КПК
Качество видео: HDRip
Видео: MPEG-4 AVC, 500 Кбит/с, 480x200, 23.976 кадр/с
Аудио: Русский (AAC, 2 ch, 128 Кбит/с) / Дублированный
Скачать

Загрузка начнется в течение 5 сек.

453.23 MB

Название: Я – легенда / I Am Legend (2007) BDRip 720p от Leonardo and Scarabey | Theatrical version
Качество видео: BDRip 720p Исходник: Blu-ray
Перевод: Профессиональный (полное дублирование) Лицензия
Формат видео: MKV Видео кодек: MPEG-4 AVC Аудио кодек: AC3
Видео: 1280x530 (2.40:1) at 23.976 fps, AVC at 2723 kbps avg, 0.167 bit/pixel
Аудио: Русский, AC3 5.1, 448 kbps, 48 kHz - Dub, BD CEE
Скачать

Загрузка начнется в течение 5 сек.

2.27 GB

Название: Я - легенда / I Am Legend (2007) BDRip 720p | Theatrical version
Качество видео: BDRip [720p] ( источник: Blu-ray 1080p / HDclub )
Перевод: • Профессиональный (полное дублирование) [Лицензия «Blu-ray CEE»]
Формат видео: MKV
Видео: MPEG-4 AVC/H.264 1280x532 (2.40:1), 23,976 fps ~ 5333 Кbps, 0.327 bit/pixel
Аудио: AC3 Dolby Digita 5.1 AC3 Dolby Digita 5.148 kHz/16-bit, AC3 Dolby Digital, 3/2 (L,C,R,l,r) + LFE ch, ~ 448 kbps | Dub48 kHz/16-bit, AC3 Dolby Digital, 3/2 (L,C,R,l,r) + LFE ch, ~ 448 kbps | Original
Скачать

Загрузка начнется в течение 5 сек.

4.37 GB

Название: Я - легенда / I Am Legend (2007) BDRip-AVC
Качество видео: BDRip-AVC
Перевод: профессиональный многоголосый - Kravets
Видео: x.264 1158x480, 23.976 fps, 1569 Kbps
Аудио: Русский 48 kHz, AAC, 6 ch, 256 kbps
Скачать

Загрузка начнется в течение 5 сек.

1.46 GB

Название: Я – легенда / I Am Legend (2007) BDRip 720p от leonardo 59 | AppleTV / iPad
Качество видео: BDRip 720p
Перевод: Дублированный + вставки многоголосого перевода Киномании на расширенные места
Формат видео: MP4 (контейнер m4v)
Видео: AVC, 1280x532 (2.40:1) at 23.976 fps, AVC at 2891 kbps avg, 0.177 bit/pixel
Аудио: Русский (Stereo и DD 5.1), Английский (Stereo и DD 5.1)
Скачать

Загрузка начнется в течение 5 сек.

4.26 GB

Название: Я - легенда / I Am Legend (2007) BDRip 720p | 60 fps
Качество видео: BDRip 720p
Перевод: Дублированный
Видео: MPEG-4 AVC/H.264, 1280 x 534, 16.0 Mbps
Аудио: AC3, 6ch, 48.0 KHz, 448 Kbps
Скачать

Загрузка начнется в течение 5 сек.

11.56 GB

Название: Я – легенда / I Am Legend (2007) BDRip-AVC | iPad
Качество видео: BDRip Исходник: Blu-ray
Перевод: Дублированный
Формат видео: MP4 (контейнер m4v)
Видео: AVC, 1024x424 (2.40:1) at 23.976 fps, AVC at 1644 kbps avg, 0.158 bit/pixel
Аудио: 48 kHz, AAC, 2ch, 158 Kbps | Russian | Дублированный48 kHz, AAC, 2ch, 139 Kbps | English | Original
Скачать

Загрузка начнется в течение 5 сек.

1.41 GB

Название: Я легенда / I Am Legend (2007) BDRip-AVC от ExKinoRay
Качество видео: BDRip-AVC
Перевод: Дублированный / Профессиональный многоголосый (Кравец) / Профессиональный двухголосый (П.Гланц и И.Королёва), (Киномания), (Позитив-Мультимедиа) / Авторский одноголосый (Ю. Сербин)
Видео: x264 MPEG-4 AVC, 2500 Кбит/с, 1024x424
Аудио: Русский (AC3, 6 ch, 448 Кбит/с), (AC3, 6 ch, 384 Кбит/с), английский (AC3, 6 ch, 448 Кбит/с)
Скачать

Загрузка начнется в течение 5 сек.

3.82 GB

Название: Я - Легенда / I Am Legend (2007) Blu-ray
Качество видео: (Blu-ray)
Формат видео: BDMV (M2TS)
Видео: VC-1 Video | Bitrate 16143 kbps | 1080p (1920x1080) / 23,976 fps / 16:9 (2.40:1) / Advanced Profile 3 (Кинотеатральная версия)
Аудио: TrueHD / AC3
Скачать

Загрузка начнется в течение 5 сек.

43.74 GB

Название: Я - Легенда / I Am Legend (2007) BDRip-AVC | Альтернативная версия
Качество видео: BDRip-AVC (Исходник: BDRemux)
Перевод: Профессиональный (дублированный)
Видео: 848x352 (2.40:1), 23.976 fps, ~940 kbps avg, 0.131 bit/pixel
Аудио: AAC-HE, VBR, 48.0 KHz / 24.0 KHz, 2 channels (Front: L R), ~64.00 kbps avg
Скачать

Загрузка начнется в течение 5 сек.

745.93 MB

Название: Я - легенда / I Am Legend (2007) BDRip 1080p от FREEISLAND | Theatrical version
Качество видео: BDRip 1080p
Перевод: Профессиональный (дублированный)
Видео: H.264 1920x800 (2.40:1), 23.976 fps, AVC, 10.9 Mbps
Аудио: AC3, 448 Kbps, 48.0 KHz, 6 ch
Скачать

Загрузка начнется в течение 5 сек.

7.95 GB

Название: Я - легенда / I Am Legend (2007) HDRip
Качество видео: HDRip
Перевод: Дубляж
Видео: XviD 704x288 (2.44:1), 23.976 fps, XviD build 50 ~900 kbps avg, 0.19 bit/pixel
Аудио: 48 kHz, MPEG Layer 3, 2 ch, ~128.00 kbps avg
Скачать

Загрузка начнется в течение 5 сек.

745.72 MB

Название: Я - легенда / I Am Legend (2007) BDRemux | Theatrical Cut
Качество видео: BDREmux
Перевод: Дублированный, Многоголосый, Двухголосый, Одноголосый
Видео: MKV H.264, 1920x800, 23.976fps, ~9500kbps
Аудио: Russian / Dolby Digital / 5.1 / 48 kHz / 448 kbps / Дубляж, Blu-ray CEERussian / DTS / 5.1 / 48 kHz / 1510 kbps / 16-bit / Многоголосый закадровый, студия "Кравец&quotRussian / DTS / 5.1 / 48 kHz / 1510 kbps / 16-bit / Двухголосый закадровый, П.Гланц и И.КоролёваRussian / Dolby Digital / 5.1 / 48 kHz / 384 kbps / Двухголосый закадровый, КиноманияRussian / Dolby Digital / 5.1 / 48 kHz / 384 kbps / Двухголосый закадровый, Позитив-МультимедиаRussian / Dolby Digital / 5.1 / 48 kHz / 384 kbps / Одноголосый закадровый, Ю.СербинEnglish / DTS-HD MA / 5.1 / 48 kHz / 2071 kbps (DTS Core: 5.1 / 48 kHz / 1510 kbps / 16-bit)
Скачать

Загрузка начнется в течение 5 сек.

16.13 GB

www.kinovit.net

Скачать фильм Я – легенда через торрент в хорошем качестве бесплатно 720p

Размер: 11.56 GB | Добавлен: 3 года 3 мес. назад | Торрент скачан:418 раз
Реклама Дарим 3000 рублей за регистрацию, не упусти свой шанс получить шикарный бонус!!!

19-07-2014 12:40 Я – легенда Скачать торрент  

Я – легенда / I Am Legend Год выпуска: 2007Страна: СШАЖанр: фантастика, триллер, драма Продолжительность: 01:40:31Перевод: Дубляж, ЛицензияСубтитры: Нет

Режиссер: Френсис Лоуренс / Francis LawrenceВ ролях: Уилл Смит (Robert Neville), Алиси Брага (Anna), Чарли Тахэн (Ethan), Салли Ричардсон-Уитфилд (Zoe Neville), Уиллоу Смит (Marley Neville), Даррел Фостер (Mike - Military Escort), Эйприл Грэйс (TV Personality), Дэш Майок (Alpha Male), Джоанна Нумата (Alpha Female), Эбби (Sam), Кона (Sam), Сэмюэл Глен (Military Driver - Jay)

Описание: Адаптация одноименного романа Ричарда Мэтисона о неизвестном вирусе, унесшем жизни половины населения земного шара, а остальную половину превратившего в вампиров. Сюжет строится вокруг единственного уцелевшего человека с необъяснимым иммунитетом, ночами держащего бесконечную осаду упырей, а днем пытающегося найти противоядие и выяснить причины эпидемии.

kinopoisk.ru: 7.919 (136 378)imdb.com: 7.20 (380 901)MPAA: PG-13 - Детям до 13 лет просмотр не желателен

Качество: BDRip 720pФормат: MKVВидео кодек: AVCАудио кодек: AC3Видео: AVC, 1280x534 (2.40:1), 16020 kbps, 59,940 fps, 0,391 bppАудио: AC3 / 5.1 / 48 kHz / 448 kbps / 16 bit

Автор: kryl1411

GeneralUnique ID : 240181637719661094420389965367711727822 (0xB4B14D02624AA423BA40C6697CF980CE)Complete name : C:\закачки\I.Am.Legend_60fps.mkvFormat : MatroskaFormat version : Version 2File size : 11.6 GiBDuration : 1h 40mnOverall bit rate : 16.5 MbpsMovie name : BD-Remux by DaniLchEncoded date : UTC 2013-01-10 15:09:43Writing application : mkvmerge v3.4.0 ('Rapunzel') сборка от May 15 2010 09:38:20Writing library : libebml v0.8.0 + libmatroska v0.9.0

VideoID : 1Format : AVCFormat/Info : Advanced Video CodecFormat profile : [email protected] settings, CABAC : YesFormat settings, ReFrames : 12 framesCodec ID : V_MPEG4/ISO/AVCDuration : 1h 40mnBit rate : 16.0 MbpsWidth : 1 280 pixelsHeight : 534 pixelsDisplay aspect ratio : 2.40:1Frame rate : 59.940 fpsColor space : YUVChroma subsampling : 4:2:0Bit depth : 8 bitsScan type : ProgressiveBits/(Pixel*Frame) : 0.391Stream size : 11.0 GiB (95%)Writing library : x264 core 129 r2230 1cffe9fEncoding settings : cabac=1 / ref=12 / deblock=1:-3:-3 / analyse=0x3:0x133 / me=esa / subme=10 / psy=1 / psy_rd=1.00:0.00 / mixed_ref=1 / me_range=32 / chroma_me=1 / trellis=2 / 8x8dct=1 / cqm=0 / deadzone=21,11 / fast_pskip=1 / chroma_qp_offset=-2 / threads=12 / lookahead_threads=2 / sliced_threads=0 / nr=0 / decimate=1 / interlaced=0 / bluray_compat=0 / constrained_intra=0 / bframes=8 / b_pyramid=2 / b_adapt=2 / b_bias=0 / direct=3 / weightb=1 / open_gop=0 / weightp=2 / keyint=599 / keyint_min=59 / scenecut=40 / intra_refresh=0 / rc_lookahead=60 / rc=2pass / mbtree=1 / bitrate=16020 / ratetol=1.0 / qcomp=0.60 / qpmin=0 / qpmax=69 / qpstep=4 / cplxblur=20.0 / qblur=0.5 / ip_ratio=1.40 / aq=1:1.00Language : EnglishDefault : NoForced : No

AudioID : 2Format : AC-3Format/Info : Audio Coding 3Mode extension : CM (complete main)Codec ID : A_AC3Duration : 1h 40mnBit rate mode : ConstantBit rate : 448 KbpsChannel(s) : 6 channelsChannel positions : Front: L C R, Side: L R, LFESampling rate : 48.0 KHzBit depth : 16 bitsCompression mode : LossyStream size : 322 MiB (3%)Title : AC3 5.1 @ 448 kbps - Дубляж, Blu-ray CEELanguage : RussianDefault : NoForced : No

Скачать Я – легенда через торрент http://i48.fastpic.ru/big/2013/0423/2d/feb28895f097b9b23cd5e10c12ca602d.png Скачать фильм Я – легенда через торрент бесплантно в хорошем качестве Описание: Адаптация одноименного романа Ричарда Мэтисона о неизвестном вирусе, унесшем жизни половины населения земного шара, а остальную ... 2014-07-19 12:40 9.9 10 18

Loading...

Loading...

Рекламный пират

19-07-2014 13:09 Я – легенда Скачать торрент  

KEYS, если будут артефакты, тебя заставлю рядом смотреть :threaten:

шутка

19-07-2014 13:15 Я – легенда Скачать торрент  

19-07-2014 13:17 Я – легенда Скачать торрент  

да артефакты штука неприятная

19-07-2014 13:23 Я – легенда Скачать торрент  

в чём прикол этих 60 фпс?или это уже,как у аудиофилов?

19-07-2014 13:35 Я – легенда Скачать торрент  

ТаможеНик писал(а):

KEYS, если будут артефакты, тебя заставлю рядом смотреть :threaten:

шутка

все претензии к автору рипа :this:

Цитата:

Q: Присутствуют ли артефакты на изображении?A: Да, есть, и будут, какие настройки кодека не вписывай они будут постоянно! хоть они и обработаны фильтром "Sharp", но они выглядят вполне смотрибельно.+ > Артефактов стало меньше! Cкрипт кодирования переписан, распределено добавление кадров! (это уменьшило появление артефактов)

vanesfeo писал(а):

в 1080р есть?

не нашел

19-07-2014 13:53 Я – легенда Скачать торрент  

NO FEAR писал(а):

в чём прикол этих 60 фпс?или это уже,как у аудиофилов?

Цитата:

В 2,5 раза больше кадров!В 2,5 раза плавнее! (59,94 fps)

короче более "живая" картинка

19-07-2014 15:15 Я – легенда Скачать торрент  

от этих 60 фпс такое ощущение, что видео ускорено, уж очень както быстро действия происходят, а на самом деле все идет своим чередом.. ощущение странное xD

19-07-2014 15:37 Я – легенда Скачать торрент  

vanesfeo, а теперь прдставь что на 120 fps творится)

Pекламный агент PB

19-07-2014 16:20 Я – легенда Скачать торрент  

19-07-2014 16:43 Я – легенда Скачать торрент  

01-08-2014 10:13 Я – легенда Скачать торрент  

Так в плеерах есть же функция Motion (Mirillis splash) для таково вот "ускорения",хз попробую посмотреть.

Дорогой пользователь! Огромная просьба, поблагодарите релизера, оцените раздачу и оставьте свои комментарий, если Вы скачали Я – легенда через торрент бесплатно! Внесите свою лепту в развитие PiratBit!

Комментировать посты могут только пользователи прошедшие не сложную регистрацию

Я – легенда через торрент Скачать бесплатно Я – легенда Я – легенда скачать торрент Я – легенда смотреть онлайн Cкачать фильм Я – легенда бесплатно Я – легенда скачать торрент в хорошем качестве Я – легенда смотреть онлайн бесплатно в хорошем качестве

Вы не можете начинать темыВы не можете отвечать на сообщенияВы не можете редактировать свои сообщенияВы не можете удалять свои сообщенияВы не можете голосовать в опросахВы не можете прикреплять файлы к сообщениямВы можете скачивать файлы

piratbit.ru


Смотрите также