Аномалия 2014 скачать фильм через торрент в хорошем качестве


Аномалия / The Anomaly скачать фильм торрент 2014 -

Коротко о фильме "Аномалия" - Бывший солдат попадает в плен. Очнувшись, он узнает, что у него осталось всего несколько минут, чтобы понять, как он туда попал…

Аномалия

Оригинальное название The Anomaly
Фильм выпущен: 2014
Страна (кинокомпания): Великобритания
Pежиссер: Ноэль Кларк
Сценарий фильма: Саймон Льюис
Продюсер фильма: Ноэль Кларк, Джеймс Харрис, Марк Лэйн
Оператор: Дэвид Кацнелсон
Композитор: Том Линден
Художники: Пол Барнс, Ник Акасс, Elliot Scott
Монтаж: Томми Боулдинг
Жанр фильма: фантастика, боевик
Премьера (мир): 19 июня 2014
премьера (Pоссия):
продолжительность97 мин
В главных ролях:
Арт Паркинсон
Али Кук
Майкл Биспинг
Ниал Грег Фултон
Люк Хемсворт
Алексис Нэп
Брайан Кокс
Иен Сомерхолдер
Ноэль Кларк
и другие ...

Трейлер фильма:

 

Фильм Аномалия / The Anomaly скачать торрент - новинка кино 2014

Скачать файлы .torrent Аномалия (фильм)

на сайте Вы можете получить ссылку на торрент файлы или скачать сами торрент файлы, в которых находится информация о местонахождении фильмов, сериалов у пользователей.

В фильме "Аномалия" - бывший солдат взят в плен и просыпается у борта фургона, где узнает, что у него есть немного времени, чтобы выяснить, как он тут оказался



Параметры: 29.10.2014 BDRip 1080p от MediaClub | D | Лицензия, 7,69 Гб

Формат: MPEG-4 AVC, MKV, AC3, размер файла: 7,69 ГбВидео: 1920x816, - 9500 Кбит/сАудио: Русский: AC3, 6 каналов, 384 Кбит/с / Английский: DTS, 6 каналов, 1510 Кбит/сПеревод (озвучивание): Дублированный + оригинал

Параметры: 27.10.2014 HDRip-AVC от New-Team | D | Лицензия, 1,46 Гб

Формат: HDRip-AVC [BDRip 1080p DON],, размер файла: 1,46 ГбВидео: 960x408, AVC - 1782 Кбит/сАудио: Русский: AC3, 6 каналов, 384 Кбит/сПеревод (озвучивание): Профессиональный (полное дублирование) [Лицензия R5]

Параметры: 27.10.2014 HDRip-AVC от New-Team | D | Лицензия, 749 Мб

Формат: HDRip-AVC [BDRip 1080p DON], MKV, AVC, AAC, размер файла: 749 МбВидео: 800x340, AVC - 1017 Кбит/сАудио: Русский: AAC, 2 канала, 64 Кбит/сПеревод (озвучивание): Профессиональный (полное дублирование) [Лицензия R5]

Параметры: 26.10.2014 HDRip | Лицензия, 745 Мб

Формат: HDRip [Рип с BDRip 720p], AVI, XviD, AC3, размер файла: 745 МбВидео: 720x304, XviD - 939 Кбит/сАудио: AC3, 2 канала, 128 Кбит/сПеревод (озвучивание): Дублированное [лицензия]

Параметры: 26.10.2014 2,25 Гб -

Формат: BDRip (AVC), MKV, AVC, размер файла: 2,25 ГбВидео: 1024x436, AVC - 2500 Кбит/сАудио: Русский / Английский: AC3, 6 каналов, 384 Кбит/сПеревод (озвучивание): Дублированный - Лицензия

Параметры: 26.10.2014 HDRip, 1,46 Гб -

Формат: HDRip, XviD, AC3, размер файла: 1,46 ГбВидео: 720x304, XviD - 1764 Кбит/сАудио: AC3, 6 каналов, 384 Кбит/сПеревод (озвучивание): Дублированный - Лицензия

Параметры: 26.10.2014 HDRip, 745 Мб -

Формат: HDRip, XviD, AC3, размер файла: 745 МбВидео: 720x304, XviD - 940 Кбит/сАудио: AC3, 2 канала, 128 Кбит/сПеревод (озвучивание): Дублированный - Лицензия

Параметры: 26.10.2014 BDRip-AVC от MediaClub | D | Лицензия, 2,25 Гб

Формат: BDRip (AVC), MKV, AVC, AC3, размер файла: 2,25 ГбВидео: 1024x436, AVC - 2500 Кбит/сАудио: Русский: AC3, 6 каналов, 384 Кбит/с / Английский: AC3, 6 каналов, 448 Кбит/сПеревод (озвучивание): Дублированный

Параметры: 25.10.2014 HDRip | Лицензия, 1,46 Гб

Формат: HDRip [Рип с BDRip 720p], AVI, XviD, AC3, размер файла: 1,46 ГбВидео: 720x304, XviD - 1764 Кбит/сАудио: AC3, 6 каналов, 384 Кбит/сПеревод (озвучивание): Дублированное [лицензия]

Параметры: 25.10.2014 6,18 Гб -

Формат: BDRip (720p), MKV, AVC, размер файла: 6,18 ГбВидео: 1280x544, AVC - 7081 Кбит/сАудио: Русский / Английский: AC3, 6 каналов, 384 Кбит/сПеревод (озвучивание): Дублированный - Лицензия

Скачать Аномалия, The Anomaly, фильм бесплатно скачать торрент, фантастика, боевик, новинка кино

 

hokit.ru

Скачать фильм Аномалия (2014) через торрент

14 марта 2016 07:16 Аномалия / The Anomaly (2014) BDRip 720p | KinoGadget | iPad .torrent   [Информация о файле (нажмите для просмотра)] Перевод: ДублированныйКачество: BDRip 720pФормат: mp4 1,91 Gb 7 3 14 марта 2016 07:16 Аномалия / The Anomaly (2014) BDRip 1080p от MediaClub | D | Лицензия .torrent   [Информация о файле (нажмите для просмотра)] Перевод: Дублированный + оригиналКодек: BDRip 1080pКачество: MPEG-4 AVCВидео: 9500 Кбит/с, 1920x816, 23.976 кадр/сАудио #1: Русский (AC3, 6 ch, 384 Кбит/с) / Дублированный (R5)Аудио #2: Английский (DTS, 6 ch, 1510 Кбит/с)Субтитры: Английские (Full, SDH) 7,69 Gb 3 4 14 марта 2016 07:16 Аномалия / The Anomaly (2014) HDRip-AVC от New-Team | D | Лицензия .torrent   [Информация о файле (нажмите для просмотра)] Перевод: Профессиональный (полное дублирование) [Лицензия R5]Видео: 1017 Кбит/сек, 800*340 (2,35:1), в 23,976 кадр/сек, AVCАудио: Russian, 64,0 Кбит/сек, 48,0 КГц / 24,0 КГц, 2 канала(ов), AAC (HE-AAC / LC)Видео: Идентификатор : 1 Формат : AVC Формат/Информация : Advanced Video Codec Профиль формата : [email protected] Параметр CABAC формата : Да Параметр ReFrames формата : 12 кадры Идентификатор кодека : V_MPEG4/ISO/AVC Продолжительность : 1 ч. 36 м. Номинальный битрейт : 1017 Кбит/сек Ширина : 800 пикс. Высота : 340 пикс. Соотношение сторон : 2,35:1 Частота кадров : 23,976 кадр/сек Цветовое пространство : YUV Подвыборка цветности : 4:2:0 Битовая глубина : 8 бит Тип развёртки : Прогрессивная Бит/(Пиксели*Кадры) : 0.156 Библиотека кодирования : x264 core 142 r2431 ac76440 Настройки программы : cabac=1 / ref=12 / deblock=1:-2:-1 / analyse=0x3:0x133 / me=umh / subme=11 / psy=1 / psy_rd=1.00:0.10 / mixed_ref=1 / me_range=48 / chroma_me=1 / trellis=2 / 8x8dct=1 / cqm=0 / deadzone=21,11 / fast_pskip=0 / chroma_qp_offset=-3 / threads=12 / lookahead_threads=2 / sliced_threads=0 / nr=0 / decimate=0 / interlaced=0 / bluray_compat=0 / constrained_intra=0 / bframes=15 / b_pyramid=2 / b_adapt=2 / b_bias=0 / direct=3 / weightb=1 / open_gop=0 / weightp=2 / keyint=240 / keyint_min=23 / scenecut=40 / intra_refresh=0 / rc_lookahead=80 / rc=2pass / mbtree=0 / bitrate=1017 / ratetol=1.0 / qcomp=0.70 / qpmin=0 / qpmax=69 / qpstep=4 / cplxblur=20.0 / qblur=0.5 / vbv_maxrate=20000 / vbv_bufsize=25000 / nal_hrd=none / filler=0 / ip_ratio=1.20 / pb_ratio=1.10 / aq=2:1.00Аудио: Идентификатор : 2 Формат : AAC Формат/Информация : Advanced Audio Codec Профиль формата : HE-AAC / LC Идентификатор кодека : A_AAC Продолжительность : 1 ч. 36 м. Канал(ы) : 2 канала(ов) Расположение каналов : Front: L R Частота : 48,0 КГц / 24,0 КГц Метод сжатия : С потерями Задержка видео : 31 мс. Язык : Russian 748,78 Mb 5 1 14 марта 2016 07:16 Аномалия / The Anomaly (2014) HDRip-AVC от New-Team | D | Лицензия .torrent   [Информация о файле (нажмите для просмотра)] Перевод: Профессиональный (полное дублирование) [Лицензия R5]Видео: 1782 Кбит/сек, 960*408 (2,35:1), в 23,976 кадр/сек, AVCАудио: Russian, 384 Кбит/сек, 48,0 КГц, 16 бит, 6 канала(ов), AC-3Видео: Идентификатор : 1 Формат : AVC Формат/Информация : Advanced Video Codec Профиль формата : [email protected] Параметр CABAC формата : Да Параметр ReFrames формата : 11 кадры Идентификатор кодека : V_MPEG4/ISO/AVC Продолжительность : 1 ч. 36 м. Битрейт : 1782 Кбит/сек Ширина : 960 пикс. Высота : 408 пикс. Соотношение сторон : 2,35:1 Частота кадров : 23,976 кадр/сек Цветовое пространство : YUV Подвыборка цветности : 4:2:0 Битовая глубина : 8 бит Тип развёртки : Прогрессивная Бит/(Пиксели*Кадры) : 0.190 Размер потока : 1,18 Гбайт (80%) Библиотека кодирования : x264 core 142 r2431 ac76440 Настройки программы : cabac=1 / ref=11 / deblock=1:-3:-2 / analyse=0x3:0x133 / me=umh / subme=11 / psy=1 / psy_rd=1.00:0.15 / mixed_ref=1 / me_range=48 / chroma_me=1 / trellis=2 / 8x8dct=1 / cqm=0 / deadzone=21,11 / fast_pskip=0 / chroma_qp_offset=-3 / threads=12 / lookahead_threads=3 / sliced_threads=0 / nr=0 / decimate=0 / interlaced=0 / bluray_compat=0 / constrained_intra=0 / bframes=12 / b_pyramid=2 / b_adapt=2 / b_bias=0 / direct=3 / weightb=1 / open_gop=0 / weightp=2 / keyint=240 / keyint_min=23 / scenecut=40 / intra_refresh=0 / rc_lookahead=80 / rc=2pass / mbtree=0 / bitrate=1782 / ratetol=1.0 / qcomp=0.70 / qpmin=0 / qpmax=69 / qpstep=4 / cplxblur=20.0 / qblur=0.5 / vbv_maxrate=20000 / vbv_bufsize=25000 / nal_hrd=none / filler=0 / ip_ratio=1.30 / pb_ratio=1.20 / aq=2:0.80 Язык : EnglishАудио: Идентификатор : 2 Формат : AC-3 Формат/Информация : Audio Coding 3 Расширение режима : CM (complete main) Идентификатор кодека : A_AC3 Продолжительность : 1 ч. 36 м. Вид битрейта : Постоянный Битрейт : 384 Кбит/сек Канал(ы) : 6 канала(ов) Расположение каналов : Front: L C R, Side: L R, LFE Частота : 48,0 КГц Битовая глубина : 16 бит Метод сжатия : С потерями Размер потока : 265 Мбайт (18%) Язык : Russian 1,46 Gb 9 1 14 марта 2016 07:16 Аномалия / The Anomaly (2014) HDRip от Generalfilm | КПК | Лицензия .torrent   [Информация о файле (нажмите для просмотра)] Качество: HDRip | КПКВидео: кодеккодек: x264,формат: mp4,размер кадра: 480х208, битрейт: 350 кб/сАудио: языкрусский, перевод: Дублированный (Лицензия), 331,77 Mb 5 3 14 марта 2016 07:16 Аномалия / The Anomaly (2014) BDRip-AVC от MediaClub | D | Лицензия .torrent   [Информация о файле (нажмите для просмотра)] Перевод: ДублированныйКачество: BDRip (AVC)Видео: MPEG-4 AVC, 2500 Кбит/с, 1024x436, 23.976 кадр/сАудио #1: Русский (AC3, 6 ch, 384 Кбит/с) / Дублированный (R5)Аудио #2: Английский (AC3, 6 ch, 448 Кбит/с)Субтитры: Английские (Full, SDH)Видео: Идентификатор : 1 Формат : AVC Формат/Информация : Advanced Video Codec Профиль формата : [email protected] Параметр CABAC формата : Да Параметр ReFrames формата : 10 кадров Идентификатор кодека : V_MPEG4/ISO/AVC Продолжительность : 1 ч. 36 м. Битрейт : 2500 Кбит/сек Ширина : 1024 пикселя Высота : 436 пикселей Соотношение сторон : 2,35:1 Режим частоты кадров : Постоянный Частота кадров : 23,976 кадра/сек Цветовое пространство : YUV Субдискретизация насыщенности : 4:2:0 Битовая глубина : 8 бит Тип развёртки : Прогрессивная Бит/(Пиксели*Кадры) : 0.234 Размер потока : 1,64 Гбайт (73%) Заголовок : -=MediaClub-kaspr=- Библиотека кодирования : x264 core 142 r2431+42 c69a006 tMod [[email protected]:2:0 X86_64] Настройки программы : cabac=1 / ref=10 / deblock=1:-3:-3 / analyse=0x3:0x113 / me=umh / subme=11 / psy=1 / fade_compensate=0.00 / psy_rd=1.00:0.20 / mixed_ref=1 / me_range=32 / chroma_me=1 / trellis=2 / 8x8dct=1 / cqm=0 / deadzone=21,11 / fast_pskip=0 / chroma_qp_offset=-3 / threads=12 / lookahead_threads=3 / sliced_threads=0 / nr=0 / decimate=0 / interlaced=0 / bluray_compat=0 / constrained_intra=0 / fgo=0 / bframes=14 / b_pyramid=2 / b_adapt=2 / b_bias=0 / direct=3 / weightb=1 / open_gop=0 / weightp=2 / keyint=240 / keyint_min=23 / scenecut=40 / intra_refresh=0 / rc=2pass / mbtree=0 / bitrate=2500 / ratetol=1.0 / qcomp=0.60 / qpmin=0:0:0 / qpmax=69:69:69 / qpstep=4 / cplxblur=20.0 / qblur=0.5 / ip_ratio=1.40 / pb_ratio=1.30 / aq=4:0.80 / aq-sensitivity=10.00 / aq-factor=1.00:1.00:1.00 / aq2=0 / aq3=0 Default : Да Forced : НетАудио #1: Идентификатор : 2 Формат : AC-3 Формат/Информация : Audio Coding 3 Расширение режима : CM (complete main) Параметр Endianness формата : Big Идентификатор кодека : A_AC3 Продолжительность : 1 ч. 36 м. Вид битрейта : Постоянный Битрейт : 384 Кбит/сек Каналы : 6 каналов Расположение каналов : Front: L C R, Side: L R, LFE Частота : 48,0 КГц Битовая глубина : 16 бит Метод сжатия : С потерями Размер потока : 265 Мбайт (12%) Заголовок : Dub Язык : Russian Default : Да Forced : НетАудио #2: Идентификатор : 3 Формат : AC-3 Формат/Информация : Audio Coding 3 Расширение режима : CM (complete main) Параметр Endianness формата : Big Идентификатор кодека : A_AC3 Продолжительность : 1 ч. 36 м. Вид битрейта : Постоянный Битрейт : 448 Кбит/сек Каналы : 6 каналов Расположение каналов : Front: L C R, Side: L R, LFE Частота : 48,0 КГц Битовая глубина : 16 бит Метод сжатия : С потерями Размер потока : 310 Мбайт (13%) Язык : English Default : Нет Forced : Нет 2,25 Gb 7 2 14 марта 2016 07:16 Аномалия / The Anomaly (2014) HDRip | Лицензия .torrent   [Информация о файле (нажмите для просмотра)] Формат: AVI (XviD)Качество: HDRip [Рип с BDRip 720p]Видео: 939 kb/s, 720x304Аудио: AC3, 128 kb/s (2 ch) 744,68 Mb 4 5 14 марта 2016 07:16 Аномалия / The Anomaly (2014) BDRip 720p | Лицензия .torrent   [Информация о файле (нажмите для просмотра)] Формат: MKVКачество: BDRip 720pВидео: 7081 kb/s, 1280x544Аудио: Russian : AC3, 384 kb/s (6 ch) / English: DTS, 1509 kb/s (6 ch) 6,18 Gb 4 4 14 марта 2016 07:16 Аномалия / The Anomaly (2014) HDRip | Лицензия .torrent   [Информация о файле (нажмите для просмотра)] Формат: AVI (XviD)Качество: HDRip [Рип с BDRip 720p]Видео: 1764 kb/s, 720x304Аудио: AC3, 384 kb/s (6 ch) 1,46 Gb 10 5

gig-torrent.net

Скачать фильм Аномалия через торрент в хорошем качестве бесплатно HDRip

Размер: 1.46 GB | Добавлен: 3 года назад | Торрент скачан:2015 раз
Реклама Дарим 3000 рублей за регистрацию, не упусти свой шанс получить шикарный бонус!!!

25-10-2014 15:59 Аномалия Скачать торрент  

Аномалия / The Anomaly

Год выпуска: 2014Страна: Великобритания, Tea Shop & Film CompanyЖанр: Фантастика, БоевикПродолжительность: 01:36:38Перевод: Дубляж[лицензия]

Режиссер: Ноэль КларкПродюссер: Ноэль Кларк, Джеймс Харрис, Марк ЛэйнСценарий: Саймон Льюис

Премьера в мире: 19 июня 2014

IMDb: 5.90 (283) ожидание: 97% (1195)Кинопоиск:5.167 51

В ролях: Ноэль Кларк, Иэн Сомерхолдер, Брайан Кокс, Алексис Нэп, Люк Хемсворт, Ниал Грег Фултон, Майкл Биспинг, Али Кук, Арт Паркинсон

Описание: Бывший солдат попадает в плен. Очнувшись, он узнает, что у него осталось всего несколько минут, чтобы понять, как он туда попал…

Качество: HDRipФормат: AVIВидео кодек: XviDАудио кодек: AC3Видео: 720x304 (2.37:1), 23.976 fps, XviD build 50 ~1764 kbps avg, 0.34 bit/pixelАудио: 48 kHz, AC3 Dolby Digital, 3/2 (L,C,R,l,r) + LFE ch, ~384 kbps

ОбщееПолное имя : D:\torrent\AnomaLnoe.2014.D.HDRip..aviФормат : AVIФормат/Информация : Audio Video InterleaveРазмер файла : 1,46 ГбайтПродолжительность : 1 ч. 36 м.Общий поток : 2158 Кбит/секПрограмма кодирования : VirtualDubMod 1.5.10.2 (build 2540/release)Библиотека кодирования : VirtualDubMod build 2540/release

ВидеоИдентификатор : 0Формат : MPEG-4 VisualПрофиль формата : Advanced [email protected]Параметр BVOP формата : 2Параметр QPel формата : НетПараметр GMC формата : Без точки переходаПараметр матрицы формата : ВыборочнаяИдентификатор кодека : XVIDИдентификатор кодека/Подсказка : XviDПродолжительность : 1 ч. 36 м.Битрейт : 1765 Кбит/секШирина : 720 пикселейВысота : 304 пикселяСоотношение сторон : 2,35:1Частота кадров : 23,976 кадра/секЦветовое пространство : YUVСубдискретизация насыщенности : 4:2:0Битовая глубина : 8 битТип развёртки : ПрогрессивнаяМетод сжатия : С потерямиБит/(Пиксели*Кадры) : 0.336Размер потока : 1,19 Гбайт (82%)Библиотека кодирования : XviD 1.2.1 (UTC 2008-12-04)

АудиоИдентификатор : 1Формат : AC-3Формат/Информация : Audio Coding 3Расширение режима : CM (complete main)Параметр Endianness формата : BigИдентификатор кодека : 2000Продолжительность : 1 ч. 36 м.Вид битрейта : ПостоянныйБитрейт : 384 Кбит/секКаналы : 6 каналовРасположение каналов : Front: L C R, Side: L R, LFEЧастота : 48,0 КГцБитовая глубина : 16 битМетод сжатия : С потерямиРазмер потока : 265 Мбайт (18%)Выравнивание : Разделение по промежуткамПродолжительность промежутка : 42 мс. (1,00 видеокадр)Время предзагрузки промежутка : 500 мс.

Скачать Аномалия через торрент http://pic.pb.wtf/images/7/g7wur.jpg Скачать фильм Аномалия через торрент бесплантно в хорошем качестве Описание: Бывший солдат попадает в плен. Очнувшись, он узнает, что у него осталось всего несколько минут, чтобы понять, как он туда ... 2014-10-25 15:59 9.5 10 69

Loading...

Loading...

% Раздел Тема Автор DL S | L
Фильмы 2014 [DVDrip, WEB-DLRip, HDrip] [ 1.46 GB ] Аномалия / The Anomaly [2014 HDRip-AVC] Dub () + Sub Eng sokol_ok Скачать
Фильмы 2014 [DVDrip, WEB-DLRip, HDrip] [ 749 MB ] Аномалия / The Anomaly [2014 HDRip-AVC] Dub () + Sub Eng sokol_ok Скачать
Фильмы [HD 720p, 1080p] (Хороший звук DUB, MVO) [ 15.27 GB ] Аномалия / The Anomaly [2014 BDRip 1080p ] jump88 Скачать
Фильмы 2014 [DVDrip, WEB-DLRip, HDrip] [ 2.05 GB ] Аномалия / The Anomaly [2014 HDRip - [] Ворон Скачать
Фильмы [HD 720p, 1080p] (Хороший звук DUB, MVO) [ 6.18 GB ] Аномалия / The Anomaly [2014 BDRip 720p [лицензия] Ворон Скачать

Последний раз редактировалось: jump88 (2014-10-26 01:30), всего редактировалось 2 раз(а)

Рекламный пират

25-10-2014 19:23 Аномалия Скачать торрент  

25-10-2014 20:16 Аномалия Скачать торрент  

Как фильмец , цифрам стоит верить?

26-10-2014 05:51 Аномалия Скачать торрент  

Как по мне фильм унылое г-но Даже недосмотрел

27-10-2014 08:42 Аномалия Скачать торрент  

Jeck2000 писал(а):

Сиськи :)

Ух просто соска

27-10-2014 13:38 Аномалия Скачать торрент  

Дорогой пользователь! Огромная просьба, поблагодарите релизера, оцените раздачу и оставьте свои комментарий, если Вы скачали Аномалия через торрент бесплатно! Внесите свою лепту в развитие PiratBit!

Комментировать посты могут только пользователи прошедшие не сложную регистрацию

Аномалия через торрент Скачать бесплатно Аномалия Аномалия скачать торрент Аномалия смотреть онлайн Cкачать фильм Аномалия бесплатно Аномалия скачать торрент в хорошем качестве Аномалия смотреть онлайн бесплатно в хорошем качестве

Вы не можете начинать темыВы не можете отвечать на сообщенияВы не можете редактировать свои сообщенияВы не можете удалять свои сообщенияВы не можете голосовать в опросахВы не можете прикреплять файлы к сообщениямВы можете скачивать файлы

piratbit.ru

Скачать фильм Аномалия через торрент в хорошем качестве бесплатно 1080p

ОбщееУникальный идентификатор : 230856132913462758647568309474101682402 (0xADAD461FC6654C53B48C7F0AD7CDE0E2)Полное имя : D:\torrent\The.Anomaly.2014.1080p.BluRay.x264.Rus.Eng.Subs-DON.mkvФормат : MatroskaВерсия формата : Version 4 / Version 2Размер файла : 15,3 ГбайтПродолжительность : 1 ч. 36 м.Общий поток : 22,6 Мбит/секДата кодирования : UTC 2014-10-25 15:49:03Программа кодирования : mkvmerge v7.0.0 ('Where We Going') 64bit built on Jun 9 2014 15:16:27Библиотека кодирования : libebml v1.3.0 + libmatroska v1.4.1DURATION : 01:31:48.802000000NUMBER_OF_FRAMES : 978NUMBER_OF_BYTES : 33138_STATISTICS_WRITING_APP : mkvmerge v7.0.0 ('Where We Going') 64bit built on Jun 9 2014 15:16:27_STATISTICS_WRITING_DATE_UTC : 2014-10-25 15:49:03_STATISTICS_TAGS : BPS DURATION NUMBER_OF_FRAMES NUMBER_OF_BYTES

ВидеоИдентификатор : 1Формат : AVCФормат/Информация : Advanced Video CodecПрофиль формата : [email protected]Параметр CABAC формата : ДаПараметр ReFrames формата : 5 кадровИдентификатор кодека : V_MPEG4/ISO/AVCПродолжительность : 1 ч. 36 м.Битрейт : 20,1 Мбит/секШирина : 1920 пикселейВысота : 816 пикселейСоотношение сторон : 2,35:1Режим частоты кадров : ПостоянныйЧастота кадров : 23,976 кадра/секЦветовое пространство : YUVСубдискретизация насыщенности : 4:2:0Битовая глубина : 8 битТип развёртки : ПрогрессивнаяБит/(Пиксели*Кадры) : 0.535Размер потока : 13,6 Гбайт (89%)Заголовок : The.Anomaly.2014.1080p.BluRay.DTS.x264-DONБиблиотека кодирования : x264 core 140 r2377 1ca7bb9Настройки программы : cabac=1 / ref=5 / deblock=1:-3:-3 / analyse=0x3:0x133 / me=umh / subme=10 / psy=1 / psy_rd=1.05:0.00 / mixed_ref=1 / me_range=48 / chroma_me=1 / trellis=2 / 8x8dct=1 / cqm=0 / deadzone=21,11 / fast_pskip=0 / chroma_qp_offset=-2 / threads=12 / lookahead_threads=2 / sliced_threads=0 / nr=0 / decimate=0 / interlaced=0 / bluray_compat=0 / constrained_intra=0 / bframes=8 / b_pyramid=2 / b_adapt=2 / b_bias=0 / direct=3 / weightb=1 / open_gop=0 / weightp=2 / keyint=250 / keyint_min=23 / scenecut=40 / intra_refresh=0 / rc_lookahead=60 / rc=crf / mbtree=0 / crf=17.0 / qcomp=0.65 / qpmin=0 / qpmax=69 / qpstep=4 / vbv_maxrate=62500 / vbv_bufsize=78125 / crf_max=0.0 / nal_hrd=none / filler=0 / ip_ratio=1.30 / pb_ratio=1.20 / aq=1:0.75Язык : EnglishDefault : ДаForced : НетDURATION : 01:36:38.710000000NUMBER_OF_FRAMES : 139030NUMBER_OF_BYTES : 14906761682_STATISTICS_WRITING_APP : mkvmerge v7.0.0 ('Where We Going') 64bit built on Jun 9 2014 15:16:27_STATISTICS_WRITING_DATE_UTC : 2014-10-25 15:49:03_STATISTICS_TAGS : BPS DURATION NUMBER_OF_FRAMES NUMBER_OF_BYTES

Аудио #1Идентификатор : 2Формат : AC-3Формат/Информация : Audio Coding 3Расширение режима : CM (complete main)Параметр Endianness формата : BigИдентификатор кодека : A_AC3Продолжительность : 1 ч. 36 м.Вид битрейта : ПостоянныйБитрейт : 384 Кбит/секКаналы : 6 каналовРасположение каналов : Front: L C R, Side: L R, LFEЧастота : 48,0 КГцБитовая глубина : 16 битМетод сжатия : С потерямиРазмер потока : 265 Мбайт (2%)Язык : RussianDefault : ДаForced : Нет

Аудио #2Идентификатор : 3Формат : DTSФормат/Информация : Digital Theater SystemsРежим : 16Параметр Endianness формата : BigИдентификатор кодека : A_DTSПродолжительность : 1 ч. 36 м.Вид битрейта : ПостоянныйБитрейт : 1509 Кбит/секКаналы : 6 каналовРасположение каналов : Front: L C R, Side: L R, LFEЧастота : 48,0 КГцБитовая глубина : 24 битМетод сжатия : С потерямиРазмер потока : 1,02 Гбайт (7%)Язык : EnglishDefault : НетForced : Нет

Аудио #3Идентификатор : 4Формат : AC-3Формат/Информация : Audio Coding 3Расширение режима : CM (complete main)Параметр Endianness формата : BigИдентификатор кодека : A_AC3Продолжительность : 1 ч. 36 м.Вид битрейта : ПостоянныйБитрейт : 192 Кбит/секКаналы : 2 каналаРасположение каналов : Front: L RЧастота : 48,0 КГцБитовая глубина : 16 битМетод сжатия : С потерямиРазмер потока : 133 Мбайт (1%)Заголовок : Commentary with director Noel ClarkeЯзык : EnglishDefault : НетForced : Нет

Текст #1Идентификатор : 5Формат : UTF-8Идентификатор кодека : S_TEXT/UTF8Идентификатор кодека/Информация : UTF-8 Plain TextЗаголовок : SDHЯзык : EnglishDefault : НетForced : Нет

Текст #2Идентификатор : 6Формат : UTF-8Идентификатор кодека : S_TEXT/UTF8Идентификатор кодека/Информация : UTF-8 Plain TextЗаголовок : Commentary with director Noel ClarkeЯзык : EnglishDefault : НетForced : Нет

Текст #3Идентификатор : 7Формат : UTF-8Идентификатор кодека : S_TEXT/UTF8Идентификатор кодека/Информация : UTF-8 Plain TextЯзык : RomanianDefault : НетForced : Нет

Меню00:00:00.000 : en:00:00:00.00000:08:58.955 : en:00:08:58.95500:16:34.535 : en:00:16:34.53500:23:41.712 : en:00:23:41.71200:31:54.663 : en:00:31:54.66300:40:54.577 : en:00:40:54.57700:51:02.059 : en:00:51:02.05900:59:28.148 : en:00:59:28.14801:05:38.768 : en:01:05:38.76801:14:22.458 : en:01:14:22.45801:22:12.386 : en:01:22:12.38601:28:36.144 : en:01:28:36.144

piratbit.ru


Смотрите также