Бесплатно скачать фильм дикая орхидея в хорошем качестве бесплатно


Дикая орхидея 1989 - скачать бесплатно через торрент в хорошем качестве. Без регистрации

Название: Дикая орхидея / Wild Orchid (1989) BDRip 720p | P, P2 | Unrated
Качество видео: BDRip 720p
Перевод: Профессиональный (двухголосый закадровый) 2x НТВ+, НТВ, Рен-ТВПрофессиональный (многоголосый закадровый) Гемини, Нева 1, R5Профессиональный (многоголосый закадровый) Интер / К1 (Ukr)
Видео: MPEG-4 AVC, 6171 Кбит/с, 1280x692, 23.976 кадр/с
Аудио: Dolby AC3 48000Hz stereo 192kbps НТВ+ DVODolby AC3 48000Hz stereo 192kbps Гемини MVODolby AC3 48000Hz stereo 192kbps R5 MVODolby AC3 48000Hz stereo 192kbps НТВ+ DVODolby AC3 48000Hz stereo 192kbps Нева 1 MVODolby AC3 48000Hz stereo 192kbps НТВ DVODolby AC3 48000Hz stereo 192kbps Рен-ТВ DVODolby AC3 48000Hz stereo 192kbps AMC Ukr DVODolby AC3 48000Hz stereo 192kbps Интер / К1 Ukr MVODolby AC3 48000Hz stereo 192kbps ICTV Ukr DVODolby AC3 48000Hz stereo 448kbps English Original
Скачать

Загрузка начнется в течение 5 сек.

6.66 GB

Название: Дикая орхидея / Wild Orchid (1989) HDRip от Scarabey | D
Качество видео: HDRip
Перевод: Профессиональный (полное дублирование)
Видео: 624x336 (1.86:1), 23.976 fps, XviD build 73 ~852 kbps avg, 0.17 bit/pixel
Аудио: 48 kHz, MPEG Layer 3, 2 ch, ~128.00 kbps avg
Скачать

Загрузка начнется в течение 5 сек.

745.40 MB

Название: Дикая орхидея / Wild Orchid (1989) BDRip 1080p | D, P, A
Качество видео: BDRip 1080p
Перевод: Дублированный, профессиональный многоголосый, авторский одноголосый
Видео: h.264 MPEG-4 AVC, 1920x1040, 8 200 Кбит/с, 23.976 кадр/с
Аудио: Русский ( AC3, 2ch, 384 Кбит/с, 48.0 KHz) Авторский одноголосый, закадровый (А. Гаврилов)Русский ( AC3, 2ch, 192 Кбит/с, 48.0 KHz) Профессиональный многоголосый закадровыйРусский ( AC3, 2ch, 192 Кбит/с, 48.0 KHz) Профессиональный многоголосый закадровый (Ren-TV)Русский ( AC3, 2ch, 192 Кбит/с, 48.0 KHz) Авторский одноголосый, закадровый (В.Горчаков)Русский ( AC3, 2ch, 192 Кбит/с, 48.0 KHz) Авторский одноголосый, закадровый (М.Иванов)Украинский ( AC3, 2ch, 192 Кбит/с, 48.0 KHz) Профессиональный многоголосый закадровый(ICTV)Английский ( AC3, 2ch, 384 Кбит/с, 48.0 KHz)
Скачать

Загрузка начнется в течение 5 сек.

7.59 GB

Название: Дикая орхидея / Wild Orchid (1989) HDRip от Scarabey | D
Качество видео: HDRip
Перевод: Профессиональный (полное дублирование)
Видео: 704x384 (1.83:1), 23.976 fps, XviD build 50 ~1766 kbps avg, 0.27 bit/pixel
Аудио: 48 kHz, AC3 Dolby Digital, 2/0 (L,R) ch, ~192.00 kbps avg
Скачать

Загрузка начнется в течение 5 сек.

1.45 GB

Название: Дикая орхидея / Wild Orchid (1989) Blu-Ray Remux 1080p | D, P, A
Качество видео: Blu-Ray Remux (1080p)
Перевод: Дублированный, профессиональный многоголосый, авторский одноголосый
Видео: MPEG-4 AVC 25921 Кбит/с, 1920x1080
Аудио: Русский (DTS-HD MA, 2 ch, 1883 Кбит/с), (АС3, 2 ch, 192 Кбит/с), украинский (АС3, 2 ch, 192 Кбит/с), английский (DTS-HD MA, 2 ch, 1855 Кбит/с)
Скачать

Загрузка начнется в течение 5 сек.

24.43 GB

Название: Дикая орхидея / Wild Orchid (1989) BDRip-AVC от 0ptimus | D, P, A
Качество видео: BDRip-AVC
Перевод: Дублированный, профессиональный многоголосый, авторский
Видео: h.264 3328 Кбит/с, 1024x554, 23.976 кадр/с
Аудио: • №1: Русский (AC3, 2 ch, 192 Кбит/с) Дублированный
Скачать

Загрузка начнется в течение 5 сек.

3.72 GB

Название: Дикая орхидея / Wild Orchid (1989) BDRip 720p от NNNB | D,P,A
Качество видео: BDRip 720p
Перевод: Дублированный, Профессиональный многоголосый, Авторский (одноголосый)
Формат видео: AVC (библиотека кодирования x.264)
Видео: 1280x694 (16:9), 10686 Кбит/сек, 23,976 кадр/сек, 0,502 Бит/[Пиксели*Кадры]
Аудио: русский / AC3 / 2.0 / 48 kHz / 192 kbps / 16 bit |Многоголосый закадровый|русский / AC3 / 2.0 / 48 kHz / 192 kbps / 16 bit |Дублированный|русский / AC3 / 2.0 / 48 kHz / 448 kbps / 16 bit |Авторский, А.Гаврилов|русский / AC3 / 2.0 / 48 kHz / 192 kbps / 16 bit |Многоголосый закадровый, Ren-TV|русский / AC3 / 2.0 / 48 kHz / 192 kbps / 16 bit |Авторский, В.Горчаков|русский / AC3 / 2.0 / 48 kHz / 192 kbps / 16 bit |Авторский, М.Иванов|украинский / AC3 / 2.0 / 48 kHz / 192 kbps / 16 bit |Многоголосый закадровый, ICTV|украинский / AC3 / 2.0 / 48 kHz / 192 kbps / 16 bit |Многоголосый закадровый, Inter|английский / AC3 / 2.0 / 48 kHz / 448 kbps / 16 bit
Скачать

Загрузка начнется в течение 5 сек.

9.70 GB

Название: Дикая орхидея / Wild Orchid (1989) BDRip от HQCLUB
Качество видео: BDRip (источник: / BD-Remux / 1080p)
Перевод: Профессиональный (полное дублирование) + Профессиональный (многоголосый, закадровый) (отдельно, http) + Профессиональный (многоголосый, закадровый) REN-TV (отдельно, http) + Авторский одноголосый А.Га
Формат видео: AVI
Видео: 704x384 (1.83:1), 23.976 fps, XviD build 66 ~1775 kbps avg, 0.27 bit/pixel
Аудио: 48 kHz, AC3 Dolby Digital, 2/0 (L,R), ~192.00 kbps avg48 kHz, AC3 Dolby Digital, 2/0 (L,R), ~192.00 kbps avg (отдельно, http)48 kHz, AC3 Dolby Digital, 2/0 (L,R), ~192.00 kbps avg (отдельно, http)48 kHz, AC3 Dolby Digital, 2/0 (L,R), ~192.00 kbps avg (отдельно, http)48 kHz, AC3 Dolby Digital, 2/0 (L,R), ~192.00 kbps avg (отдельно, http)48 kHz, AC3 Dolby Digital, 2/0 (L,R), ~192.00 kbps avg (отдельно, http)48 kHz, AC3 Dolby Digital, 2/0 (L,R), ~192.00 kbps avg (отдельно, http)48 kHz, AC3 Dolby Digital, 2/0 (L,R), ~192.00 kbps avg (отдельно, http)48 kHz, AC3 Dolby Digital, 2/0 (L,R), ~192.00 kbps avg (отдельно, http)
Скачать

Загрузка начнется в течение 5 сек.

1.45 GB

Название: Дикая орхидея / Wild Orchid (1989) DVDRip от MediaClub | КПК
Качество видео: DVDRip
Перевод: Дублированный
Видео: MPEG-4 714 Кбит/с, 320x176, 23.976 кадр/с
Аудио: Русский (AAC, 2 ch, 165 Кбит/с)
Скачать

Загрузка начнется в течение 5 сек.

705.33 MB

Название: Дикая орхидея / Wild Orchid (1989) DVDRip | P
Качество видео: DVDRip
Перевод: Профессиональный (многоголосый закадровый)
Видео: XviD 640x336 (1.90:1), 25 fps, XviD build 50 ~836 kbps avg, 0.16 bit/pixel
Аудио: 48 kHz, MPEG Layer 3, 2 ch, ~128.00 kbps avg
Скачать

Загрузка начнется в течение 5 сек.

745.25 MB

Название: Дикая орхидея / Wild Orchid (1989) DVD-9 от NovaLan | Полная версия
Качество видео: DVD-9
Перевод: Дублированный / Профессиональный, многоголосый / Профессиональный, двухголосый / Авторский, одноголосый (А. Гаврилов)
Видео: MPEG-2 NTSC 16:9 (720x480) VBR
Аудио: Английский (Dolby AC3, 2 ch) / ДБ (Dolby AC3, 2 ch) / ПМ (Dolby AC3, 2 ch) / ПД (Dolby AC3, 2 ch) / АО (Гаврилов) (Dolby AC3, 2 ch)
Скачать

Загрузка начнется в течение 5 сек.

4.55 GB

www.kinovit.net

Скачать фильм Дикая орхидея (1989) через торрент

24 мая 2016 10:17 Дикая орхидея / Wild Orchid (1989) HDRip от Scarabey | D .torrent   [Информация о файле (нажмите для просмотра)] Перевод: Профессиональный (полное дублирование)Видео: 624x336 (1.86:1), 23.976 fps, XviD build 73 ~852 kbps avg, 0.17 bit/pixelАудио: 48 kHz, MPEG Layer 3, 2 ch, ~128.00 kbps avg 745,4 Mb 20 6 24 мая 2016 10:17 Дикая орхидея / Wild Orchid (1989) BDRip 1080p | D, P, A .torrent   [Информация о файле (нажмите для просмотра)] Перевод: Дублированный, профессиональный многоголосый, авторский одноголосыйКодек: h.264Качество: BDRip 1080pВидео: MPEG-4 AVC, 1920x1040, 8 200 Кбит/с, 23.976 кадр/сЗвук: Аудио #1: Русский ( AC3, 2ch, 384 Кбит/с, 48.0 KHz) ДубляжАудио #2: Русский ( AC3, 2ch, 384 Кбит/с, 48.0 KHz) Авторский одноголосый, закадровый (А. Гаврилов)Аудио #3: Русский ( AC3, 2ch, 192 Кбит/с, 48.0 KHz) Профессиональный многоголосый закадровыйАудио #4: Русский ( AC3, 2ch, 192 Кбит/с, 48.0 KHz) Профессиональный многоголосый закадровый (Ren-TV)Аудио #5: Русский ( AC3, 2ch, 192 Кбит/с, 48.0 KHz) Авторский одноголосый, закадровый (В.Горчаков)Аудио #6: Русский ( AC3, 2ch, 192 Кбит/с, 48.0 KHz) Авторский одноголосый, закадровый (М.Иванов)Аудио #7: Украинский ( AC3, 2ch, 192 Кбит/с, 48.0 KHz) Профессиональный многоголосый закадровый(ICTV)Аудио #8: Английский ( AC3, 2ch, 384 Кбит/с, 48.0 KHz) 7,59 Gb 9 4 24 мая 2016 10:17 Дикая орхидея / Wild Orchid (1989) HDRip от Scarabey | D .torrent   [Информация о файле (нажмите для просмотра)] Перевод: Профессиональный (полное дублирование)Видео: 704x384 (1.83:1), 23.976 fps, XviD build 50 ~1766 kbps avg, 0.27 bit/pixelАудио: 48 kHz, AC3 Dolby Digital, 2/0 (L,R) ch, ~192.00 kbps avg 1,45 Gb 35 5 24 мая 2016 10:17 Дикая орхидея / Wild Orchid (1989) Blu-Ray Remux 1080p | D, P, A .torrent   [Информация о файле (нажмите для просмотра)] Перевод: Дублированный, профессиональный многоголосый, авторский одноголосыйКодек: MPEG-4 AVCКачество: Blu-Ray Remux (1080p)Видео: 25921 Кбит/с, 1920x1080Звук: Русский (DTS-HD MA, 2 ch, 1883 Кбит/с), (АС3, 2 ch, 192 Кбит/с), украинский (АС3, 2 ch, 192 Кбит/с), английский (DTS-HD MA, 2 ch, 1855 Кбит/с)Субтитры: РусскиеАудио: Аудио #1: Русский (AC3, 2 ch, 192 Кбит/с) - Дублированный Аудио #2: Русский (DTS-HD MA, 2 ch, 1883 Кбит/с) - Авторский одноголосый (Гаврилов) Аудио #3: Русский (AC3, 2 ch, 192 Кбит/с) - Профессиональный многоголосый Аудио #4: Русский (AC3, 2 ch, 192 Кбит/с) - Профессиональный многоголосый (Ren-TV) Аудио #5: Русский (AC3, 2 ch, 192 Кбит/с) - Авторский одноголосый (Горчаков) Аудио #6: Русский (AC3, 2 ch, 192 Кбит/с) - Авторский одноголосый (Иванов) Аудио #7: Украинский (AC3, 2 ch, 192 Кбит/с) - Профессиональный многоголосый (ICTV) Аудио #8: Украинский (AC3, 2 ch, 192 Кбит/с) - Профессиональный многоголосый (Inter) Аудио #9: Английский (DTS-HD MA, 2 ch, 1855 Кбит/с) - Оригинал 24,43 Gb 4 3 24 мая 2016 10:17 Дикая орхидея / Wild Orchid (1989) BDRip-AVC от 0ptimus | D, P, A .torrent   [Информация о файле (нажмите для просмотра)] Перевод: Дублированный, профессиональный многоголосый, авторскийКодек: h.264Качество: BDRip-AVCВидео: 3328 Кбит/с, 1024x554, 23.976 кадр/сЗвук: • №1: Русский (AC3, 2 ch, 192 Кбит/с) Дублированный • №2: Русский (AC3, 2 ch, 192 Кбит/с) Профессиональный многоголосый [Ren-TV] • №3: Русский (AC3, 2 ch, 192 Кбит/с) Авторский одноголосый [Андрей Гаврилов] • №4: Английский (AC3, 2 ch, 192 Кбит/с) Отдельно: • №5: Русский (AC3, 2 ch, 192 Кбит/с) Профессиональный многоголосый • №6: Русский (AC3, 2 ch, 192 Кбит/с) Профессиональный многоголосый [Екатеринбург Арт Home video] • №7: Русский (AC3, 2 ch, 192 Кбит/с) Авторский одноголосый [Василий Горчаков] • №8: Русский (AC3, 2 ch, 192 Кбит/с) Авторский одноголосый [Михаил Иванов] • №9: Украинский (AC3, 2 ch, 192 Кбит/с) Профессиональный многоголосый [Интер]Субтитры: РусскиеВидео: Идентификатор : 1 Формат : AVC Формат/Информация : Advanced Video Codec Профиль формата : [email protected] Параметр CABAC формата : Да Параметр ReFrames формата : 9 кадров Идентификатор кодека : V_MPEG4/ISO/AVC Продолжительность : 1 ч. 45 м. Битрейт : 3328 Кбит/сек Ширина : 1024 пикселя Высота : 554 пикселя Соотношение сторон : 1,85:1 Режим частоты кадров : Постоянный Частота кадров : 23,976 кадра/сек Цветовое пространство : YUV Субдискретизация насыщенности : 4:2:0 Битовая глубина : 8 бит Тип развёртки : Прогрессивная Бит/(Пиксели*Кадры) : 0.245 Размер потока : 2,39 Гбайт (79%) Заголовок : Rip by 0ptimus Библиотека кодирования : x264 core 133 r2334 a3ac64b Настройки программы : cabac=1 / ref=9 / deblock=1:-3:-3 / analyse=0x3:0x113 / me=umh / subme=10 / psy=1 / psy_rd=1.00:0.20 / mixed_ref=1 / me_range=32 / chroma_me=1 / trellis=2 / 8x8dct=1 / cqm=0 / deadzone=21,11 / fast_pskip=0 / chroma_qp_offset=-3 / threads=3 / lookahead_threads=1 / sliced_threads=0 / nr=0 / decimate=0 / interlaced=0 / bluray_compat=0 / constrained_intra=0 / bframes=11 / b_pyramid=2 / b_adapt=2 / b_bias=0 / direct=3 / weightb=1 / open_gop=0 / weightp=2 / keyint=240 / keyint_min=23 / scenecut=40 / intra_refresh=0 / rc_lookahead=40 / rc=2pass / mbtree=0 / bitrate=3328 / ratetol=1.0 / qcomp=0.60 / qpmin=0 / qpmax=69 / qpstep=4 / cplxblur=20.0 / qblur=0.5 / vbv_maxrate=50000 / vbv_bufsize=50000 / nal_hrd=none / ip_ratio=1.40 / pb_ratio=1.30 / aq=1:1.00 Язык : English Default : Да Forced : ДаАудио #1: Идентификатор : 2 Формат : AC-3 Формат/Информация : Audio Coding 3 Расширение режима : CM (complete main) Параметр Endianness формата : Big Идентификатор кодека : A_AC3 Продолжительность : 1 ч. 45 м. Вид битрейта : Постоянный Битрейт : 192 Кбит/сек Каналы : 2 канала Расположение каналов : Front: L R Частота : 48,0 КГц Битовая глубина : 16 бит Метод сжатия : С потерями Размер потока : 145 Мбайт (5%) Заголовок : Дублированный AC3 2.0 @ 192 kbps Язык : Russian Default : Да Forced : ДаАудио #2: Идентификатор : 3 Формат : AC-3 Формат/Информация : Audio Coding 3 Расширение режима : CM (complete main) Параметр Endianness формата : Big Идентификатор кодека : A_AC3 Продолжительность : 1 ч. 45 м. Вид битрейта : Постоянный Битрейт : 192 Кбит/сек Каналы : 2 канала Расположение каналов : Front: L R Частота : 48,0 КГц Битовая глубина : 16 бит Метод сжатия : С потерями Размер потока : 145 Мбайт (5%) Заголовок : Многоголосый [Ren-TV] AC3 2.0 @ 192 kbps Язык : Russian Default : Нет Forced : НетАудио #3: Идентификатор : 4 Формат : AC-3 Формат/Информация : Audio Coding 3 Расширение режима : CM (complete main) Параметр Endianness формата : Big Идентификатор кодека : A_AC3 Продолжительность : 1 ч. 45 м. Вид битрейта : Постоянный Битрейт : 192 Кбит/сек Каналы : 2 канала Расположение каналов : Front: L R Частота : 48,0 КГц Битовая глубина : 16 бит Метод сжатия : С потерями Размер потока : 145 Мбайт (5%) Заголовок : Авторский [Андрей Гаврилов] AC3 2.0 @ 192 kbps Язык : Russian Default : Нет Forced : НетАудио #4: Идентификатор : 5 Формат : AC-3 Формат/Информация : Audio Coding 3 Расширение режима : CM (complete main) Параметр Endianness формата : Big Идентификатор кодека : A_AC3 Продолжительность : 1 ч. 45 м. Вид битрейта : Постоянный Битрейт : 192 Кбит/сек Каналы : 2 канала Расположение каналов : Front: L R Частота : 48,0 КГц Битовая глубина : 16 бит Метод сжатия : С потерями Размер потока : 145 Мбайт (5%) Заголовок : AC3 2.0 @ 192 kbps Язык : English Default : Нет Forced : Нет 3,72 Gb 3 5 24 мая 2016 10:17 Дикая орхидея / Wild Orchid (1989) BDRip 720p от NNNB | D,P,A .torrent   [Информация о файле (нажмите для просмотра)] Перевод: Дублированный, Профессиональный многоголосый, Авторский (одноголосый)Качество: BDRip 720pФормат: AVC (библиотека кодирования x.264)Видео: 1280x694 (16:9), 10686 Кбит/сек, 23,976 кадр/сек, 0,502 Бит/[Пиксели*Кадры]Аудио №1: русский / AC3 / 2.0 / 48 kHz / 192 kbps / 16 bit|Многоголосый закадровый| Аудио №2: русский / AC3 / 2.0 / 48 kHz / 192 kbps / 16 bit|Дублированный| Аудио №3: русский / AC3 / 2.0 / 48 kHz / 448 kbps / 16 bit|Авторский, А.Гаврилов| Аудио №4: русский / AC3 / 2.0 / 48 kHz / 192 kbps / 16 bit|Многоголосый закадровый, Ren-TV| Аудио №5: русский / AC3 / 2.0 / 48 kHz / 192 kbps / 16 bit|Авторский, В.Горчаков| Аудио №6: русский / AC3 / 2.0 / 48 kHz / 192 kbps / 16 bit|Авторский, М.Иванов| Аудио №7: украинский / AC3 / 2.0 / 48 kHz / 192 kbps / 16 bit|Многоголосый закадровый, ICTV| Аудио №8: украинский / AC3 / 2.0 / 48 kHz / 192 kbps / 16 bit|Многоголосый закадровый, Inter| Аудио №9: английский / AC3 / 2.0 / 48 kHz / 448 kbps / 16 bitСубтитры: русские 9,7 Gb 3 3 24 мая 2016 10:17 Дикая орхидея / Wild Orchid (1989) BDRip от HQCLUB .torrent   [Информация о файле (нажмите для просмотра)] Перевод: Профессиональный (полное дублирование) +Профессиональный (многоголосый, закадровый)Субтитры: Русские (внешние srt*) (спасибо Elheym)Формат: AVIКачество: BDRip (источник / BD-Remux / 1080p)Видео: 704x384 (1.83:1), 23.976 fps, XviD build 66 ~1775 kbps avg, 0.27 bit/pixelАудио #01: 48 kHz, AC3 Dolby Digital, 2/0 (L,R), ~192.00 kbps avgАудио #02: 48 kHz, AC3 Dolby Digital, 2/0 (L,R), ~192.00 kbps avg(отдельно, http)Аудио #03: 48 kHz, AC3 Dolby Digital, 2/0 (L,R), ~192.00 kbps avg(отдельно, http)Аудио #04: 48 kHz, AC3 Dolby Digital, 2/0 (L,R), ~192.00 kbps avg(отдельно, http)Аудио #05: 48 kHz, AC3 Dolby Digital, 2/0 (L,R), ~192.00 kbps avg(отдельно, http)Аудио #06: 48 kHz, AC3 Dolby Digital, 2/0 (L,R), ~192.00 kbps avg(отдельно, http)Аудио #07: 48 kHz, AC3 Dolby Digital, 2/0 (L,R), ~192.00 kbps avg(отдельно, http)Аудио #08: 48 kHz, AC3 Dolby Digital, 2/0 (L,R), ~192.00 kbps avg(отдельно, http)Аудио #09: 48 kHz, AC3 Dolby Digital, 2/0 (L,R), ~192.00 kbps avg(отдельно, http)Аудио #10: 48 kHz, AC3 Dolby Digital, 2/0 (L,R), ~192.00 kbps avg(отдельно, http) 1,45 Gb 6 4 24 мая 2016 10:17 Дикая орхидея / Wild Orchid (1989) DVDRip от MediaClub | КПК .torrent   [Информация о файле (нажмите для просмотра)] Перевод: ДублированныйКодек: MPEG-4Качество: DVDRipВидео: 714 Кбит/с, 320x176, 23.976 кадр/сЗвук: Русский (AAC, 2 ch, 165 Кбит/с) 705,33 Mb 3 3 24 мая 2016 10:17 Дикая орхидея / Wild Orchid (1989) DVDRip | P .torrent   [Информация о файле (нажмите для просмотра)] Перевод: Профессиональный (многоголосый закадровый)Кодек: XviDКачество: DVDRipВидео: 640x336 (1.90:1), 25 fps, XviD build 50 ~836 kbps avg, 0.16 bit/pixelЗвук: 48 kHz, MPEG Layer 3, 2 ch, ~128.00 kbps avg 745,25 Mb 2 5 24 мая 2016 10:16 Дикая орхидея / Wild Orchid (1989) DVD9 от NovaLan | Полная версия .torrent   [Информация о файле (нажмите для просмотра)] Перевод: Дублированный / Профессиональный, многоголосый / Профессиональный, двухголосый / Авторский, одноголосый (А. Гаврилов)Кодек: MPEG-2Качество: DVD-9Видео: NTSC 16:9 (720x480) VBRЗвук: Английский (Dolby AC3, 2 ch) / ДБ (Dolby AC3, 2 ch) / ПМ (Dolby AC3, 2 ch) / ПД (Dolby AC3, 2 ch) / АО (Гаврилов) (Dolby AC3, 2 ch)Субтитры: Английские, русскиеВидео: Идентификатор : 224 (0xE0) Формат : MPEG Video Версия формата : Version 2 Профиль формата : [email protected] Параметр BVOP формата : Да Параметр матрицы формата : Выборочная Параметр GOP формата : M=3, N=12 Продолжительность : 22 м. Вид битрейта : Переменный Битрейт : 5274 Кбит/сек Максимальный битрейт : 8900 Кбит/сек Ширина : 720 пикселей Высота : 480 пикселей Соотношение сторон : 16:9 Частота кадров : 23,976 кадра/сек Стандарт вещания : NTSC Цветовое пространство : YUV Субдискретизация насыщенности : 4:2:0 Битовая глубина : 8 бит Тип развёртки : Прогрессивная Порядок развёртки : 2:3 Pulldown Метод сжатия : С потерями Бит/(Пиксели*Кадры) : 0.636 Размер потока : 849 Мбайт (83%)Аудио #1: Идентификатор : 189 (0xBD)-128 (0x80) Формат : AC-3 Формат/Информация : Audio Coding 3 Расширение режима : CM (complete main) Режим смешивания : DVD-Video Продолжительность : 22 м. Вид битрейта : Постоянный Битрейт : 192 Кбит/сек Каналы : 2 канала Расположение каналов : Front: L R Частота : 48,0 КГц Битовая глубина : 16 бит Метод сжатия : С потерями Задержка видео : -656 мс. Размер потока : 30,9 Мбайт (3%)Аудио #2: Идентификатор : 189 (0xBD)-129 (0x81) Формат : AC-3 Формат/Информация : Audio Coding 3 Расширение режима : CM (complete main) Режим смешивания : DVD-Video Продолжительность : 22 м. Вид битрейта : Постоянный Битрейт : 192 Кбит/сек Каналы : 2 канала Расположение каналов : Front: L R Частота : 48,0 КГц Битовая глубина : 16 бит Метод сжатия : С потерями Задержка видео : -656 мс. Размер потока : 30,9 Мбайт (3%)Аудио #3: Идентификатор : 189 (0xBD)-130 (0x82) Формат : AC-3 Формат/Информация : Audio Coding 3 Расширение режима : CM (complete main) Режим смешивания : DVD-Video Продолжительность : 22 м. Вид битрейта : Постоянный Битрейт : 192 Кбит/сек Каналы : 2 канала Расположение каналов : Front: L R Частота : 48,0 КГц Битовая глубина : 16 бит Метод сжатия : С потерями Задержка видео : -656 мс. Размер потока : 30,9 Мбайт (3%)Аудио #4: Идентификатор : 189 (0xBD)-131 (0x83) Формат : AC-3 Формат/Информация : Audio Coding 3 Расширение режима : CM (complete main) Режим смешивания : DVD-Video Продолжительность : 22 м. Вид битрейта : Постоянный Битрейт : 192 Кбит/сек Каналы : 2 канала Расположение каналов : Front: L R Частота : 48,0 КГц Битовая глубина : 16 бит Метод сжатия : С потерями Задержка видео : -656 мс. Размер потока : 30,9 Мбайт (3%)Аудио #5: Идентификатор : 189 (0xBD)-132 (0x84) Формат : AC-3 Формат/Информация : Audio Coding 3 Расширение режима : CM (complete main) Режим смешивания : DVD-Video Продолжительность : 22 м. Вид битрейта : Постоянный Битрейт : 192 Кбит/сек Каналы : 2 канала Расположение каналов : Front: L R Частота : 48,0 КГц Битовая глубина : 16 бит Метод сжатия : С потерями Задержка видео : -656 мс. Размер потока : 30,9 Мбайт (3%) 4,55 Gb 3 1 24 мая 2016 10:16 Дикая орхидея / Wild Orchid (1989) HDTVRip от NovaLan .torrent   [Информация о файле (нажмите для просмотра)] Перевод: Дублированный (Советский дубляж Киевской студии "Синхрон фильм") / Профессиональный, многоголосый / Авторский, одноголосый (А. Гаврилов) / Авторский, одноголосый (В. Горчаков) / Авторский, одноголосый (М. Иванов)Кодек: XviDКачество: HDTVRipВидео: 1710 Кбит/с, 720x384, 25,000 кадр/секЗвук: Русский ДБ, ПМ, АО (AC3, 2 ch, 192 Кбит/с), английский (AC3, 2 ch, 384 Кбит/с) 2,18 Gb 3 3 24 мая 2016 10:16 Дикая орхидея / Wild Orchid (1989) DVDRip | Полная версия .torrent   [Информация о файле (нажмите для просмотра)] Перевод: Советский дубляж (отсутствующие сцены в советском дубляже озвучены профессиональным многоголосым переводом)Качество: DVDRipВидео: 704x384 (1.83:1), 23.976 fps, XviD, 1482 kbps, 0.23 bit/pixelЗвук: Аудио 1: 48 kHz, AC3 Dolby Digital, 2/0 (L,R) ch, 192 kbps, Дубляж (РУССКИЙ) c HDTV by ScarabeyАудио 2: 48 kHz, AC3 Dolby Digital, 2/0 (L,R) ch, 192 kbps, Original (ENG) 1,47 Gb 3 2 24 мая 2016 10:16 Дикая орхидея / Wild Orchid (1989) HDTVRip-AVC от FireBit .torrent   [Информация о файле (нажмите для просмотра)] Перевод: Авторский (одноголосый закадровый) А.ГавриловКачество: HDRip-AVCВидео: .mkv (H.264), 1008 x 542 (1.860) at 25.000 fps, 2466 Кбит/секЗвук #1: Русский, AC-3 at 192 Кбит/сек, 2 канала(ов), 48,0 КГц | А.ГавриловЗвук #2: Английский, AC-3 at 384 Кбит/сек, 2 канала(ов), 48,0 КГцСубтитры: Русские 2,18 Gb 2 3 24 мая 2016 10:16 Дикая Орхидея / Wild Orchid (1989) DVDRip от Doctor No. .torrent   [Информация о файле (нажмите для просмотра)] Перевод: А.Гаврилов + Ориг.Качество: DVDRipВидео: DivX 5 704x384 23.98fps 1459KbpsЗвук: DTS 48000Hz 5ch 754Kbps [rus]Звук: Dolby AC3 48000Hz 6ch 448Kbps [eng] 2,09 Gb 3 4

gig-torrent.net

Скачать фильм Дикая орхидея через торрент в хорошем качестве бесплатно 720p] DUB

Format                                   : MatroskaFormat version                           : Version 2File size                                : 9.70 GiBDuration                                 : 1h 45mnOverall bit rate                         : 13.2 MbpsMovie name                               : Dikaja orhideja.(1989).BDRip.720p.[denis100]Encoded date                             : UTC 2015-04-27 07:33:59Writing application                      : mkvmerge v5.8.0 ('No Sleep / Pillow') built on Sep  2 2012 15:37:04Writing library                          : libebml v1.2.3 + libmatroska v1.3.0

VideoID                                       : 1Format                                   : AVCFormat/Info                              : Advanced Video CodecFormat profile                           : [email protected] settings, CABAC                   : YesFormat settings, ReFrames                : 9 framesCodec ID                                 : V_MPEG4/ISO/AVCDuration                                 : 1h 45mnBit rate                                 : 10.7 MbpsWidth                                    : 1 280 pixelsHeight                                   : 694 pixelsDisplay aspect ratio                     : 16:9Frame rate                               : 23.976 fpsColor space                              : YUVChroma subsampling                       : 4:2:0Bit depth                                : 8 bitsScan type                                : ProgressiveBits/(Pixel*Frame)                       : 0.502Stream size                              : 7.86 GiB (81%)Title                                    : Dikaja orhideja.(1989).BDRip.720p.[denis100]Writing library                          : x264 core 146 r2538 121396cEncoding settings                        : cabac=1 / ref=9 / deblock=1:-3:-3 / analyse=0x3:0x133 / me=umh / subme=11 / psy=1 / psy_rd=1.00:0.15 / mixed_ref=1 / me_range=48 / chroma_me=1 / trellis=2 / 8x8dct=1 / cqm=0 / deadzone=21,11 / fast_pskip=0 / chroma_qp_offset=-3 / threads=6 / lookahead_threads=1 / sliced_threads=0 / nr=0 / decimate=1 / interlaced=0 / bluray_compat=0 / constrained_intra=0 / bframes=10 / b_pyramid=2 / b_adapt=2 / b_bias=0 / direct=3 / weightb=1 / open_gop=0 / weightp=2 / keyint=240 / keyint_min=23 / scenecut=40 / intra_refresh=0 / rc=crf / mbtree=0 / crf=17.5 / qcomp=0.60 / qpmin=0 / qpmax=69 / qpstep=4 / ip_ratio=1.40 / pb_ratio=1.30 / aq=1:1.00Language                                 : EnglishDefault                                  : YesForced                                   : No

Audio #1ID                                       : 2Format                                   : AC-3Format/Info                              : Audio Coding 3Mode extension                           : CM (complete main)Codec ID                                 : A_AC3Duration                                 : 1h 45mnBit rate mode                            : ConstantBit rate                                 : 192 KbpsChannel(s)                               : 2 channelsChannel positions                        : Front: L RSampling rate                            : 48.0 KHzBit depth                                : 16 bitsCompression mode                         : LossyStream size                              : 145 MiB (1%)Title                                    : Многоголосый закадровыйLanguage                                 : RussianDefault                                  : YesForced                                   : No

Audio #2ID                                       : 3Format                                   : AC-3Format/Info                              : Audio Coding 3Mode extension                           : CM (complete main)Codec ID                                 : A_AC3Duration                                 : 1h 45mnBit rate mode                            : ConstantBit rate                                 : 192 KbpsChannel(s)                               : 2 channelsChannel positions                        : Front: L RSampling rate                            : 48.0 KHzBit depth                                : 16 bitsCompression mode                         : LossyStream size                              : 145 MiB (1%)Title                                    : ДублированныйLanguage                                 : RussianDefault                                  : NoForced                                   : No

Audio #3ID                                       : 4Format                                   : AC-3Format/Info                              : Audio Coding 3Mode extension                           : CM (complete main)Codec ID                                 : A_AC3Duration                                 : 1h 45mnBit rate mode                            : ConstantBit rate                                 : 448 KbpsChannel(s)                               : 2 channelsChannel positions                        : Front: L RSampling rate                            : 48.0 KHzBit depth                                : 16 bitsCompression mode                         : LossyStream size                              : 337 MiB (3%)Title                                    : Авторский,  А.ГавриловLanguage                                 : RussianDefault                                  : NoForced                                   : No

Audio #4ID                                       : 5Format                                   : AC-3Format/Info                              : Audio Coding 3Mode extension                           : CM (complete main)Codec ID                                 : A_AC3Duration                                 : 1h 45mnBit rate mode                            : ConstantBit rate                                 : 192 KbpsChannel(s)                               : 2 channelsChannel positions                        : Front: L RSampling rate                            : 48.0 KHzBit depth                                : 16 bitsCompression mode                         : LossyStream size                              : 145 MiB (1%)Title                                    : Многоголосый закадровый, Ren-TVLanguage                                 : RussianDefault                                  : NoForced                                   : No

Audio #5ID                                       : 6Format                                   : AC-3Format/Info                              : Audio Coding 3Mode extension                           : CM (complete main)Codec ID                                 : A_AC3Duration                                 : 1h 45mnBit rate mode                            : ConstantBit rate                                 : 192 KbpsChannel(s)                               : 2 channelsChannel positions                        : Front: L RSampling rate                            : 48.0 KHzBit depth                                : 16 bitsCompression mode                         : LossyStream size                              : 145 MiB (1%)Title                                    : Авторский, В.ГорчаковLanguage                                 : RussianDefault                                  : NoForced                                   : No

Audio #6ID                                       : 7Format                                   : AC-3Format/Info                              : Audio Coding 3Mode extension                           : CM (complete main)Codec ID                                 : A_AC3Duration                                 : 1h 45mnBit rate mode                            : ConstantBit rate                                 : 192 KbpsChannel(s)                               : 2 channelsChannel positions                        : Front: L RSampling rate                            : 48.0 KHzBit depth                                : 16 bitsCompression mode                         : LossyStream size                              : 145 MiB (1%)Title                                    : Авторский, М.ИвановLanguage                                 : RussianDefault                                  : NoForced                                   : No

Audio #7ID                                       : 8Format                                   : AC-3Format/Info                              : Audio Coding 3Mode extension                           : CM (complete main)Codec ID                                 : A_AC3Duration                                 : 1h 45mnBit rate mode                            : ConstantBit rate                                 : 192 KbpsChannel(s)                               : 2 channelsChannel positions                        : Front: L RSampling rate                            : 48.0 KHzBit depth                                : 16 bitsCompression mode                         : LossyStream size                              : 145 MiB (1%)Title                                    : Многоголосый закадровый, ICTVLanguage                                 : UkrainianDefault                                  : NoForced                                   : No

Audio #8ID                                       : 9Format                                   : AC-3Format/Info                              : Audio Coding 3Mode extension                           : CM (complete main)Codec ID                                 : A_AC3Duration                                 : 1h 45mnBit rate mode                            : ConstantBit rate                                 : 192 KbpsChannel(s)                               : 2 channelsChannel positions                        : Front: L RSampling rate                            : 48.0 KHzBit depth                                : 16 bitsCompression mode                         : LossyStream size                              : 145 MiB (1%)Title                                    : Многоголосый закадровый, InterLanguage                                 : UkrainianDefault                                  : NoForced                                   : No

Audio #9ID                                       : 10Format                                   : AC-3Format/Info                              : Audio Coding 3Mode extension                           : CM (complete main)Codec ID                                 : A_AC3Duration                                 : 1h 45mnBit rate mode                            : ConstantBit rate                                 : 448 KbpsChannel(s)                               : 2 channelsChannel positions                        : Front: L RSampling rate                            : 48.0 KHzBit depth                                : 16 bitsCompression mode                         : LossyStream size                              : 337 MiB (3%)Language                                 : EnglishDefault                                  : NoForced                                   : No

TextID                                       : 11Format                                   : UTF-8Codec ID                                 : S_TEXT/UTF8Codec ID/Info                            : UTF-8 Plain TextLanguage                                 : RussianDefault                                  : NoForced                                   : No

Menu00:00:00.000                             : en:00:00:00.00000:14:58.590                             : en:00:14:58.59000:28:47.600                             : en:00:28:47.60000:41:55.950                             : en:00:41:55.95000:59:03.215                             : en:00:59:03.21501:09:50.263                             : en:01:09:50.26301:19:37.001                             : en:01:19:37.00101:31:53.709                             : en:01:31:53.709

piratbit.ru

Скачать фильмы через торрент бесплатно в хорошем качестве дикая орхидея

 

 

 

 

Дикая орхидея скачать через торрент бесплатно: Сиды: 13 Пиры: 93 dikaya-orhideya-1989.torrent [15,39 Kb] (cкачиваний: 10). Файл: Формат: AVI Качество: BDRip Видео: 704x384 (1.83:1), 23.976 fps, XviD build 66 1775 kbps avg Дикая орхидея / Wild Orchid (1989) BDRip. Дикая орхидея BDRip скачать торрент бесплатно. Мелодрама. Смотреть фильмы онлайн в HD качестве совершенно бесплатно на artxayslike.ru » Фильмы » Дикая орхидея. Качайте фильмы в самом лучшем качестве Далее Торрент. Дикая орхидея (1989) » Фильмы онлайн в хорошем качестве. Скачать торрент Дикая орхидея / Wild Orchid Размер торрента: 14.9Kb Размер раздачи: 745.25 Мб Название файла: Dikaya.Orhideya.torrent. Скачать торрент фильмы, игры, сериалы через торрент. Вы находитесь на странице, где можете бесплатно и без регистрации скачать Фильм Дикая орхидея / Wild Orchid (1989) HDRip через любой торрент клиент. Скачать торрент Дикая орхидея (1989). Где Микки рурк, там всегда успех, в данной ситуации тоже, с удовольствием посмотрел. Смотреть онлайн "Дикая орхидея" в хорошем HD качестве Если видео с первого раза не загрузилась,обновите страницу.Приятного просмотра. Скачать фильм одним файлом Скачать Дикая орхидея / Wild Orchid (1989) HDRip через торрент.

Скачать торрент. Rutor.ORG :: Дикая орхидея / Wild Orchid (1989) BDRip от HQCLUB. После скачивания оставайтесь на раздаче, давая так же скачать другим. Фильм Дикая орхидея / Wild Orchid (1989) DVDRip скачать. Скачать лучшие фильмы в хорошем качечтве » Главная » Дикая орхидея (1989). Отличные актёры. Скачать фильм Дикая орхидея (1989) через торрент. Дикая орхидея 2 Два оттенка грусти скачать торрент бесплатно. Скачать кино и фильмы бесплатно онлайн через торрент. Добавлено: 28 апр 2015, 16:16.

Скачать торрент Дикая орхидея / Wild Orchid Размер торрента: 15.1KbРазмер раздачи: 1.45 Гб Название файла: Dikaya.orhideya.torrent. искать в разделе фильмы сериалы торренты игра. Дикая орхидея / Wild Orchid (1989) HDRip от Scarabey | D скачать. Скачать торрент-файл Дикая орхидея. Название: Дикая орхидея Оригинальное название: Wild Orchid Год выпуска: 1990 Жанр: Эротика, мелодрама, драма Выпущено: Metro-Goldwyn-Mayer Режиссер: Залман Кинг В ролях: Микки Рурк, Жаклин Биссет, Карре Отис Дикая Орхидея (1990) скачать торрент (torrent) бесплатно - Wild. Качайте фильмы HD через торрент Далее Дикая орхидея 2: Два оттенка грусти » Скачать фильмы. rapidshare.com/files/146792105/orhideya.part14.rar. Скачать кино через торрент бесплатно в качестве. Файл: Дикая орхидея - Wild Orchid (1989) DVDRip от MediaClub | КПК.torrent Продолжительность: 01:51:36 Формат: MP4 Видео кодек: MPEG-4 Аудио кодек: AAC Видео: 714 Кбит/с, 320x176, 23.976 кадр/с Аудио: Русский скачать фильм Дикая орхидея / Wild Orchid (1989) бесплатно. Дикая орхидея / Wild Orchid (1989) скачать торрент в хорошем. Скачать фильм Дикая орхидея через torrent: скачать (cкачиваний: 4132).

Дикая Орхидея - Wild Orchid (1990) торрент трекер, скачать бесплатно без регистрации фильм в качестве DVD и BDrip, мультфильм, сериал. Качество: BDRip Размер: 1.45 GB. Здесь фильмы онлайн в хорошем качестве! Понравился сайт? Расскажи друзьям! Скачать фильмы Дикая орхидея - ТОРРЕНТИНО - торрент. Дикая орхидея (1989) скачать через торрент бесплатно. Информация о фильме Название: Дикая орхидея Оригинальное название: Wild Orchid Год выпуска: 1989 Жанр: Мелодрама, драма Режиссер: Залман Кинг Дикая орхидея (1989) скачать торрент бесплатно. Скачать фильм Дикая орхидея / Wild Orchid (1989) бесплатно. Скачать торрент "Дикая орхидея" бесплатно. Скачать торрент-файл Дикая орхидея / Wild Orchid (1989) в хорошем качестве. Скачать бесплатно через торрент в хорошем качестве HD » Мелодрама/Драма » Дикая орхидея (1989). Скачать торрент. Информация о фильме: Название: Дикая орхидея Оригинальное название: Wild Orchid Год выхода: 1990 Жанр: эротика Режиссер: Залман Кинг В ролях: Микки Рурк, Жаклин Биссет, Кэрри Отис, Ассумпта Серна, Брюс Гринвуд, Олег Видов, Милтон Гонсалвис Дикая орхидея / Wild Orchid (1989) HDRip от Scarabey | D скачать. Дикая орхидея / Wild Orchid (1989) Blu-Ray Remux. Что-бы бесплатно и без регистрации скачать Дикая орхидея (1989) через торрент - воспользутейсь данной инструкцией. Качество: HDRip-AVC Время: 01:45:15 Видео: AVC (h364), 3328 Дикая орхидея / Wild Orchid (1989) » Открытый торрент - трекер. Дикая орхидея 2: Два оттенка грусти (1991) Скачать торрент. Поступив на работу в юридическую фирму, Эмилия отправляется в Бразилию помочь завершить крупную сделку с недвижимостью. Дикая орхидея / Wild Orchid. Дикая орхидея / Wild Orchid (1989) BDRip | P скачать фильм. Дикая орхидея (1989) смотреть фильм онлайн в хорошем. Сообщить о появлении в хорошем качестве. Скачать. Скачать кино "Дикая орхидея / Wild Orchid" бесплатно. Скачать фильм Дикая орхидея через торрент: Dikaya.orhideya.1989.RUS.BDRip.torrent. Чтобы скачать торрент Дикая орхидея 2: Два оттенка грусти бесплатно, вам необходимо пролистать страницу чуть ниже, где под описанием фильма, Вы найдете список torrent раздач. Скачать Дикая Орхидея через торрент в хорошем качестве. Дикая орхидея скачать (1989) бесплатно торрент. Скачать Дикая орхидея / Wild Orchid (1989) » Скачать фильмы. Скачать фильм Дикая орхидея / Wild Orchid (1989) DVDRip через. Скачать торрент Дикая орхидея бесплатно. Дикая орхидея (1989) смотреть онлайн в хорошем качестве или. 1. Дикая орхидея / Wild Orchid (1989/DVDRip) | P скачать торрент. Каталог торрентов » Фильмы » Драмы. Дикая Орхидея (1989) смотреть онлайн или скачать фильм. Название: Дикая орхидея Оригинальное название: Wild Orchid Год выхода: 1989 Жанр: Мелодрама, драма, эротика Режиссер: Залман Кинг В ролях: Микки Рурк, Жаклин Биссет, Кэрри Отис, Ассумпта Серна, Брюс Гринвуд, Олег Видов, Милтон Гонсалвис скачать фильм Дикая орхидея BDRip » скачать фильм. Фильмы онлайн в HD 720 » Драмы » Дикая орхидея / Wild Orchid (1989). Скачать фильмы через торрент Скачать фильмы 2015 года через торрент на высокой скорости бесплатно и без Скачать фильм дикая орхидея. Для того что бы скачать фильм Дикая орхидея / Wild Orchid (1989) BDRip 720p, 1080p, BD-Remux бесплатно воспользуйтесь ссылками выше. Скачать фильм дикая орхидея через торрент бесплатно Storify. Дикая орхидея / Wild Orchid (1989) Blu-Ray 1080p скачать торрент. Дикая Орхидея (1990, DVDrip). Файлы: Dikaya.orhideya.1989.RUS.BDRip.XviD.AC3.-HQCLUB.avi (1.45 GB). Дикая орхидея / Wild Orchid 1989 DVDRip скачать через торрент. Все новые фильмы, игры, сериалы, книги и музыка за 2013 и 2014 годы через торрент бесплатно. Все современные плееры отлично справляются с HD форматами AVI и MKV, поэтому Дикая Орхидея Скачать Через Торрент. Дикая орхидея (1990) DVDRip Торрент. Информация о фильме Название: Дикая орхидея Оригинальное название: Wild Orchid Год выхода: 1989 Жанр: Эротика,Драма,Мелодрама Дикая орхидея (1989) скачать фильм через торрент бесплатно. Перевод: Профессиональный (многоголосый, закадровый), cубтитры: отсутствуют. Смотреть онлайн Дикая орхидея бесплатно в хорошем качестве Скачать торрент бесплатно без регистрации и смс блюз. Как скачать фильм бесплатно с файлообменников? Что такое торрент и как через него скачать фильмы? Дикая орхидея смотреть онлайн бесплатно в хорошем качестве. Дикая орхидея 1989 - скачать бесплатно через торрент. Лучшие. Фильмы в HD.. Отличный, лёгкий фильм. скачать фильм Эта дикая кошка / That Darn Cat (1997) DVDRip. В ней вы найдете лучшие мультипликационные фильмы со всего мира, скачать которые вы сможете при помощи торрента через специальную бесплатную ссылку, расположенную прямо под Дикая орхидея / Wild Orchid (1989) HDRip от Scarabey | D торрент. скачать торрент Дикая орхидея / Wild Orchid (1989) DVDRip ». Как качать через торрент? Дикая Орхидея / Wild Orchid (1989) DVDRip от Doctor No. Скачать фильм Дикая орхидея, 1989 торрент бесплатно и в хорошем HD 1080 качестве и без регистрации. Дикая орхидея смотреть онлайн в хорошем качестве бесплатно. Нажмите на синюю кнопку, чтобы скачать фильм через торрент бесплатно. Скачать фильмы через торрент бесплатно в хорошем качестве » Драма » Дикая орхидея (1989). Дикая орхидея / Wild Orchid (1989) скачать торрент. Русское название: Дикая Орхидея. 80. Больше. Подписаться на добавление торрентов. торрент.

www.tiavo.ru


Смотрите также