Черная бабочка фильм 2017 скачать торрент в хорошем качестве hd 1080


Скачать торрент Черная бабочка / Black Butterfly (2017) BDRip 1080p от ExKinoRay

Информация о фильмеНазвание: Черная бабочкаОригинальное название: Black ButterflyГод выхода: 2017Жанр: ТриллерРежиссер: Брайан ГудманВ ролях: Джонатан Рис-Майерс, Пайпер Перабо, Антонио Бандерас, Абель Феррара, Николас Аарон, Винсент Риотта, Натали Рапти, Гомес Кэти, МакГоверн, Рэндолл Пол, Джоя Либардони

О фильме:Пол - писатель, живущий в одиноком домике на отшибе. В последнее время его дела идут не очень: заказчик забраковал его последнюю книгу, а сам он пытается забыть о неудачах с помощью алкоголя. Однако жизнь отшельника резко меняется, когда он встречает незнакомца, помогающему ему избежать потасовки в придорожном кафе. Узнав, что незнакомец путешествует налегке, Пол предлагает тому остановиться у него на ночлег. Незнакомец неожиданно проявляет интерес к писателю и предлагает новый сюжет для его книги. Но кто он такой, и что означает загадочная татуировка в виде черной бабочки на его теле.

Страна: СШАСтудия: Ambi Pictures, Battleplan Productions, Compadre EntertainmenПродолжительность: 01:34:22Перевод: Дублированный | iTunes

ФайлКачество: BDRip 1080pВидео: MPEG-4 AVC, 1920x804, 14.0 Mbit/s, 23.976 fpsЗвук: Аудио #01: 48 kHz, AC3, 5.1, 384 Kbps | Дублированный | iTunes | RUS |Аудио #02: 48 kHz, AC3, 5.1, 640 Kbps | Оригинал | ENG |Субтитры: Английские

MI

General Unique ID : 249273904058410370302546427423595329145 (0xBB886859A7E88A9A9A432E9064267679) Complete name : C:UsersbattiDesktopBlack.Butterfly.2017.BDRip.1080p.ExKinoRay.mkv Format : Matroska Format version : Version 4 / Version 2 File size : 9.82 GiB Duration : 1 h 33 min Overall bit rate mode : Variable Overall bit rate : 15.0 Mb/s Encoded date : UTC 2017-07-05 20:09:56 Writing application : mkvmerge v13.0.0 ('The Juggler') 64bit Writing library : libebml v1.3.4 + libmatroska v1.4.5

Video ID : 1 Format : AVC Format/Info : Advanced Video Codec Format profile : [email protected] Format settings, CABAC : Yes Format settings, ReFrames : 4 frames Codec ID : V_MPEG4/ISO/AVC Duration : 1 h 33 min Bit rate mode : Variable Bit rate : 14.0 Mb/s Maximum bit rate : 62.5 Mb/s Width : 1 920 pixels Height : 804 pixels Display aspect ratio : 2.40:1 Frame rate mode : Constant Frame rate : 23.976 (24000/1001) FPS Color space : YUV Chroma subsampling : 4:2:0 Bit depth : 8 bits Scan type : Progressive Bits/(Pixel*Frame) : 0.378 Stream size : 9.15 GiB (93%) Writing library : x264 core 142 r2431+42 c69a006 tMod [[email protected] X86_64] Encoding settings : cabac=1 / ref=5 / deblock=1:-3:-3 / analyse=0x3:0x133 / me=umh / subme=11 / psy=1 / fade_compensate=0.00 / psy_rd=1.00:1.00 / mixed_ref=1 / me_range=48 / chroma_me=1 / trellis=2 / 8x8dct=1 / cqm=0 / deadzone=21,11 / fast_pskip=0 / chroma_qp_offset=-4 / threads=16 / lookahead_threads=2 / sliced_threads=0 / nr=0 / decimate=0 / interlaced=0 / bluray_compat=0 / constrained_intra=0 / fgo=0 / bframes=8 / b_pyramid=1 / b_adapt=2 / b_bias=0 / direct=3 / weightb=1 / open_gop=0 / weightp=1 / keyint=240 / keyint_min=23 / scenecut=40 / intra_refresh=0 / rc_lookahead=150 / rc=2pass / mbtree=0 / bitrate=14000 / ratetol=1.0 / qcomp=0.70 / qpmin=0:0:0 / qpmax=69:69:69 / qpstep=4 / cplxblur=20.0 / qblur=0.5 / vbv_maxrate=62500 / vbv_bufsize=78125 / nal_hrd=vbr / filler=0 / ip_ratio=1.30 / pb_ratio=1.20 / aq=2:0.80 / aq-sensitivity=10.00 / aq-factor=1.00:1.00:1.00 / aq2=0 / aq3=0 Language : English Default : Yes Forced : No Color range : Limited Color primaries : BT.709 Transfer characteristics : BT.709 Matrix coefficients : BT.709

Audio #1 ID : 2 Format : AC-3 Format/Info : Audio Coding 3 Format settings, Endianness : Big Codec ID : A_AC3 Duration : 1 h 33 min Bit rate mode : Constant Bit rate : 384 kb/s Channel(s) : 6 channels Channel positions : Front: L C R, Side: L R, LFE Sampling rate : 48.0 kHz Frame rate : 31.250 FPS (1536 spf) Bit depth : 16 bits Compression mode : Lossy Stream size : 257 MiB (3%) Title : iTunes Language : Russian Service kind : Complete Main Default : Yes Forced : No

Audio #2 ID : 3 Format : AC-3 Format/Info : Audio Coding 3 Format settings, Endianness : Big Codec ID : A_AC3 Duration : 1 h 33 min Bit rate mode : Constant Bit rate : 640 kb/s Channel(s) : 6 channels Channel positions : Front: L C R, Side: L R, LFE Sampling rate : 48.0 kHz Frame rate : 31.250 FPS (1536 spf) Bit depth : 16 bits Compression mode : Lossy Stream size : 428 MiB (4%) Title : Original Language : English Service kind : Complete Main Default : No Forced : No

Text ID : 4 Format : UTF-8 Codec ID : S_TEXT/UTF8 Codec ID/Info : UTF-8 Plain Text Duration : 1 h 24 min Bit rate : 46 b/s Count of elements : 835 Stream size : 28.6 KiB (0%) Title : Full Language : English Default : No Forced : No

Menu 00:00:00.000 : en:00:00:00.000 00:14:32.955 : en:00:14:32.955 00:31:35.519 : en:00:31:35.519 00:41:58.808 : en:00:41:58.808 00:52:07.416 : en:00:52:07.416 01:03:54.539 : en:01:03:54.539 01:14:47.525 : en:01:14:47.525 01:28:36.978 : en:01:28:36.978

Релиз от: Автор релиза: Подпишись на меня, кликни по картинке > :

krutor.org

Скачать фильм Черная бабочка через торрент в хорошем качестве бесплатно 1080p

Реклама Дарим 3000 рублей за регистрацию, не упусти свой шанс получить шикарный бонус!!!

26-05-2017 17:56 Черная бабочка Скачать торрент  

Черная бабочка / Black Butterfly Год выхода: 2017Жанр: триллерСтрана: СШАПродолжительность: 01:34:32Перевод: Любительский (многоголосый) @[email protected]Субтитры: нет

Режиссер: Брайан Гудман

В ролях: Джонатан Риз Майерс, Пайпер Перабо, Антонио Бандерас, Абель Феррара, Николас Аарон, Винсент Риотта, Натали Рапти Гомес, Кэти МакГоверн, Рэндолл Пол, Джоя Либардони

О фильме: Пол — писатель, живущий в одиноком домике на отшибе. В последнее время его дела идут не очень: заказчик забраковал его последнюю книгу, а сам он пытается забыть о неудачах с помощью алкоголя. Однако жизнь отшельника резко меняется, когда он встречает незнакомца, помогающему ему избежать потасовки в придорожном кафе. Узнав, что незнакомец путешествует налегке, Пол предлагает тому остановиться у него на ночлег. Незнакомец неожиданно проявляет интерес к писателю и предлагает новый сюжет для его книги. Но кто он такой, и что означает загадочная татуировка в виде черной бабочки на его теле.

премьера (мир) - 26 мая 2017премьера (РФ) - 8 июня 2017

Качество: WEB-DL 1080pФормат: MKVВидео: AVC, 4700 Кбит/с, 1908x792, 23,976 fpsЗвук: 48 kHz, AC3, 2 ch, ~384 kbps

Торрент не зареган: Не зарегистрирован ||
Добавлен: 2017-05-26 17:56
Скачано: 212 раз  [ Список скачавших ]
% Раздел Тема Автор DL S | L
Фильмы [HD 720p, 1080p] (Хороший звук DUB, MVO) [ 6.57 GB ] Черная бабочка / Black Butterfly [2017 BDRip 1080p] Dub potroks Скачать
Фильмы без перевода [ 22.72 GB ] Черная бабочка / Black Butterfly [2016 BDRemux] [Оригинал-ENG] smaster Скачать
Фильмы 2017 [DVDrip, WEB-DLRip, HDrip] (DUB, MVO) [ 1.42 GB ] Черная бабочка / Black Butterfly [2017 BDRip] - Twi7ter Скачать
Фильмы 2017 [DVDrip, WEB-DLRip, HDrip] (DUB, MVO) [ 1.44 GB ] Черная бабочка / Black Butterfly [2017 BDRip-AVC] - ExKinoRay Enigma2010 Скачать
Фильмы 2017 [DVDrip, WEB-DLRip, HDrip] (DUB, MVO) [ 1.7 GB ] Черная бабочка / Black Butterfly [2017 BDRip-AVC] bober100 Скачать
Фильмы [HD 720p, 1080p] (Хороший звук DUB, MVO) [ 9.82 GB ] Черная бабочка / Black Butterfly [2017 BDRip 1080p] bober100 Скачать
Фильмы 2017 [DVDrip, WEB-DLRip, HDrip] (DUB, MVO) [ 746 MB ] Черная бабочка / Black Butterfly [2017 BDRip] bober100 Скачать

Рекламный пират

28-05-2017 15:49 Черная бабочка Скачать торрент  

хороший триллер скоротать воскресный вечер.бандерас молодец.раздающему спасибо огромное

05-07-2017 23:26 Черная бабочка Скачать торрент  

Дорогой пользователь! Огромная просьба, поблагодарите релизера, оцените раздачу и оставьте свои комментарий, если Вы скачали Черная бабочка через торрент бесплатно! Внесите свою лепту в развитие PiratBit!

Комментировать посты могут только пользователи прошедшие не сложную регистрацию

Черная бабочка через торрент Скачать бесплатно Черная бабочка Черная бабочка скачать торрент Черная бабочка смотреть онлайн Cкачать фильм Черная бабочка бесплатно Черная бабочка скачать торрент в хорошем качестве Черная бабочка смотреть онлайн бесплатно в хорошем качестве

Вы можете начинать темыВы можете отвечать на сообщенияВы не можете редактировать свои сообщенияВы не можете удалять свои сообщенияВы не можете голосовать в опросахВы не можете прикреплять файлы к сообщениямВы можете скачивать файлы

piratbit.ru

Черная бабочка (2017) скачать торрент в хорошем качестве бесплатно

Подробнее Проф. (полное дублирование) 25,41 ГиБ 11 июл. 2017 г. Файл: black.butterfly.2017.bdremux..torrent Видео данные: MPEG-4 AVC, 38.9 Mбит/с, 1920x1080Аудио данные: Русский (AC3, 6 ch, 384 Кбит/с), английский (TrueHD, 6 ch, 4788 Кбит/с), (AC3, 6 ch, 640 Кбит/с), французский (TrueHD, 6 ch, 4590 Кбит/с), (AC3, 6 ch, 640 Кбит/с) Подробнее Проф. (полное дублирование) 1,37 ГиБ 6 июл. 2017 г. Подробнее Проф. (полное дублирование) 4,72 ГиБ 6 июл. 2017 г. Подробнее Проф. (полное дублирование) 9,82 ГиБ 6 июл. 2017 г. Файл: black.butterfly.2017.bdrip.1080p..torrent Видео: MPEG-4 AVC, 14000 Kбит/с, 1920x804Аудио: Русский (AC3, 6 ch, 384 Кбит/с), английский (AC3, 6 ch, 640 Кбит/с) Подробнее Любительский (многоголосный) 1,37 ГиБ 28 июн. 2017 г. Файл: black.butterfly.2017.p.hdrip.14oomb.torrent Видео данные: XviD, 1607 Кбит/с, 720x304Аудио данные: AC3, 2 ch, 448 Кбит/сПримечание: Присутствует реклама! Подробнее Любительский (многоголосный) 3,91 ГиБ 28 июн. 2017 г. Файл: black.butterfly.2017.p.bdrip.72op.torrent Видео данные: MKV, 5457 kb/s, 1280x536Аудио данные: AC3, 2 ch, 448 Кбит/сПримечание: Присутствует реклама! Подробнее Любительский (многоголосный) 7,40 ГиБ 28 июн. 2017 г. Файл: black.butterfly.2017.p.bdrip.1o8op.torrent Видео данные: MKV, 10.7 Mb/s, 1920x804Аудио данные: AC3, 2 ch, 448 Кбит/сПримечание: Присутствует реклама! Подробнее Проф. (полное дублирование) [звук из кинотеатра] 1,37 ГиБ 14 июн. 2017 г. Подробнее Проф. (полное дублирование) [звук из кинотеатра] 2,97 ГиБ 14 июн. 2017 г. Подробнее Проф. (полное дублирование) [звук из кинотеатра] 3,51 ГиБ 14 июн. 2017 г. Подробнее Любительский (многоголосный) 1,37 ГиБ 26 мая 2017 г. Подробнее Любительский (многоголосный) 2,97 ГиБ 26 мая 2017 г. Файл: black.butterfly.2017.p.web-dl.72op.torrent Видео данные: MKV, 4017 kb/s, 1280x532Аудио данные: AC3, 2 ch, 384 Кбит/сПримечание: Присутствует реклама! Подробнее Любительский (многоголосный) 3,57 ГиБ 26 мая 2017 г. Файл: black.butterfly.2017.p.web-dl.1o8op.torrent Видео данные: MKV, 4017 kb/s, 1280x532Аудио данные: AC3, 2 ch, 384 Кбит/сПримечание: Присутствует реклама!

zona-film.com

Скачать фильм Черная бабочка через торрент в хорошем качестве бесплатно 1080p от potroks

GeneralUnique ID : 173124038565538420905699807961585236367 (0x823E7A1C74080EC09CE0CA9C024B398F)Complete name : D:\Chernaya.Babochka.2017.DUAL.BDRip.1080p.-HELLYWOOD.mkvFormat : MatroskaFormat version : Version 4 / Version 2File size : 6.57 GiBDuration : 1 h 33 minOverall bit rate : 10.1 Mb/sMovie name : Black Butterfly (2017)Encoded date : UTC 2017-07-26 04:25:46Writing application : mkvmerge v5.9.0 ('On The Loose') built on Dec 15 2012 16:39:58Writing library : libebml v1.3.0 + libmatroska v1.4.0

VideoID : 1Format : AVCFormat/Info : Advanced Video CodecFormat profile : [email protected] settings, CABAC : YesFormat settings, ReFrames : 4 framesCodec ID : V_MPEG4/ISO/AVCDuration : 1 h 33 minBit rate : 9 038 kb/sWidth : 1 920 pixelsHeight : 804 pixelsDisplay aspect ratio : 2.40:1Frame rate mode : ConstantFrame rate : 23.976 (24000/1001) FPSColor space : YUVChroma subsampling : 4:2:0Bit depth : 8 bitsScan type : ProgressiveBits/(Pixel*Frame) : 0.244Stream size : 5.77 GiB (88%)Title : potroksWriting library : x264 core 146 r2538 121396cEncoding settings : cabac=1 / ref=4 / deblock=1:-3:-3 / analyse=0x3:0x113 / me=umh / subme=11 / psy=1 / psy_rd=0.99:0.05 / mixed_ref=1 / me_range=48 / chroma_me=1 / trellis=2 / 8x8dct=1 / cqm=0 / deadzone=21,11 / fast_pskip=0 / chroma_qp_offset=-3 / threads=9 / lookahead_threads=2 / sliced_threads=0 / nr=0 / decimate=0 / interlaced=0 / bluray_compat=0 / constrained_intra=0 / bframes=8 / b_pyramid=2 / b_adapt=2 / b_bias=0 / direct=3 / weightb=1 / open_gop=0 / weightp=2 / keyint=240 / keyint_min=23 / scenecut=40 / intra_refresh=0 / rc_lookahead=60 / rc=2pass / mbtree=0 / bitrate=9038 / ratetol=1.0 / qcomp=0.70 / qpmin=0 / qpmax=69 / qpstep=4 / cplxblur=20.0 / qblur=0.5 / vbv_maxrate=14000 / vbv_bufsize=14000 / nal_hrd=none / filler=0 / ip_ratio=1.40 / pb_ratio=1.30 / aq=1:0.80Language : EnglishDefault : YesForced : No

Audio #1ID : 2Format : AC-3Format/Info : Audio Coding 3Mode extension : CM (complete main)Format settings, Endianness : BigCodec ID : A_AC3Duration : 1 h 33 minBit rate mode : ConstantBit rate : 384 kb/sChannel(s) : 6 channelsChannel positions : Front: L C R, Side: L R, LFESampling rate : 48.0 kHzFrame rate : 31.250 FPS (1536 spf)Compression mode : LossyStream size : 257 MiB (4%)Title : Dub | DD 5.1 @ 384 kbps - iTunesLanguage : RussianDefault : YesForced : No

Audio #2ID : 3Format : AC-3Format/Info : Audio Coding 3Mode extension : CM (complete main)Format settings, Endianness : BigCodec ID : A_AC3Duration : 1 h 33 minBit rate mode : ConstantBit rate : 640 kb/sChannel(s) : 6 channelsChannel positions : Front: L C R, Side: L R, LFESampling rate : 48.0 kHzFrame rate : 31.250 FPS (1536 spf)Compression mode : LossyStream size : 428 MiB (6%)Title : Original | DD 5.1 @ 640 kbpsLanguage : EnglishDefault : NoForced : No

TextID : 4Format : UTF-8Codec ID : S_TEXT/UTF8Codec ID/Info : UTF-8 Plain TextLanguage : EnglishDefault : NoForced : No

Menu00:00:00.000 : :(01)00:00:00:00000:14:32.955 : :(02)00:14:32:95500:31:35.518 : :(03)00:31:35:51800:41:58.806 : :(04)00:41:58:80600:52:07.414 : :(05)00:52:07:41401:03:54.539 : :(06)01:03:54:53901:14:47.524 : :(07)01:14:47:52401:28:36.978 : :(08)01:28:36:97801:33:34.233 : :(09)01:33:34:233

piratbit.ru

Скачать фильм Черная бабочка через торрент в хорошем качестве бесплатно 1080p

Размер: 3.22 GB | Добавлен: 4 мес. 30 д. назад | Торрент скачан:9 раз
Реклама Дарим 3000 рублей за регистрацию, не упусти свой шанс получить шикарный бонус!!!

26-05-2017 07:38 Черная бабочка Скачать торрент  

Черная бабочка / Black Butterfly Год выхода: 2017Жанр: триллерСтрана: СШАПродолжительность: 01:33:16Перевод: Отсутствует! [английский оригинал]Субтитры: английские

Режиссер: Брайан Гудман

В ролях: Джонатан Риз Майерс, Пайпер Перабо, Антонио Бандерас, Абель Феррара, Николас Аарон, Винсент Риотта, Натали Рапти Гомес, Кэти МакГоверн, Рэндолл Пол, Джоя Либардони

О фильме: Пол — писатель, живущий в одиноком домике на отшибе. В последнее время его дела идут не очень: заказчик забраковал его последнюю книгу, а сам он пытается забыть о неудачах с помощью алкоголя. Однако жизнь отшельника резко меняется, когда он встречает незнакомца, помогающему ему избежать потасовки в придорожном кафе. Узнав, что незнакомец путешествует налегке, Пол предлагает тому остановиться у него на ночлег. Незнакомец неожиданно проявляет интерес к писателю и предлагает новый сюжет для его книги. Но кто он такой, и что означает загадочная татуировка в виде черной бабочки на его теле.

премьера (мир) - 26 мая 2017премьера (РФ) - 8 июня 2017

Качество: WEB-DL 1080pФормат: MKVВидео: AVC, 4700 Кбит/с, 1908x792, 23,976 fpsЗвук: 48 kHz, AC3, 6 ch, ~384 kbps

VideoID : 1Format : AVCFormat/Info : Advanced Video CodecFormat profile : [email protected] settings, CABAC : YesFormat settings, ReFrames : 5 framesCodec ID : V_MPEG4/ISO/AVCDuration : 1h 33mnBit rate : 4 467 KbpsWidth : 1 908 pixelsHeight : 792 pixelsDisplay aspect ratio : 2.40:1Frame rate mode : ConstantFrame rate : 23.976 (24000/1001) fpsColor space : YUVChroma subsampling : 4:2:0Bit depth : 8 bitsScan type : ProgressiveBits/(Pixel*Frame) : 0.123Stream size : 2.91 GiB (90%)Title : Black.Butterfly.2017.1080p.WEB-DL.DD5.1Language : EnglishDefault : YesForced : NoColor range : LimitedColor primaries : BT.709Transfer characteristics : BT.709Matrix coefficients : BT.709

AudioID : 2Format : AC-3Format/Info : Audio Coding 3Mode extension : CM (complete main)Format settings, Endianness : BigCodec ID : A_AC3Duration : 1h 33mnBit rate mode : ConstantBit rate : 384 KbpsChannel(s) : 6 channelsChannel positions : Front: L C R, Side: L R, LFESampling rate : 48.0 KHzFrame rate : 31.250 fps (1536 spf)Compression mode : LossyDelay relative to video : -42msStream size : 256 MiB (8%)Title : Black.Butterfly.2017.1080p.WEB-DL.DD5.1Language : EnglishDefault : YesForced : No

TextID : 3Format : UTF-8Codec ID : S_TEXT/UTF8Codec ID/Info : UTF-8 Plain TextLanguage : EnglishDefault : YesForced : No

Menu00:00:00.000 : en:100:01:14.000 : en:200:14:13.000 : en:300:25:27.000 : en:400:36:12.000 : en:500:46:48.000 : en:600:57:19.000 : en:701:06:48.000 : en:801:15:51.000 : en:901:28:16.000 : en:10

Скачать Черная бабочка через торрент http://i94.fastpic.ru/big/2017/0526/0f/de8106a6febe62fd1cad3f16b9c5b10f.jpg Скачать фильм Черная бабочка через торрент бесплантно в хорошем качестве О фильме: Пол — писатель, живущий в одиноком домике на отшибе. В последнее время его дела идут не очень: заказчик забраковал его последнюю ... 2017-05-26 07:38 7 10 3

Loading...

Loading...

% Раздел Тема Автор DL S | L
Фильмы [HD 720p, 1080p] (Хороший звук DUB, MVO) [ 6.57 GB ] Черная бабочка / Black Butterfly [2017 BDRip 1080p] Dub potroks Скачать
Фильмы без перевода [ 22.72 GB ] Черная бабочка / Black Butterfly [2016 BDRemux] [Оригинал-ENG] smaster Скачать
Фильмы 2017 [DVDrip, WEB-DLRip, HDrip] (DUB, MVO) [ 1.42 GB ] Черная бабочка / Black Butterfly [2017 BDRip] - Twi7ter Скачать
Фильмы 2017 [DVDrip, WEB-DLRip, HDrip] (DUB, MVO) [ 1.44 GB ] Черная бабочка / Black Butterfly [2017 BDRip-AVC] - ExKinoRay Enigma2010 Скачать
Фильмы 2017 [DVDrip, WEB-DLRip, HDrip] (DUB, MVO) [ 1.7 GB ] Черная бабочка / Black Butterfly [2017 BDRip-AVC] bober100 Скачать
Фильмы [HD 720p, 1080p] (Хороший звук DUB, MVO) [ 9.82 GB ] Черная бабочка / Black Butterfly [2017 BDRip 1080p] bober100 Скачать
Фильмы 2017 [DVDrip, WEB-DLRip, HDrip] (DUB, MVO) [ 746 MB ] Черная бабочка / Black Butterfly [2017 BDRip] bober100 Скачать

Рекламный пират

26-05-2017 07:39 Черная бабочка Скачать торрент  

Цитата:

премьера (мир) - 26 мая 2017

и уже в качестве

26-05-2017 07:54 Черная бабочка Скачать торрент  

killermax2013 писал(а):

Цитата:

премьера (мир) - 26 мая 2017

и уже в качестве Пиратов бы в качестве, а это так...)

26-05-2017 08:29 Черная бабочка Скачать торрент  

NeZoX писал(а):

Пиратов бы в качестве, а это так...)

мечтать не вредно не скоро еще качество, самое раннее будет корейская вэбка но неизвестно когда они ее сольют

Дорогой пользователь! Огромная просьба, поблагодарите релизера, оцените раздачу и оставьте свои комментарий, если Вы скачали Черная бабочка через торрент бесплатно! Внесите свою лепту в развитие PiratBit!

Комментировать посты могут только пользователи прошедшие не сложную регистрацию

Черная бабочка через торрент Скачать бесплатно Черная бабочка Черная бабочка скачать торрент Черная бабочка смотреть онлайн Cкачать фильм Черная бабочка бесплатно Черная бабочка скачать торрент в хорошем качестве Черная бабочка смотреть онлайн бесплатно в хорошем качестве

Вы не можете начинать темыВы не можете отвечать на сообщенияВы не можете редактировать свои сообщенияВы не можете удалять свои сообщенияВы не можете голосовать в опросахВы не можете прикреплять файлы к сообщениямВы можете скачивать файлы

piratbit.ru


Смотрите также