Фильм 3 дня на убийство скачать через торрент бесплатно в хорошем качестве


Скачать фильм 3 дня на убийство через торрент в хорошем качестве бесплатно 720p

ОбщееУникальный идентификатор : 173614183097224022746258254285393258379 (0x829CE01A324F45489E23A8AEF1BE678B)Полное имя : 3.Dnya.na.Ubiystvo.2014.Theatrical.DUAL.BDRip.720p.-HELLYWOOD.mkvФормат : MatroskaВерсия формата : Version 4 / Version 2Размер файла : 5,14 ГбайтПродолжительность : 1 ч. 57 м.Общий поток : 6284 Кбит/секНазвание фильма : HELLYWOOD - rip by potroksДата кодирования : UTC 2014-05-24 03:27:36Программа кодирования : mkvmerge v5.9.0 ('On The Loose') built on Dec 15 2012 16:39:58Библиотека кодирования : libebml v1.3.0 + libmatroska v1.4.0

ВидеоИдентификатор : 1Формат : AVCФормат/Информация : Advanced Video CodecПрофиль формата : [email protected]Параметр CABAC формата : ДаПараметр ReFrames формата : 9 кадровИдентификатор кодека : V_MPEG4/ISO/AVCПродолжительность : 1 ч. 57 м.Битрейт : 5259 Кбит/секШирина : 1280 пикселейВысота : 538 пикселейСоотношение сторон : 2,40:1Режим частоты кадров : ПостоянныйЧастота кадров : 23,976 кадра/секЦветовое пространство : YUVСубдискретизация насыщенности : 4:2:0Битовая глубина : 8 битТип развёртки : ПрогрессивнаяБит/(Пиксели*Кадры) : 0.319Размер потока : 4,20 Гбайт (82%)Заголовок : 3 Days to KillБиблиотека кодирования : x264 core 130 r2273 b3065e6Настройки программы : cabac=1 / ref=9 / deblock=1:-3:-2 / analyse=0x3:0x133 / me=umh / subme=11 / psy=1 / psy_rd=0.99:0.01 / mixed_ref=1 / me_range=48 / chroma_me=1 / trellis=2 / 8x8dct=1 / cqm=0 / deadzone=21,11 / fast_pskip=1 / chroma_qp_offset=-3 / threads=9 / lookahead_threads=6 / sliced_threads=0 / nr=0 / decimate=0 / interlaced=0 / bluray_compat=0 / constrained_intra=0 / bframes=9 / b_pyramid=2 / b_adapt=2 / b_bias=0 / direct=3 / weightb=1 / open_gop=0 / weightp=2 / keyint=250 / keyint_min=23 / scenecut=40 / intra_refresh=0 / rc_lookahead=60 / rc=2pass / mbtree=0 / bitrate=5259 / ratetol=1.0 / qcomp=0.70 / qpmin=0 / qpmax=69 / qpstep=4 / cplxblur=20.0 / qblur=0.5 / vbv_maxrate=50000 / vbv_bufsize=62500 / nal_hrd=none / ip_ratio=1.35 / pb_ratio=1.25 / aq=1:0.80Язык : EnglishDefault : ДаForced : Нет

Аудио #1Идентификатор : 2Формат : AC-3Формат/Информация : Audio Coding 3Расширение режима : CM (complete main)Параметр Endianness формата : BigИдентификатор кодека : A_AC3Продолжительность : 1 ч. 57 м.Вид битрейта : ПостоянныйБитрейт : 640 Кбит/секКаналы : 6 каналовРасположение каналов : Front: L C R, Side: L R, LFEЧастота : 48,0 КГцБитовая глубина : 16 битМетод сжатия : С потерямиРазмер потока : 321 Мбайт (6%)Заголовок : Dub | DD 5.1 @ 640 kbps - BD CEEЯзык : RussianDefault : ДаForced : Да

Аудио #2Идентификатор : 3Формат : AC-3Формат/Информация : Audio Coding 3Расширение режима : CM (complete main)Параметр Endianness формата : BigИдентификатор кодека : A_AC3Продолжительность : 1 ч. 57 м.Вид битрейта : ПостоянныйБитрейт : 640 Кбит/секКаналы : 6 каналовРасположение каналов : Front: L C R, Side: L R, LFEЧастота : 48,0 КГцБитовая глубина : 16 битМетод сжатия : С потерямиРазмер потока : 536 Мбайт (10%)Заголовок : riginal | DD 5.1 @ 640 kbpsЯзык : EnglishDefault : НетForced : Нет

Текст #1Идентификатор : 4Формат : UTF-8Идентификатор кодека : S_TEXT/UTF8Идентификатор кодека/Информация : UTF-8 Plain TextЯзык : RussianDefault : НетForced : Нет

Текст #2Идентификатор : 5Формат : UTF-8Идентификатор кодека : S_TEXT/UTF8Идентификатор кодека/Информация : UTF-8 Plain TextЗаголовок : SDHЯзык : EnglishDefault : НетForced : Нет

Меню00:03:35.131 : en:(01)00:03:35:13100:06:55.206 : en:(02)00:06:55:20600:10:49.482 : en:(03)00:10:49:48200:15:27.468 : en:(04)00:15:27:46800:20:18.467 : en:(05)00:20:18:46700:24:32.721 : en:(06)00:24:32:72100:28:36.214 : en:(07)00:28:36:21400:33:25.419 : en:(08)00:33:25:41900:36:53.044 : en:(09)00:36:53:04400:39:32.912 : en:(10)00:39:32:91200:43:14.925 : en:(11)00:43:14:92500:48:20.730 : en:(12)00:48:20:73000:52:12.379 : en:(13)00:52:12:37900:56:39.854 : en:(14)00:56:39:85401:07:27.376 : en:(15)01:07:27:37601:12:36.602 : en:(16)01:12:36:60201:18:50.809 : en:(17)01:18:50:80901:24:20.013 : en:(18)01:24:20:01301:29:43.044 : en:(19)01:29:43:04401:36:25.529 : en:(20)01:36:25:52901:39:32.674 : en:(21)01:39:32:67401:46:41.352 : en:(22)01:46:41:35201:49:38.821 : en:(23)01:49:38:82101:57:01.764 : en:(24)01:57:01:764

piratbit.ru

Скачать фильм 3 дня на убийство через торрент в хорошем качестве бесплатно BDRip-AVC

ОбщееУникальный идентификатор : 210825467949312407501806557346976086615 (0x9E9B8217D79AF0C88E044EDEC491BA57)Полное имя : 3.Dnya.na.Ubiystvo.2014.Theatrical.RUS.BDRip.x264.-HELLYWOOD.mkvФормат : MatroskaВерсия формата : Version 4 / Version 2Размер файла : 1,46 ГбайтПродолжительность : 1 ч. 57 м.Общий поток : 1786 Кбит/секНазвание фильма : HELLYWOOD - rip by potroksДата кодирования : UTC 2014-06-04 05:51:35Программа кодирования : mkvmerge v5.9.0 ('On The Loose') built on Dec 15 2012 16:39:58Библиотека кодирования : libebml v1.3.0 + libmatroska v1.4.0

ВидеоИдентификатор : 1Формат : AVCФормат/Информация : Advanced Video CodecПрофиль формата : [email protected]Параметр CABAC формата : ДаПараметр ReFrames формата : 12 кадровИдентификатор кодека : V_MPEG4/ISO/AVCПродолжительность : 1 ч. 57 м.Битрейт : 1595 Кбит/секШирина : 960 пикселейВысота : 404 пикселяСоотношение сторон : 2,40:1Режим частоты кадров : ПостоянныйЧастота кадров : 23,976 кадра/секЦветовое пространство : YUVСубдискретизация насыщенности : 4:2:0Битовая глубина : 8 битТип развёртки : ПрогрессивнаяБит/(Пиксели*Кадры) : 0.172Размер потока : 1,27 Гбайт (87%)Заголовок : 3 Days to KillБиблиотека кодирования : x264 core 130 r2273 b3065e6Настройки программы : cabac=1 / ref=12 / deblock=1:-2:-2 / analyse=0x3:0x133 / me=umh / subme=11 / psy=1 / psy_rd=1.04:0.00 / mixed_ref=1 / me_range=48 / chroma_me=1 / trellis=2 / 8x8dct=1 / cqm=0 / deadzone=21,11 / fast_pskip=1 / chroma_qp_offset=-2 / threads=9 / lookahead_threads=6 / sliced_threads=0 / nr=0 / decimate=0 / interlaced=0 / bluray_compat=0 / constrained_intra=0 / bframes=13 / b_pyramid=2 / b_adapt=2 / b_bias=0 / direct=3 / weightb=1 / open_gop=0 / weightp=2 / keyint=250 / keyint_min=23 / scenecut=40 / intra_refresh=0 / rc_lookahead=60 / rc=2pass / mbtree=0 / bitrate=1595 / ratetol=1.0 / qcomp=0.70 / qpmin=0 / qpmax=69 / qpstep=4 / cplxblur=20.0 / qblur=0.5 / vbv_maxrate=20000 / vbv_bufsize=25000 / nal_hrd=none / ip_ratio=1.35 / pb_ratio=1.25 / aq=1:0.80Язык : EnglishDefault : ДаForced : Нет

АудиоИдентификатор : 2Формат : AC-3Формат/Информация : Audio Coding 3Расширение режима : CM (complete main)Параметр Endianness формата : BigИдентификатор кодека : A_AC3Продолжительность : 1 ч. 57 м.Вид битрейта : ПостоянныйБитрейт : 192 Кбит/секКаналы : 2 каналаРасположение каналов : Front: L RЧастота : 48,0 КГцБитовая глубина : 16 битМетод сжатия : С потерямиЗадержка видео : 900 мс.Размер потока : 161 Мбайт (11%)Заголовок : Dub | DD 2.0 @ 192 kbps - BD CEEЯзык : RussianDefault : ДаForced : Да

Текст #1Идентификатор : 3Формат : UTF-8Идентификатор кодека : S_TEXT/UTF8Идентификатор кодека/Информация : UTF-8 Plain TextЯзык : RussianDefault : НетForced : Нет

Текст #2Идентификатор : 4Формат : UTF-8Идентификатор кодека : S_TEXT/UTF8Идентификатор кодека/Информация : UTF-8 Plain TextЗаголовок : SDHЯзык : EnglishDefault : НетForced : Нет

Меню00:03:35.131 : en:(01)00:03:35:13100:06:55.206 : en:(02)00:06:55:20600:10:49.482 : en:(03)00:10:49:48200:15:27.468 : en:(04)00:15:27:46800:20:18.467 : en:(05)00:20:18:46700:24:32.721 : en:(06)00:24:32:72100:28:36.214 : en:(07)00:28:36:21400:33:25.419 : en:(08)00:33:25:41900:36:53.044 : en:(09)00:36:53:04400:39:32.912 : en:(10)00:39:32:91200:43:14.925 : en:(11)00:43:14:92500:48:20.730 : en:(12)00:48:20:73000:52:12.379 : en:(13)00:52:12:37900:56:39.854 : en:(14)00:56:39:85401:07:27.376 : en:(15)01:07:27:37601:12:36.602 : en:(16)01:12:36:60201:18:50.809 : en:(17)01:18:50:80901:24:20.013 : en:(18)01:24:20:01301:29:43.044 : en:(19)01:29:43:04401:36:25.529 : en:(20)01:36:25:52901:39:32.674 : en:(21)01:39:32:67401:46:41.352 : en:(22)01:46:41:35201:49:38.821 : en:(23)01:49:38:82101:57:01.764 : en:(24)01:57:01:764

piratbit.ru

Скачать фильм 3 дня на убийство через торрент в хорошем качестве бесплатно 1080p

GeneralUnique ID                                : 202868432158526133021346286044990702914 (0x989F09F08891FC2DAE32678820AC8542)Complete name                            : C:\Users\Messa\Desktop\coding\3.Days.to.Kill.2014.BDRemux.BLUEBIRD.mkvFormat                                   : MatroskaFormat version                           : Version 4 / Version 2File size                                : 29.2 MiBDuration                                 : 1h 57mnOverall bit rate mode                    : VariableOverall bit rate                         : 34.9 KbpsMovie name                               : =BLUEBIRD=Encoded date                             : UTC 2014-05-21 20:41:00Writing application                      : mkvmerge v6.9.1 ('Blue Panther') 64bit built on Apr 18 2014 18:23:38Writing library                          : libebml v1.3.0 + libmatroska v1.4.1Attachment                               : Yes

VideoID                                       : 1Format                                   : AVCFormat/Info                              : Advanced Video CodecFormat profile                           : [email protected] settings, CABAC                   : YesFormat settings, ReFrames                : 2 framesCodec ID                                 : V_MPEG4/ISO/AVCDuration                                 : 1h 57mnBit rate mode                            : VariableWidth                                    : 1 920 pixelsHeight                                   : 1 080 pixelsDisplay aspect ratio                     : 16:9Frame rate                               : 23.976 fpsColor space                              : YUVChroma subsampling                       : 4:2:0Bit depth                                : 8 bitsScan type                                : ProgressiveTitle                                    : 3.дня.на.убийство-3.Days.to.Kill.(2014).BDRemux.[1080p]Language                                 : EnglishDefault                                  : YesForced                                   : No

Audio #1ID                                       : 2Format                                   : AC-3Format/Info                              : Audio Coding 3Mode extension                           : CM (complete main)Codec ID                                 : A_AC3Duration                                 : 1h 57mnBit rate mode                            : ConstantBit rate                                 : 384 KbpsChannel(s)                               : 6 channelsChannel positions                        : Front: L C R, Side: L R, LFESampling rate                            : 48.0 KHzBit depth                                : 16 bitsCompression mode                         : LossyStream size                              : 321 MiBLanguage                                 : RussianDefault                                  : YesForced                                   : No

Audio #2ID                                       : 3Format                                   : DTSFormat/Info                              : Digital Theater SystemsFormat profile                           : MA / CoreCodec ID                                 : A_DTSDuration                                 : 1h 57mnBit rate mode                            : VariableBit rate                                 : 1 561 Kbps / 1 510 KbpsChannel(s)                               : 6 channelsChannel positions                        : Front: L C R, Side: L R, LFESampling rate                            : 48.0 KHzBit depth                                : 24 bitsCompression mode                         : Lossless / LossyLanguage                                 : EnglishDefault                                  : NoForced                                   : No

Text #1ID                                       : 4Format                                   : UTF-8Codec ID                                 : S_TEXT/UTF8Codec ID/Info                            : UTF-8 Plain TextLanguage                                 : RussianDefault                                  : NoForced                                   : No

Text #2ID                                       : 5Format                                   : PGSMuxing mode                              : zlibCodec ID                                 : S_HDMV/PGSCodec ID/Info                            : The same subtitle format used on BDs/HD-DVDsLanguage                                 : EnglishDefault                                  : NoForced                                   : No

Menu00:00:00.000                             : en:Chapter 100:03:35.131                             : en:Chapter 200:06:55.206                             : en:Chapter 300:10:49.482                             : en:Chapter 400:15:27.468                             : en:Chapter 500:20:18.467                             : en:Chapter 600:24:32.721                             : en:Chapter 700:28:36.214                             : en:Chapter 800:33:25.419                             : en:Chapter 900:36:53.044                             : en:Chapter 1000:39:32.912                             : en:Chapter 1100:43:14.925                             : en:Chapter 1200:48:20.730                             : en:Chapter 1300:52:12.379                             : en:Chapter 1400:56:39.854                             : en:Chapter 1501:07:27.376                             : en:Chapter 1601:12:36.602                             : en:Chapter 1701:18:50.809                             : en:Chapter 1801:24:20.013                             : en:Chapter 1901:29:43.044                             : en:Chapter 2001:36:25.529                             : en:Chapter 2101:39:32.674                             : en:Chapter 2201:46:41.352                             : en:Chapter 2301:49:38.821                             : en:Chapter 24

piratbit.ru

Скачать фильм 3 дня на убийство через торрент в хорошем качестве бесплатно HDRip-AVC]

---[Information] [25.05.2014 11:08:58] x264 [info]: frame I:2082  Avg QP:15.45  size: 60544  PSNR Mean Y:47.87 U:50.26 V:50.18 Avg:48.50 Global:48.08---[Information] [25.05.2014 11:08:58] x264 [info]: frame P:40677 Avg QP:18.96  size: 14352  PSNR Mean Y:45.74 U:49.28 V:49.14 Avg:46.57 Global:45.87---[Information] [25.05.2014 11:08:58] x264 [info]: frame B:125602 Avg QP:21.80  size:  4152  PSNR Mean Y:45.25 U:49.34 V:49.09 Avg:46.16 Global:45.31---[Information] [25.05.2014 11:08:58] x264 [info]: consecutive B-frames:  2.8%  5.1%  5.8% 48.8%  9.9% 11.5%  3.4%  9.9%  0.9%  0.5%  0.2%  0.4%  0.8%

ОбщееУникальный идентификатор                 : 233313964123005890082758154546848821833 (0xAF86A28F053B2270B469C1C9550D7249)Полное имя                               : D:\Games\3.Dnya.na.Ubiystvo.2014.HDRip-AVC.by.White Smoke.R.G. PiratFilms.mkvФормат                                   : MatroskaВерсия формата                           : Version 4 / Version 2Размер файла                             : 1,46 ГбайтПродолжительность                        : 1 ч. 57 м.Общий поток                              : 1788 Кбит/секДата кодирования                         : UTC 2014-05-25 20:04:07Программа кодирования                    : mkvmerge v6.8.0 ('Theme for Great Cities') 64bit built on Mar  2 2014 21:34:26Библиотека кодирования                   : libebml v1.3.0 + libmatroska v1.4.1

ВидеоИдентификатор                            : 1Формат                                   : AVCФормат/Информация                        : Advanced Video CodecПрофиль формата                          : [email protected]Параметр CABAC формата                   : ДаПараметр ReFrames формата                : 12 кадровИдентификатор кодека                     : V_MPEG4/ISO/AVCПродолжительность                        : 1 ч. 57 м.Битрейт                                  : 1404 Кбит/секШирина                                   : 1024 пикселяВысота                                   : 430 пикселейСоотношение сторон                       : 2,40:1Режим частоты кадров                     : ПостоянныйЧастота кадров                           : 23,976 кадра/секЦветовое пространство                    : YUVСубдискретизация насыщенности            : 4:2:0Битовая глубина                          : 8 битТип развёртки                            : ПрогрессивнаяБит/(Пиксели*Кадры)                      : 0.133Размер потока                            : 1,12 Гбайт (77%)Библиотека кодирования                   : x264 core 138 r2358 9e941d1Настройки программы                      : cabac=1 / ref=12 / deblock=1:-3:-3 / analyse=0x3:0x113 / me=umh / subme=9 / psy=1 / psy_rd=1.00:0.00 / mixed_ref=1 / me_range=32 / chroma_me=1 / trellis=2 / 8x8dct=1 / cqm=0 / deadzone=21,11 / fast_pskip=1 / chroma_qp_offset=-2 / threads=12 / lookahead_threads=3 / sliced_threads=0 / nr=0 / decimate=1 / interlaced=0 / bluray_compat=0 / constrained_intra=0 / bframes=12 / b_pyramid=2 / b_adapt=2 / b_bias=12 / direct=1 / weightb=0 / open_gop=0 / weightp=2 / keyint=240 / keyint_min=23 / scenecut=40 / intra_refresh=0 / rc_lookahead=40 / rc=2pass / mbtree=1 / bitrate=1404 / ratetol=1.0 / qcomp=0.65 / qpmin=0 / qpmax=69 / qpstep=4 / cplxblur=20.0 / qblur=0.5 / ip_ratio=1.40 / aq=1:1.00Язык                                     : EnglishDefault                                  : ДаForced                                   : Нет

АудиоИдентификатор                            : 2Формат                                   : AC-3Формат/Информация                        : Audio Coding 3Расширение режима                        : CM (complete main)Параметр Endianness формата              : BigИдентификатор кодека                     : A_AC3Продолжительность                        : 1 ч. 57 м.Вид битрейта                             : ПостоянныйБитрейт                                  : 384 Кбит/секКаналы                                   : 6 каналовРасположение каналов                     : Front: L C R, Side: L R, LFEЧастота                                  : 48,0 КГцБитовая глубина                          : 16 битМетод сжатия                             : С потерямиРазмер потока                            : 321 Мбайт (21%)Язык                                     : RussianDefault                                  : ДаForced                                   : Нет

piratbit.ru


Смотрите также