Фильм голос улиц 2015 скачать торрент в хорошем качестве


Скачать фильм Голос улиц через торрент в хорошем качестве бесплатно 720p

ОбщееУникальный идентификатор                 : 204197852803257940327676287928560036031 (0x999F13701AE3E1E683C9B2FB50F0A8BF)Полное имя                               : E:\Торрент\Straight.Outta.Compton.2015.L1.720p.WEB-DL.mkvФормат                                   : MatroskaВерсия формата                           : Version 4 / Version 2Размер файла                             : 4,45 ГбайтПродолжительность                        : 2 ч. 24 м.Общий поток                              : 4426 Кбит/секНазвание фильма                          : Straight.Outta.Compton.2015-BDPДата кодирования                         : UTC 2015-10-28 14:47:08Программа кодирования                    : mkvmerge v7.2.0 ('On Every Street') 32bit built on Sep 13 2014 15:42:11Библиотека кодирования                   : libebml v1.3.0 + libmatroska v1.4.1DURATION                                 : 01:24:35.820000000NUMBER_OF_FRAMES                         : 216NUMBER_OF_BYTES                          : 17699_STATISTICS_WRITING_APP                  : mkvmerge v7.2.0 ('On Every Street') 32bit built on Sep 13 2014 15:42:11_STATISTICS_WRITING_DATE_UTC             : 2015-10-28 14:47:08_STATISTICS_TAGS                         : BPS DURATION NUMBER_OF_FRAMES NUMBER_OF_BYTES

ВидеоИдентификатор                            : 1Формат                                   : AVCФормат/Информация                        : Advanced Video CodecПрофиль формата                          : [email protected]Параметр CABAC формата                   : ДаПараметр ReFrames формата                : 5 кадровИдентификатор кодека                     : V_MPEG4/ISO/AVCБитрейт                                  : 3864 Кбит/секШирина                                   : 1280 пикселейВысота                                   : 526 пикселейСоотношение сторон                       : 2,40:1Режим частоты кадров                     : ПеременныйСтандарт вещания                         : ComponentЦветовое пространство                    : YUVСубдискретизация насыщенности            : 4:2:0Битовая глубина                          : 8 битТип развёртки                            : ПрогрессивнаяБиблиотека кодирования                   : x264 core 148 r2538Настройки программы                      : cabac=1 / ref=5 / deblock=1:-3:-3 / analyse=0x3:0x133 / me=umh / subme=7 / psy=1 / psy_rd=1.00:0.00 / mixed_ref=0 / me_range=16 / chroma_me=1 / trellis=2 / 8x8dct=1 / cqm=0 / deadzone=21,11 / fast_pskip=1 / chroma_qp_offset=-2 / threads=12 / lookahead_threads=2 / sliced_threads=0 / nr=0 / decimate=1 / interlaced=0 / bluray_compat=0 / constrained_intra=0 / bframes=3 / b_pyramid=2 / b_adapt=2 / b_bias=0 / direct=3 / weightb=1 / open_gop=0 / weightp=2 / keyint=250 / keyint_min=25 / scenecut=40 / intra_refresh=0 / rc_lookahead=40 / rc=abr / mbtree=1 / bitrate=3864 / ratetol=1.0 / qcomp=0.60 / qpmin=10 / qpmax=69 / qpstep=4 / vbv_maxrate=62500 / vbv_bufsize=62500 / nal_hrd=none / filler=0 / ip_ratio=1.40 / aq=3:1.00Default                                  : ДаForced                                   : НетОсновные цвета                           : BT.709Характеристики трансфера                 : BT.709Коэффициенты матрицы                     : BT.709colour_range                             : LimitedDURATION                                 : 02:24:03.056000000NUMBER_OF_FRAMES                         : 216076NUMBER_OF_BYTES                          : 4156949967_STATISTICS_WRITING_APP                  : mkvmerge v7.2.0 ('On Every Street') 32bit built on Sep 13 2014 15:42:11_STATISTICS_WRITING_DATE_UTC             : 2015-10-28 14:47:08_STATISTICS_TAGS                         : BPS DURATION NUMBER_OF_FRAMES NUMBER_OF_BYTES

Аудио #1Идентификатор                            : 2Формат                                   : AC-3Формат/Информация                        : Audio Coding 3Расширение режима                        : CM (complete main)Параметр Endianness формата              : BigИдентификатор кодека                     : A_AC3Продолжительность                        : 2 ч. 24 м.Вид битрейта                             : ПостоянныйБитрейт                                  : 192 Кбит/секКаналы                                   : 2 каналаРасположение каналов                     : Front: L RЧастота                                  : 48,0 КГцБитовая глубина                          : 16 битМетод сжатия                             : С потерямиРазмер потока                            : 198 Мбайт (4%)Язык                                     : RussianDefault                                  : ДаForced                                   : НетDURATION                                 : 02:24:03.083000000NUMBER_OF_FRAMES                         : 270096NUMBER_OF_BYTES                          : 414867456_STATISTICS_WRITING_APP                  : mkvmerge v7.2.0 ('On Every Street') 32bit built on Sep 13 2014 15:42:11_STATISTICS_WRITING_DATE_UTC             : 2015-10-28 14:47:08_STATISTICS_TAGS                         : BPS DURATION NUMBER_OF_FRAMES NUMBER_OF_BYTES

Аудио #2Идентификатор                            : 3Формат                                   : AC-3Формат/Информация                        : Audio Coding 3Расширение режима                        : CM (complete main)Параметр Endianness формата              : BigИдентификатор кодека                     : A_AC3Продолжительность                        : 2 ч. 24 м.Вид битрейта                             : ПостоянныйБитрейт                                  : 384 Кбит/секКаналы                                   : 2 каналаРасположение каналов                     : Front: L RЧастота                                  : 48,0 КГцБитовая глубина                          : 16 битМетод сжатия                             : С потерямиРазмер потока                            : 396 Мбайт (9%)Язык                                     : EnglishDefault                                  : НетForced                                   : Нет

ТекстИдентификатор                            : 4Формат                                   : ASSИдентификатор кодека                     : S_TEXT/ASSИдентификатор кодека/Информация          : Advanced Sub Station AlphaМетод сжатия                             : Без потерьЯзык                                     : RussianDefault                                  : ДаForced                                   : Нет

piratbit.ru

Голос улиц (2015) HD 1080p скачать торрент в хорошем качестве

Информация о фильмеНазвание: Голос улицОригинальное название: Straight Outta ComptonГод выхода: 2015Жанр: драма, биография, музыкаРежиссер: Ф. Гэри ГрейВ ролях: О'Ши Джексон мл., Кори Хоукинс, Джейсон Митчелл, Нил Браун мл., Элдис Ходж, Марлон Йэтс мл., Р. Маркус Тейлор, Карра Паттерсон, Александра Шипп, Пол Джаматти

О фильме: История группы N.W.A. из Комптона, штат Калифорния, которая в середине 1980-х произвела революцию в хип-хоп музыке.

Выпущено: Universal PicturesПродолжительность: 02:26:38Перевод: Дублированный (лицензия)

ФайлКодек: x264Качество: BDRip (источник: Blu-ray Disc)Видео: 1920x800 (2,40:1), 23.976 fps, 6680 kbpsАудио #1: AC-3, 6 ch, 448 kbps (Rus)Аудио #2: AC-3, 6 ch, 448 kbps (Eng)Субтитры: Русские (форс,полные), Английские

GeneralUnique ID : 225669694327135080555499815965012971490 (0xA9C666F590CE1C48A142A7A20E76CFE2)Complete name : Z:Straight.Outta.Compton.2015.BDRip.1080p.Rus.Eng.mkvFormat : MatroskaFormat version : Version 2File size : 7.76 GiBDuration : 2h 26mnOverall bit rate : 7 576 KbpsMovie name : Голос улиц / Straight Outta Compton (2015) | Theatrical CutEncoded date : UTC 2016-01-23 19:07:05Writing application : mkvmerge v5.8.0 ('No Sleep / Pillow') built on Sep 2 2012 15:37:04Writing library : libebml v1.2.3 + libmatroska v1.3.0

VideoID : 1Format : AVCFormat/Info : Advanced Video CodecFormat profile : [email protected] settings, CABAC : YesFormat settings, ReFrames : 5 framesCodec ID : V_MPEG4/ISO/AVCDuration : 2h 26mnBit rate : 6 680 KbpsWidth : 1 920 pixelsHeight : 800 pixelsDisplay aspect ratio : 2.40:1Frame rate mode : ConstantFrame rate : 23.976 fpsColor space : YUVChroma subsampling : 4:2:0Bit depth : 8 bitsScan type : ProgressiveBits/(Pixel*Frame) : 0.181Stream size : 6.69 GiB (86%)Title : Голос улиц / Straight Outta Compton (2015) | Theatrical CutWriting library : x264 core 148 r2638 7599210Encoding settings : cabac=1 / ref=5 / deblock=1:-3:-3 / analyse=0x3:0x133 / me=umh / subme=11 / psy=1 / psy_rd=1.00:0.00 / mixed_ref=1 / me_range=32 / chroma_me=1 / trellis=2 / 8x8dct=1 / cqm=0 / deadzone=21,11 / fast_pskip=0 / chroma_qp_offset=-2 / threads=12 / lookahead_threads=3 / sliced_threads=0 / nr=0 / decimate=0 / interlaced=0 / bluray_compat=0 / constrained_intra=0 / bframes=10 / b_pyramid=2 / b_adapt=2 / b_bias=0 / direct=3 / weightb=1 / open_gop=0 / weightp=2 / keyint=240 / keyint_min=23 / scenecut=40 / intra_refresh=0 / rc=2pass / mbtree=0 / bitrate=6680 / ratetol=1.0 / qcomp=0.60 / qpmin=0 / qpmax=69 / qpstep=4 / cplxblur=20.0 / qblur=0.5 / ip_ratio=1.40 / pb_ratio=1.30 / aq=1:0.70Language : EnglishDefault : YesForced : No

Audio #1ID : 2Format : AC-3Format/Info : Audio Coding 3Mode extension : CM (complete main)Format settings, Endianness : BigCodec ID : A_AC3Duration : 2h 26mnBit rate mode : ConstantBit rate : 448 KbpsChannel(s) : 6 channelsChannel positions : Front: L C R, Side: L R, LFESampling rate : 48.0 KHzBit depth : 16 bitsCompression mode : LossyStream size : 470 MiB (6%)Title : Дубляж, Blu-ray CEELanguage : RussianDefault : YesForced : No

Audio #2ID : 3Format : AC-3Format/Info : Audio Coding 3Mode extension : CM (complete main)Format settings, Endianness : BigCodec ID : A_AC3Duration : 2h 26mnBit rate mode : ConstantBit rate : 448 KbpsChannel(s) : 6 channelsChannel positions : Front: L C R, Side: L R, LFESampling rate : 48.0 KHzBit depth : 16 bitsCompression mode : LossyStream size : 470 MiB (6%)Title : EnglishLanguage : EnglishDefault : NoForced : No

Text #1ID : 4Format : UTF-8Codec ID : S_TEXT/UTF8Codec ID/Info : UTF-8 Plain TextTitle : Russian (Forced)Language : RussianDefault : YesForced : No

Text #2ID : 5Format : UTF-8Codec ID : S_TEXT/UTF8Codec ID/Info : UTF-8 Plain TextTitle : RussianLanguage : RussianDefault : NoForced : No

Text #3ID : 6Format : UTF-8Codec ID : S_TEXT/UTF8Codec ID/Info : UTF-8 Plain TextTitle : EnglishLanguage : EnglishDefault : NoForced : No

Menu00:00:00.000 : :Chapter 0100:05:07.932 : :Chapter 0200:09:05.378 : :Chapter 0300:16:27.486 : :Chapter 0400:24:58.121 : :Chapter 0500:33:25.545 : :Chapter 0600:43:26.270 : :Chapter 0700:51:24.498 : :Chapter 0800:58:08.318 : :Chapter 0901:03:50.785 : :Chapter 1001:11:24.071 : :Chapter 1101:17:36.652 : :Chapter 1201:24:02.162 : :Chapter 1301:33:53.085 : :Chapter 1401:40:25.352 : :Chapter 1501:47:25.730 : :Chapter 1601:57:53.316 : :Chapter 1702:07:57.419 : :Chapter 1802:13:39.011 : :Chapter 1902:19:13.762 : :Chapter 20

x264 [info]: frame I:1389 Avg QP:12.99 size:152479x264 [info]: frame P:52193 Avg QP:14.76 size: 66940x264 [info]: frame B:157376 Avg QP:17.02 size: 23142x264 [info]: consecutive B-frames: 3.2% 5.8% 12.8% 19.4% 21.8% 26.3% 6.5% 1.5% 1.3% 0.8% 0.6%

x264 [info]: frame I:1389 Avg QP:12.06 size:174485x264 [info]: frame P:52193 Avg QP:14.71 size: 66814x264 [info]: frame B:157376 Avg QP:16.83 size: 22965x264 [info]: consecutive B-frames: 3.2% 5.8% 12.8% 19.4% 21.8% 26.3% 6.5% 1.5% 1.3% 0.8% 0.6%

rutorg2.ru

Скачать фильм Голос улиц через торрент в хорошем качестве бесплатно BDRip от Twi7ter

Размер: 1.46 GB | Добавлен: 1 год 9 мес. назад | Торрент скачан:243 раза
Реклама Дарим 3000 рублей за регистрацию, не упусти свой шанс получить шикарный бонус!!!

21-01-2016 10:19 Голос улиц Скачать торрент  

Голос улиц / Straight Outta Compton

«Самая опасная группа в мире»

Год выпуска: 2015Страна: СШАЖанр: драма, биография, музыкаПродолжительность: 02:26:38Перевод: Профессиональный (полное дублирование) [Лицензия Blu-Ray CEE]Субтитры: НетРежиссер: Ф. Гэри Грей / F. Gary GrayВ ролях: О’Ши Джексон мл. (Ice Cube), Кори Хоукинс (Dr. Dre), Джейсон Митчелл (Eazy-E), Нил Браун мл. (Dj Yella), Элдис Ходж (MC Ren), Марлон Йэтс мл. (The D.O.C), Р. Маркус Тейлор (Suge Knight), Карра Паттерсон (Tomica), Александра Шипп (Kim), Пол Джаматти (Jerry Heller), Кит Пауэрс (Tyree), Джошуа Брокингтон (Young Warren G.)Описание: История группы N.W.A. из Комптона, штат Калифорния, которая в середине 1980-х произвела революцию в хип-хоп музыке.Рейтинг:

MPAA: R - Лицам до 17 лет обязательно присутствие взрослого

Качество: BDRip | исх. Straight Outta Compton 2015 MULTI COMPLETE BLURAY-BDA |Формат: AVIВидео кодек: XviDАудио кодек: AC3Видео: 720x304 (2.37:1), 23.976 fps, XviD build 73 ~1226 kbps avg, 0.23 bit/pixelАудио: 48 kHz, AC3 Dolby Digital, 2/0 (L,R) ch, ~192 kbps

Релиз: & MegaPeer

Скачать Голос улиц через торрент http://s019.radikal.ru/i614/1601/6a/72a8dc3e5dbb.png Скачать фильм Голос улиц через торрент бесплантно в хорошем качестве Описание: История группы N.W.A. из Комптона, штат Калифорния, которая в середине 1980-х произвела революцию в хип-хоп музыке.Рейтинг: ... 2016-01-21 10:19 9.5 10 8

Loading...

Loading...

Рекламный пират

Дорогой пользователь! Огромная просьба, поблагодарите релизера, оцените раздачу и оставьте свои комментарий, если Вы скачали Голос улиц через торрент бесплатно! Внесите свою лепту в развитие PiratBit!

Комментировать посты могут только пользователи прошедшие не сложную регистрацию

Голос улиц через торрент Скачать бесплатно Голос улиц Голос улиц скачать торрент Голос улиц смотреть онлайн Cкачать фильм Голос улиц бесплатно Голос улиц скачать торрент в хорошем качестве Голос улиц смотреть онлайн бесплатно в хорошем качестве

Вы не можете начинать темыВы не можете отвечать на сообщенияВы не можете редактировать свои сообщенияВы не можете удалять свои сообщенияВы не можете голосовать в опросахВы не можете прикреплять файлы к сообщениямВы можете скачивать файлы

piratbit.ru

Скачать фильм Голос улиц через торрент в хорошем качестве бесплатно BDRip-AVC от sokol_ok

ОбщееУникальный идентификатор : 199057378549636467046981013187515464488 (0x95C10E7D56603454864B6E0F17AD3B28)Полное имя : M:\Rips2\Straight Outta Compton\Straight.Outta.Compton.2015.BDRip-AVC.Dub.1.45Gb.stalkerok.new-team.mkvФормат : MatroskaВерсия формата : Version 4 / Version 2Размер файла : 1,46 ГбайтПродолжительность : 2 ч. 26 м.Общий поток : 1427 Кбит/секНазвание фильма : Straight Outta Compton (2015) (New-Team) (Rip by Stalker oK)Дата кодирования : UTC 2016-01-21 13:29:49Программа кодирования : mkvmerge v8.6.1 ('Flying') 64bitБиблиотека кодирования : libebml v1.3.3 + libmatroska v1.4.4

ВидеоИдентификатор : 1Формат : AVCФормат/Информация : Advanced Video CodecПрофиль формата : [email protected]Параметр CABAC формата : ДаПараметр ReFrames формата : 16 кадровИдентификатор кодека : V_MPEG4/ISO/AVCПродолжительность : 2 ч. 26 м.Битрейт : 1041 Кбит/секШирина : 888 пикселейВысота : 370 пикселейСоотношение сторон : 2,40:1Режим частоты кадров : ПостоянныйЧастота кадров : 23,976 (24000/1001) кадра/секЦветовое пространство : YUVСубдискретизация насыщенности : 4:2:0Битовая глубина : 8 битТип развёртки : ПрогрессивнаяБит/(Пиксели*Кадры) : 0.132Размер потока : 1,07 Гбайт (73%)Заголовок : Straight Outta Compton (2015) (New-Team) (Rip by Stalker oK)Библиотека кодирования : x264 core 148 r2638kMod 7599210Настройки программы : cabac=1 / ref=16 / deblock=1:-3:-3 / analyse=0x3:0x133 / me=umh / subme=11 / psy=1 / fade_compensate=0.00 / psy_rd=1.00:0.10 / mixed_ref=1 / me_range=48 / chroma_me=1 / trellis=2 / 8x8dct=1 / cqm=0 / deadzone=21,11 / fast_pskip=0 / chroma_qp_offset=-3 / threads=12 / lookahead_threads=2 / sliced_threads=0 / nr=0 / decimate=0 / interlaced=0 / bluray_compat=0 / constrained_intra=0 / fgo=0 / bframes=16 / b_pyramid=2 / b_adapt=2 / b_bias=0 / direct=3 / weightb=1 / open_gop=0 / weightp=2 / keyint=240 / keyint_min=23 / scenecut=40 / intra_refresh=0 / rc_lookahead=60 / rc=2pass / mbtree=0 / bitrate=1041 / ratetol=1.0 / qcomp=0.70 / qpmin=0 / qpmax=69 / qpstep=4 / cplxblur=20.0 / qblur=0.5 / vbv_maxrate=50000 / vbv_bufsize=62500 / nal_hrd=none / filler=0 / ip_ratio=1.40 / pb_ratio=1.30 / aq=3:0.90Default : ДаForced : Нет

АудиоИдентификатор : 2Формат : AC-3Формат/Информация : Audio Coding 3Расширение режима : CM (complete main)Параметр Endianness формата : BigИдентификатор кодека : A_AC3Продолжительность : 2 ч. 26 м.Вид битрейта : ПостоянныйБитрейт : 384 Кбит/секКаналы : 6 каналовРасположение каналов : Front: L C R, Side: L R, LFEЧастота : 48,0 КГцЧастота кадров : 31,250 кадров/сек (1536 spf)Метод сжатия : С потерямиРазмер потока : 403 Мбайт (27%)Язык : RussianDefault : ДаForced : Нет

Текст #1Идентификатор : 3Формат : UTF-8Идентификатор кодека : S_TEXT/UTF8Идентификатор кодека/Информация : UTF-8 Plain TextПродолжительность : 2 ч. 25 м.Битрейт : 1 бит/секCount of elements : 45Размер потока : 1,92 Кбайт (0%)Заголовок : forcedЯзык : RussianDefault : ДаForced : Нет

Текст #2Идентификатор : 4Формат : UTF-8Идентификатор кодека : S_TEXT/UTF8Идентификатор кодека/Информация : UTF-8 Plain TextПродолжительность : 2 ч. 24 м.Битрейт : 95 бит/секCount of elements : 2548Размер потока : 101 Кбайт (0%)Язык : EnglishDefault : НетForced : Нет

Текст #3Идентификатор : 5Формат : UTF-8Идентификатор кодека : S_TEXT/UTF8Идентификатор кодека/Информация : UTF-8 Plain TextПродолжительность : 2 ч. 26 м.Битрейт : 102 бит/секCount of elements : 2727Размер потока : 110 Кбайт (0%)Заголовок : SDHЯзык : EnglishDefault : НетForced : Нет

Меню00:00:00.000 : en:Chapter 100:05:07.932 : en:Chapter 200:09:05.378 : en:Chapter 300:16:27.486 : en:Chapter 400:24:58.121 : en:Chapter 500:33:25.545 : en:Chapter 600:43:26.270 : en:Chapter 700:51:24.498 : en:Chapter 800:58:08.318 : en:Chapter 901:03:50.785 : en:Chapter 1001:11:24.071 : en:Chapter 1101:17:36.652 : en:Chapter 1201:24:02.162 : en:Chapter 1301:33:53.085 : en:Chapter 1401:40:25.352 : en:Chapter 1501:47:25.730 : en:Chapter 1601:57:53.316 : en:Chapter 1702:07:57.419 : en:Chapter 1802:13:39.011 : en:Chapter 1902:19:13.762 : en:Chapter 20

piratbit.ru


Смотрите также