Фильм водопад ангела бесплатно в хорошем качестве скачать через торрент


Скачать фильм Водопад Ангела (2006) через торрент

13 апреля 2016 08:03 Водопад Ангела / Seraphim Falls (2006) HDRip от MediaClub | КПК .torrent   [Информация о файле (нажмите для просмотра)] Качество: HDRipВидео: MPEG-4 AVC, 500 Кбит/с, 480x202, 23.976 кадр/сАудио: Русский (AAC, 2 ch, 128 Кбит/с) / Профессиональный многоголосый 508,5 Mb 13 6 13 апреля 2016 08:03 Водопад Ангела / Seraphim Falls (2006) BDRip 720p от Leonardo and Scarabey .torrent   [Информация о файле (нажмите для просмотра)] Перевод: Профессиональный (многоголосый, закадровый) ЛицензияФормат: MKVВидео кодек: MPEG-4 AVC Аудио кодек: AC3Видео: 1280x534 (2.40:1) at 23.976 fps, AVC at 3165 kbps avg, 0.193 bit/pixelАудио: 48 kHz, AC3 Dolby Digital, 3/2 (L,C,R,l,r) + LFE ch, 448 kbps avg | RUS | профессиональный, многоголосый закадровыйАудио: 48 kHz, AC3 Dolby Digital, 3/2 (L,C,R,l,r) + LFE ch, 448 kbps avg | ENG | originalСубтитры: Русские, английские 3,24 Gb 140 29 13 апреля 2016 08:03 Водопад Ангела / Seraphim Falls (2006) BDRip 720р | P, А .torrent   [Информация о файле (нажмите для просмотра)] Кодек: MPEG-4 AVC/H.264Качество: BDRip720рВидео: ~2625 Кбит/сек, 1280x536Звук: 1: Русский, AC3 5.1, 448 Кбит/сек, 48 kHz 2: Русский, AC3 2.0, 192 Кбит/сек, 48 kHz 3: Русский, AC3 2.0, 192 Кбит/сек, 48 kHzСубтитры: ОтсутствуютВидео: Идентификатор : 1 Формат : AVC Формат/Информация : Advanced Video Codec Профиль формата : [email protected] Параметр CABAC формата : Да Параметр ReFrames формата : 8 кадров Идентификатор кодека : V_MPEG4/ISO/AVC Продолжительность : 1 ч. 51 м. Битрейт : 2625 Кбит/сек Ширина : 1280 пикселей Высота : 536 пикселей Соотношение сторон : 2,40:1 Режим частоты кадров : Постоянный Частота кадров : 23,976 кадра/сек Цветовое пространство : YUV Субдискретизация насыщенности : 4:2:0 Битовая глубина : 8 бит Тип развёртки : Прогрессивная Бит/(Пиксели*Кадры) : 0.160 Размер потока : 2,00 Гбайт (74%) Заголовок : Seraphim Falls Библиотека кодирования : x264 core 125 r2208 d9d2288 Настройки программы : cabac=1 / ref=8 / deblock=1:-1:-1 / analyse=0x3:0x133 / me=umh / subme=9 / psy=1 / psy_rd=1.00:0.10 / mixed_ref=1 / me_range=32 / chroma_me=1 / trellis=2 / 8x8dct=1 / cqm=0 / deadzone=21,11 / fast_pskip=0 / chroma_qp_offset=-3 / threads=6 / lookahead_threads=1 / sliced_threads=0 / nr=0 / decimate=1 / interlaced=0 / bluray_compat=0 / constrained_intra=0 / bframes=3 / b_pyramid=2 / b_adapt=2 / b_bias=0 / direct=3 / weightb=1 / open_gop=0 / weightp=2 / keyint=250 / keyint_min=25 / scenecut=40 / intra_refresh=0 / rc_lookahead=60 / rc=2pass / mbtree=1 / bitrate=2625 / ratetol=1.0 / qcomp=0.60 / qpmin=0 / qpmax=69 / qpstep=4 / cplxblur=20.0 / qblur=0.5 / ip_ratio=1.40 / aq=1:1.00 Язык : English Default : Да Forced : Нет Аудио #1: Идентификатор : 2 Формат : AC-3 Формат/Информация : Audio Coding 3 Расширение режима : CM (complete main) Параметр Endianness формата : Big Идентификатор кодека : A_AC3 Продолжительность : 1 ч. 51 м. Вид битрейта : Постоянный Битрейт : 448 Кбит/сек Каналы : 6 каналов Расположение каналов : Front: L C R, Side: L R, LFE Частота : 48,0 КГц Битовая глубина : 16 бит Метод сжатия : С потерями Размер потока : 358 Мбайт (13%) Заголовок : Многоголосый закадровый , студия Велес Язык : Russian Default : Да Forced : Нет Аудио #2: Идентификатор : 3 Формат : AC-3 Формат/Информация : Audio Coding 3 Расширение режима : CM (complete main) Параметр Endianness формата : Big Идентификатор кодека : A_AC3 Продолжительность : 1 ч. 51 м. Вид битрейта : Постоянный Битрейт : 192 Кбит/сек Каналы : 2 канала Расположение каналов : Front: L R Частота : 48,0 КГц Битовая глубина : 16 бит Метод сжатия : С потерями Размер потока : 154 Мбайт (6%) Заголовок : Многоголосый закадровый , Студия ИНИС Язык : Russian Default : Нет Forced : Нет Аудио #3: Идентификатор : 4 Формат : AC-3 Формат/Информация : Audio Coding 3 Расширение режима : CM (complete main) Параметр Endianness формата : Big Идентификатор кодека : A_AC3 Продолжительность : 1 ч. 51 м. Вид битрейта : Постоянный Битрейт : 192 Кбит/сек Каналы : 2 канала Расположение каналов : Front: L R Частота : 48,0 КГц Битовая глубина : 16 бит Метод сжатия : С потерями Размер потока : 154 Мбайт (6%) Заголовок : Авторский, А.Карповский Язык : Russian Default : Нет Forced : Нет 2,7 Gb 6 1 13 апреля 2016 08:03 Водопад Ангела / Seraphim Falls (2006) BDRip от HQCLUB | Лицензия .torrent   [Информация о файле (нажмите для просмотра)] Перевод: Профессиональный (многоголосый, закадровый)R5 + Оригинальная английская дорожкаСубтитры: Русские, украинские, английские (полные; SDH) (внешние .srt) (спасибоantikillW)Формат: AVIКачество: BDRip (источник: Видео: 720x304 (2.37:1), 23.976 fps, XviD build 72 ~1880 kbps avg, 0.36 bit/pixelАудио #1: 48 kHz, AC3 Dolby Digital, 3/2 (L,C,R,l,r) + LFE ch, ~448.00 kbps avg|MVO: R5|Аудио #2: 48 kHz, AC3 Dolby Digital, 3/2 (L,C,R,l,r) + LFE ch, ~448.00 kbps avg|Original: English|Аудио #3: 48 kHz, AC3 Dolby Digital, 2/0 (L,R) ch, ~192 kbps avg|MVO: Инис| (отдельно, на drive.hqclub.net)Аудио #4: 48 kHz, AC3 Dolby Digital, 2/0 (L,R) ch, ~192 kbps avg|AVO: А. Карповский| (отдельно, на drive.hqclub.net) 2,18 Gb 37 4 13 апреля 2016 08:03 Водопад Ангела / Seraphim Falls (2006) BDRip 1080p .torrent   [Информация о файле (нажмите для просмотра)] Перевод: Профессиональный (многоголосый закадровый) CP DigitalКодек: x264Качество: BDRip (источник: BD Remux)Видео: 1920x800 (2,40:1), 23.976 fps, 8630 kbpsАудио #1: AC-3, 6 ch, 640 kbps (Rus) MVO CP DigitalАудио #2: AC-3, 6 ch, 640 kbps (Eng) OriginalСубтитры: Русские, английские. (PGS)Видео: Идентификатор : 1 Формат : AVC Формат/Информация : Advanced Video Codec Профиль формата : [email protected] Параметр CABAC формата : Да Параметр ReFrames формата : 5 кадров Идентификатор кодека : V_MPEG4/ISO/AVC Продолжительность : 1 ч. 51 м. Битрейт : 8630 Кбит/сек Ширина : 1920 пикселей Высота : 800 пикселей Соотношение сторон : 2,40:1 Режим частоты кадров : Постоянный Частота кадров : 23,976 кадра/сек Цветовое пространство : YUV Субдискретизация насыщенности : 4:2:0 Битовая глубина : 8 бит Тип развёртки : Прогрессивная Бит/(Пиксели*Кадры) : 0.234 Размер потока : 6,59 Гбайт (85%) Библиотека кодирования : x264 core 128 r2216M 198a7ea Настройки программы : cabac=1 / ref=5 / deblock=1:0:0 / analyse=0x3:0x133 / me=umh / subme=10 / psy=1 / psy_rd=1.00:0.00 / mixed_ref=1 / me_range=32 / chroma_me=1 / trellis=2 / 8x8dct=1 / cqm=0 / deadzone=21,11 / fast_pskip=0 / chroma_qp_offset=-2 / threads=4 / lookahead_threads=1 / sliced_threads=0 / nr=0 / decimate=0 / interlaced=0 / bluray_compat=0 / constrained_intra=0 / bframes=9 / b_pyramid=2 / b_adapt=2 / b_bias=0 / direct=3 / weightb=1 / open_gop=0 / weightp=2 / keyint=240 / keyint_min=23 / scenecut=40 / intra_refresh=0 / rc=2pass / mbtree=0 / bitrate=8630 / ratetol=1.0 / qcomp=0.60 / qpmin=10 / qpmax=69 / qpstep=4 / cplxblur=20.0 / qblur=0.5 / ip_ratio=1.40 / pb_ratio=1.30 / aq=1:1.00 Язык : English Default : Да Forced : НетАудио #1: Идентификатор : 2 Формат : AC-3 Формат/Информация : Audio Coding 3 Расширение режима : CM (complete main) Параметр Endianness формата : Big Идентификатор кодека : A_AC3 Продолжительность : 1 ч. 51 м. Вид битрейта : Постоянный Битрейт : 640 Кбит/сек Каналы : 6 каналов Расположение каналов : Front: L C R, Side: L R, LFE Частота : 48,0 КГц Битовая глубина : 16 бит Метод сжатия : С потерями Размер потока : 512 Мбайт (6%) Заголовок : MVO, AC3 5.1, 640 kbps Язык : Russian Default : Да Forced : НетАудио #2: Идентификатор : 3 Формат : AC-3 Формат/Информация : Audio Coding 3 Расширение режима : CM (complete main) Параметр Endianness формата : Big Идентификатор кодека : A_AC3 Продолжительность : 1 ч. 51 м. Вид битрейта : Постоянный Битрейт : 640 Кбит/сек Каналы : 6 каналов Расположение каналов : Front: L C R, Side: L R, LFE Частота : 48,0 КГц Битовая глубина : 16 бит Метод сжатия : С потерями Размер потока : 512 Мбайт (6%) Заголовок : Original, AC3 5.1, 640 kbps Язык : English Default : Нет Forced : Нет 7,75 Gb 29 16 13 апреля 2016 08:03 Водопад Ангела / Seraphim Falls (2006) HDRip от Scarabey .torrent   [Информация о файле (нажмите для просмотра)] Перевод: Профессиональный (многоголосый, закадровый)Субтитры: нетКачество: HDRipФормат: AVIВидео: 720x304 (2.37:1), 23.976 fps, XviD build 50 ~1399 kbps avg, 0.27 bit/pixelАудио: 48 kHz, AC3 Dolby Digital, 3/2 (L,C,R,l,r) + LFE ch, ~448.00 kbps avg 1,45 Gb 89 11 13 апреля 2016 08:02 Водопад Ангела / Seraphim Falls (2006) BDRip-AVC от NovaLan .torrent   [Информация о файле (нажмите для просмотра)] Перевод: Профессиональный многоголосыйКодек: H.264Качество: BDRip-AVCВидео: MPEG-4 AVC, 2293 Кбит/с, 1024х424, 23.976 кадр/сЗвук: Русский, английский (AC3, 6 ch, 448 Кбит/с)Субтитры: Русские, английские 2,49 Gb 2 3 13 апреля 2016 08:02 Водопад Ангела / Seraphim Falls (2006) DVDRip от Pasha74 .torrent   [Информация о файле (нажмите для просмотра)] Перевод: Профессиональный (многоголосый)Кодек: XviDКачество: DVDRipВидео: 720x304 (2.37:1), 25 fps, XviD build 50 ~1757 kbps avg, 0.32 bit/pixelЗвук: 48 kHz, AC3 Dolby Digital, 3/2 (L,C,R,l,r) + LFE ch, ~448.00 kbps avg 1,66 Gb 3 4 13 апреля 2016 08:02 Водопад Ангела / Seraphim Falls (2006) BDRip от HQ-ViDEO .torrent   [Информация о файле (нажмите для просмотра)] Перевод: Русский профессиональный многоголосый перевод + Оригинальная дорожкаКодек: XviDКачество: BDRipВидео: 720x304, 23.976 fps, 2031 kbps, 0.39 bit/pixel, XviD MPEG-4Звук: Audio #1 (RUS): 48 kHz, 6 ch, 384.00 kbps, AC3 Dolby Digital Audio #2 (ENG): 48 kHz, 6 ch, 384.00 kbps, AC3 Dolby Digital 2,18 Gb 3 3

gig-torrent.net

Водопад Ангела 2006 - скачать бесплатно через торрент в хорошем качестве. Без регистрации

Название: Водопад Ангела / Seraphim Falls (2006) BDRip 1080p | P
Качество видео: BDRip 1080p
Перевод: Профессиональный многоголосый
Видео: MPEG-4 AVC, 8703 Кбит/с, 1920x800
Аудио: Русский (DTS, 6 ch, 768 Кбит/с), английский (DTS, 6 ch, 1536 Кбит/с)
Скачать

Загрузка начнется в течение 5 сек.

8.54 GB

Название: Водопад Ангела / Seraphim Falls (2006) HDRip от MediaClub | КПК
Качество видео: HDRip
Видео: MPEG-4 AVC, 500 Кбит/с, 480x202, 23.976 кадр/с
Аудио: Русский (AAC, 2 ch, 128 Кбит/с) / Профессиональный многоголосый
Скачать

Загрузка начнется в течение 5 сек.

508.50 MB

Название: Водопад Ангела / Seraphim Falls (2006) BDRip 1080p
Качество видео: BDRip (источник: BD Remux)
Перевод: Профессиональный (многоголосый закадровый) CP Digital
Видео: x264 1920x800 (2,40:1), 23.976 fps, 8630 kbps
Аудио: AC-3, 6 ch, 640 kbps (Rus) MVO CP DigitalAC-3, 6 ch, 640 kbps (Eng) Original
Скачать

Загрузка начнется в течение 5 сек.

7.75 GB

Название: Водопад Ангела / Seraphim Falls (2006) HDRip от Scarabey
Качество видео: HDRip
Перевод: Профессиональный (многоголосый, закадровый)
Формат видео: AVI
Видео: 720x304 (2.37:1), 23.976 fps, XviD build 50 ~1399 kbps avg, 0.27 bit/pixel
Аудио: 48 kHz, AC3 Dolby Digital, 3/2 (L,C,R,l,r) + LFE ch, ~448.00 kbps avg
Скачать

Загрузка начнется в течение 5 сек.

1.45 GB

www.kinovit.net

Скачать фильм Водопад Ангела через торрент в хорошем качестве бесплатно 1080p

ОбщееУникальный идентификатор : 229901161290979608684899863138661798930 (0xACF55A63515CED6EB4A11C4784979412)Полное имя : D:\торреннты\hns-sf.mkvФормат : MatroskaВерсия формата : Version 1Размер файла : 8,54 ГбайтПродолжительность : 1 ч. 51 м.Общий поток : 11,0 Мбит/секНазвание фильма : -=HANSMER=-Дата кодирования : UTC 2008-04-22 00:28:04Программа кодирования : mkvmerge v2.2.0 ('Turn It On Again') built on Mar 4 2008 13:20:25Библиотека кодирования : libebml v0.7.7 + libmatroska v0.8.1

ВидеоИдентификатор : 1Формат : AVCФормат/Информация : Advanced Video CodecПрофиль формата : [email protected]Параметр CABAC формата : ДаПараметр ReFrames формата : 5 кадровИдентификатор кодека : V_MPEG4/ISO/AVCПродолжительность : 1 ч. 51 м.Битрейт : 8703 Кбит/секШирина : 1920 пикселейВысота : 800 пикселейСоотношение сторон : 2,40:1Режим частоты кадров : ПостоянныйЧастота кадров : 23,976 кадра/секЦветовое пространство : YUVСубдискретизация насыщенности : 4:2:0Битовая глубина : 8 битТип развёртки : ПрогрессивнаяБит/(Пиксели*Кадры) : 0.236Размер потока : 6,60 Гбайт (77%)Заголовок : Seraphim.Falls.2006.LiMiTED.1080p.BluRay.x264-HD1080Библиотека кодирования : x264 core 59 r819M 0414d78Настройки программы : cabac=1 / ref=5 / deblock=1:0:0 / analyse=0x3:0x113 / me=umh / subme=7 / me-prepass=0 / brdo=1 / mixed_ref=1 / me_range=16 / chroma_me=1 / trellis=1 / 8x8dct=1 / cqm=0 / deadzone=21,11 / chroma_qp_offset=0 / threads=6 / nr=0 / decimate=1 / mbaff=0 / bframes=3 / b_pyramid=1 / b_adapt=1 / b_bias=0 / direct=1 / wpredb=1 / bime=1 / keyint=250 / keyint_min=25 / scenecut=40(pre) / rc=2pass / bitrate=8703 / ratetol=1.0 / rceq='blurCplx^(1-qComp)' / qcomp=1.00 / qpmin=10 / qpmax=51 / qpstep=4 / cplxblur=20.0 / qblur=0.5 / ip_ratio=1.40 / pb_ratio=1.30 / aq=2:1.00Язык : EnglishDefault : ДаForced : Нет

Аудио #1Идентификатор : 2Формат : DTSФормат/Информация : Digital Theater SystemsРежим : 16Параметр Endianness формата : BigИдентификатор кодека : A_DTSПродолжительность : 1 ч. 51 м.Вид битрейта : ПостоянныйБитрейт : 755 Кбит/секКаналы : 6 каналовРасположение каналов : Front: L C R, Side: L R, LFEЧастота : 48,0 КГцЧастота кадров : 93,750 кадра/сек (512 spf)Битовая глубина : 24 битМетод сжатия : С потерямиРазмер потока : 601 Мбайт (7%)Язык : RussianDefault : ДаForced : Нет

Аудио #2Идентификатор : 3Формат : DTSФормат/Информация : Digital Theater SystemsРежим : 16Параметр Endianness формата : BigИдентификатор кодека : A_DTSПродолжительность : 1 ч. 51 м.Вид битрейта : ПостоянныйБитрейт : 1509 Кбит/секКаналы : 6 каналовРасположение каналов : Front: L C R, Side: L R, LFEЧастота : 48,0 КГцЧастота кадров : 93,750 кадра/сек (512 spf)Битовая глубина : 24 битМетод сжатия : С потерямиРазмер потока : 1,17 Гбайт (14%)Язык : EnglishDefault : НетForced : Нет

piratbit.ru

/ Seraphim Falls (2006) BDRip 720p

: , , , , , , , . ', ,

: , . , , - . , , - . ,

: BDRip 720p : Blu-ray: MKV : MPEG-4 AVC : AC3: 1280x534 (2.40:1) at 23.976 fps, AVC at 3165 kbps avg, 0.193 bit/pixel: 48 kHz, AC3 Dolby Digital, 3/2 (L,C,R,l,r) + LFE ch, 448 kbps avg | RUS | , : 48 kHz, AC3 Dolby Digital, 3/2 (L,C,R,l,r) + LFE ch, 448 kbps avg | ENG | original: ,

* * * MediaInfo Mac 0.7.33.4 file analysis report.* * * MediaInfo Mac is 2010 by Diego Massanti - http://mediainfo.massanti.com* * * MediaInfoLib by Jerome Martinez - http://mediainfo.sourceforge.netCreated on: 30.12.2014 13:25:24 Report for file: Seraphim Falls.2006.720p.LEONARDO_[scarabey.org].mkv

General / Container Stream #1Total Video Streams for this File.................1Total Audio Streams for this File.................2Total Subtitle Streams for this File..............2Video Codecs Used.................................AVCAudio Codecs Used.................................AC3 / AC3SubTitle Codecs Used..............................UTF-8 / UTF-8Available Sutbitle Languages......................Russian /File Format.......................................MatroskaPlay Time.........................................1h 51mnTotal File Size...................................3.24 GiBTotal Stream BitRate..............................4 144 KbpsTitle (Tag).......................................-=Leonardo 59=-Encoded with......................................mkvmerge v5.0.1 ('Es ist Sommer') built on Oct 23 2011 00:46:40Encoding Library..................................libebml v1.2.2 + libmatroska v1.3.0Video Stream #1Codec (Human Name)................................AVCCodec (FourCC)....................................V_MPEG4/ISO/AVCCodec [email protected]Frame Width.......................................1 280 pixelsFrame Height......................................534 pixelsFrame Rate........................................23.976 fpsTotal Frames......................................160919Display Aspect Ratio..............................2.40:1Scan Type.........................................ProgressiveColor Space.......................................YUVCodec Settings (Summary)..........................CABAC / 11 Ref FramesQF (like Gordian Knot)............................0.193Codec Settings (CABAC)............................YesCodec Settings (Reference Frames).................11Video Stream Length...............................1h 51mn 51s 670msVideo Stream BitRate..............................3 165 KbpsBit Depth.........................................8 bitsVideo Stream Size.................................2.47 GiB (76%)Video Encoder.....................................x264 - core 125 r2208 d9d2288Video Encoder (Settings)..........................cabac=1 / ref=11 / deblock=1:-3:-3 / analyse=0x3:0x133 / me=umh / subme=11 / psy=1 / psy_rd=1.00:0.00 / mixed_ref=1 / me_range=32 / chroma_me=1 / trellis=2 / 8x8dct=1 / cqm=0 / deadzone=21,11 / fast_pskip=0 / chroma_qp_offset=-2 / threads=12 / lookahead_threads=2 / sliced_threads=0 / nr=0 / decimate=1 / interlaced=0 / bluray_compat=0 / constrained_intra=0 / bframes=16 / b_pyramid=2 / b_adapt=2 / b_bias=0 / direct=1 / weightb=1 / open_gop=0 / weightp=2 / keyint=250 / keyint_min=23 / scenecut=40 / intra_refresh=0 / rc=crf / mbtree=0 / crf=17.8 / qcomp=0.60 / qpmin=0 / qpmax=69 / qpstep=4 / ip_ratio=1.40 / pb_ratio=1.30 / aq=1:1.00Audio Stream #1Codec.............................................AC-3Codec (FourCC)....................................A_AC3Audio Stream Length...............................1h 51mn 51s 680msAudio Stream BitRate..............................448 KbpsAudio Stream BitRate Mode.........................CBRNumber of Audio Channels..........................6Audio Channel's Positions.........................Front: L C R, Side: L R, LFESampling Rate.....................................48.0 KHzAudio Stream Size.................................358 MiB (11%)Audio Stream Language.............................RussianAudio Stream #2Codec.............................................AC-3Codec (FourCC)....................................A_AC3Audio Stream Length...............................1h 51mn 51s 680msAudio Stream BitRate..............................448 KbpsAudio Stream BitRate Mode.........................CBRNumber of Audio Channels..........................6Audio Channel's Positions.........................Front: L C R, Side: L R, LFESampling Rate.....................................48.0 KHzAudio Stream Size.................................358 MiB (11%)Subtitle Stream #1Language..........................................RussianFormat............................................UTF-8Codec ID..........................................S_TEXT/UTF8Codec Info........................................UTF-8 Plain TextSubtitle Stream #2Format............................................UTF-8Codec ID..........................................S_TEXT/UTF8Codec Info........................................UTF-8 Plain Text

filmtor.net

Скачать фильм Водопад Ангела через торрент в хорошем качестве бесплатно BDRip-AVC

Размер: 2.89 GB | Добавлен: 5 лет 11 мес. назад | Торрент скачан:37 раз
Реклама Дарим 3000 рублей за регистрацию, не упусти свой шанс получить шикарный бонус!!!

14-11-2011 11:32 Водопад Ангела Скачать торрент  

Водопад Ангела / Seraphim Falls Год выпуска: 2006Страна: СШАЖанр: драма, триллер, вестерн, военныйПродолжительность: 1:51:51Перевод: Профессиональный (многоголосый, закадровый)Тип релиза: Пиратка

Режиссер: Дэвид Фон Энкен / David Von AnckenПродюссер: Брюс Дэвей, Дэвид Флинн, Джон ЛимоттеСценарий: Дэвид Фон Энкен, Эбби Эверетт Жакс

Бюджет: $18 000 000Премьера в мире: 13 сентября 2006

В ролях: Пирс Броснан /Pierce Brosnan/, Лайам Нисон /Liam Neeson/, Роберт Бэйкер /Robert Baker/, Энджи Хэрмон /Angie Harmon/, Анжелика Хьюстон /Anjelica Huston/, Джеймс Джордан /James Jordan

Описание: 1868 год, Невада. Гражданская война закончена, но не для всех. Небольшой отряд наемных стрелков, возглавляемый бывшим полковником армии Конфедератов Карвером, преследует экс-капитана армии Северян Гидеона. Погоня длится не один день, Гидеон ранен и обессилен, но по-прежнему опережает своих врагов. Что пробудило столь сильную ненависть Карвера, остается загадкой…

Качество: BDRip-AVCФормат: MKVВидео кодек: x264Аудио кодек: AAC (Nero AAC codec 1.5.4.0)Видео: AVC, 1248x520, 3092 Kbps, 23.976 fps, 0.195 bppАудио: Russian, AAC-LC, 5.1 ch, ~301 kbps, 48 khz, -q 0.41 (многоголосый, СР-Digital)Аудио: English, AAC-LC, 5.1 ch, ~299 kbps, 48 khz, -q 0.37 (dts-hd -> aac)

Скачать Водопад Ангела через торрент http://s58.radikal.ru/i161/0811/64/2a22851ca54b.jpg Скачать фильм Водопад Ангела через торрент бесплантно в хорошем качестве Описание: 1868 год, Невада. Гражданская война закончена, но не для всех. Небольшой отряд наемных стрелков, возглавляемый бывшим полковником ... 2011-11-14 11:32 10 10 2

Loading...

Loading...

Рекламный пират

14-11-2011 12:36 Водопад Ангела Скачать торрент  

Может, уже смотрел кто? Что-то рейтинг маловат.... Хотя актёры хорошие.

14-11-2011 15:43 Водопад Ангела Скачать торрент  

Нормальный фильм

Дорогой пользователь! Огромная просьба, поблагодарите релизера, оцените раздачу и оставьте свои комментарий, если Вы скачали Водопад Ангела через торрент бесплатно! Внесите свою лепту в развитие PiratBit!

Комментировать посты могут только пользователи прошедшие не сложную регистрацию

Водопад Ангела через торрент Скачать бесплатно Водопад Ангела Водопад Ангела скачать торрент Водопад Ангела смотреть онлайн Cкачать фильм Водопад Ангела бесплатно Водопад Ангела скачать торрент в хорошем качестве Водопад Ангела смотреть онлайн бесплатно в хорошем качестве

Вы не можете начинать темыВы не можете отвечать на сообщенияВы не можете редактировать свои сообщенияВы не можете удалять свои сообщенияВы не можете голосовать в опросахВы не можете прикреплять файлы к сообщениямВы можете скачивать файлы

piratbit.ru


Смотрите также