Фильм защитник скачать через торрент в хорошем качестве


Скачать фильм Защитник (2012) через торрент

22 января 2016 12:48 Защитник / Safe (2012) BDRip от HQCLUB | Лицензия | NOR-transfer .torrent   [Информация о файле (нажмите для просмотра)] Перевод: Профессиональный (полное дублирование) +Оригинальная звуковая дорожкаСубтитры: Русские Voronine (полные, SDH), Английские (полные, SDH) (внешние .srt)Формат: AVIКачество: BDRip (источник: arxivariys /BD-Remux / 1080р)Видео: 720x304 (2.37:1), 24 fps, XviD build 65 ~1756 kbps avg, 0.33 bit/pixelАудио #1: 48 kHz, AC3 Dolby Digital, 3/2 (L,C,R,l,r) + LFE ch, ~448.00 kbps avgАудио #2: 48 kHz, AC3 Dolby Digital, 3/2 (L,C,R,l,r) + LFE ch, ~448.00 kbps avg(отдельно, http)Аудио #3: 48 kHz, AC3 Dolby Digital, 3/2 (L,C,R,l,r) + LFE ch, ~448.00 kbps avg(отдельно, http) 1,45 Gb 34 2 22 января 2016 12:48 Защитник / Safe (2012) BDRip | Гаврилов | US-transfer .torrent   [Информация о файле (нажмите для просмотра)] Перевод: Авторский (одноголосый закадровый) Гаврилов Андрей ЮрьевичВидео: XviD build 65, 720x304 (2.37:1), 23.976 fps, 1750 kbps avg, 0.333 bit/pixelАудио: 48 kHz, AC3 Dolby Digital, 3/2 (L,C,R,l,r) + LFE ch, 448 kbps avg (Rus AVO) 1,46 Gb 10 2 22 января 2016 12:48 Защитник / Safe (2012) BDRip 720p от leonardo 59 | Лицензия .torrent   [Информация о файле (нажмите для просмотра)] Перевод: Профессиональный (полное дублирование) | ЛицензияФормат: MKVВидео кодек: MPEG-4 AVC Аудио кодек: AC3Видео: AVC, 1280x544 (2.35:1) at 24.000 fps, AVC at 6250 kbps avg, 0.374 bit/pixelАудио: AC3, 6ch 448 kbps 4,49 Gb 37 8 22 января 2016 12:48 Защитник / Safe (2012) BDRip 1080p от Hatfield.. | US-transfer .torrent   [Информация о файле (нажмите для просмотра)] Перевод: ДублированныйКодек: x264Качество: BDRip (Оригинал: Blu-ray Disc)Видео: 1920x816 (2,35:1), 24 fps, 8 104 kbpsЗвук: AC-3, 6 ch, 640 kbps 5,74 Gb 29 2 22 января 2016 12:48 Защитник / Safe (2012) BDRip 1080p .torrent   [Информация о файле (нажмите для просмотра)] Перевод: Дублированный [лицензия]Кодек: x264Качество: BDRip (источник: Blu-ray Disc)Видео: 1920x816 (2,35:1), 24 fps, 6198 kbpsЗвук: AC-3, 6 ch, 448 kbpsВидео: Идентификатор : 1 Формат : AVC Формат/Информация : Advanced Video Codec Профиль формата : [email protected] Параметр CABAC формата : Да Параметр ReFrames формата : 5 кадров Идентификатор кодека : V_MPEG4/ISO/AVC Продолжительность : 1 ч. 34 м. Битрейт : 6198 Кбит/сек Ширина : 1920 пикселей Высота : 816 пикселей Соотношение сторон : 2,35:1 Частота кадров : 24,000 кадра/сек Цветовое пространство : YUV Субдискретизация насыщенности : 4:2:0 Битовая глубина : 8 бит Тип развёртки : Прогрессивная Бит/(Пиксели*Кадры) : 0.165 Размер потока : 3,99 Гбайт (91%) Заголовок : Release by AlexKa Библиотека кодирования : x264 core 125 r2200 999b753 Настройки программы : cabac=1 / ref=5 / deblock=1:0:0 / analyse=0x3:0x133 / me=umh / subme=10 / psy=1 / psy_rd=1.00:0.00 / mixed_ref=1 / me_range=32 / chroma_me=1 / trellis=2 / 8x8dct=1 / cqm=0 / deadzone=21,11 / fast_pskip=0 / chroma_qp_offset=-2 / threads=12 / lookahead_threads=2 / sliced_threads=0 / nr=0 / decimate=0 / interlaced=0 / bluray_compat=0 / constrained_intra=0 / bframes=5 / b_pyramid=2 / b_adapt=2 / b_bias=0 / direct=3 / weightb=1 / open_gop=0 / weightp=2 / keyint=240 / keyint_min=24 / scenecut=40 / intra_refresh=0 / rc_lookahead=60 / rc=2pass / mbtree=1 / bitrate=6198 / ratetol=1.0 / qcomp=0.60 / qpmin=0 / qpmax=69 / qpstep=4 / cplxblur=20.0 / qblur=0.5 / ip_ratio=1.40 / aq=1:1.00 Язык : EnglishАудио: Идентификатор : 2 Формат : AC-3 Формат/Информация : Audio Coding 3 Расширение режима : CM (complete main) Идентификатор кодека : A_AC3 Продолжительность : 1 ч. 34 м. Вид битрейта : Постоянный Битрейт : 448 Кбит/сек Каналы : 6 каналов Расположение каналов : Front: L C R, Side: L R, LFE Частота : 48,0 КГц Битовая глубина : 16 бит Метод сжатия : С потерями Размер потока : 302 Мбайт (7%) Язык : Russian 4,37 Gb 47 5 22 января 2016 12:48 Защитник / Safe (2012) BDRip от Scarabey | Лицензия .torrent   [Информация о файле (нажмите для просмотра)] Перевод: Профессиональный (дублированный)Видео: 720x304 (2.37:1), 24.000 fps, XviD build 50 ~1747 kbps avg, 0.33 bit/pixelАудио: 48 kHz, AC3 Dolby Digital, 3/2 (L,C,R,l,r) + LFE ch, ~448.00 kbps avg 1,45 Gb 233 19 22 января 2016 12:48 Защитник / Safe (2012) BDRip от Scarabey | Лицензия .torrent   [Информация о файле (нажмите для просмотра)] Перевод: Профессиональный (дублированный)Видео: 640x272 (2.35:1), 24.000 fps, XviD build 50 ~970 kbps avg, 0.23 bit/pixelАудио: 48 kHz, MPEG Layer 3, 2 ch, ~128.00 kbps avg 745,89 Mb 10 2 22 января 2016 12:48 Защитник / Safe (2012) BDRip 1080p от marcury | US-transfer | D, A .torrent   [Информация о файле (нажмите для просмотра)] Перевод: Дублированный / Аторский одноголосый (Гаврилов)Кодек: MPEG-4 AVC (x264)Качество: BDRip (1080p)Видео: 18.0 Мбит/с, 1920х820, 23.976 кадр/сЗвук: Русский (DTS, 6 ch, 1510 Кбит/с) - ДБ, АО (Гаврилов), английский (DTS, 6 ch, 1510 Кбит/с)Субтитры: Английские 14,88 Gb 5 3 22 января 2016 12:48 Защитник / Safe (2012) BDRip 1080p от Neofilm | Лицензия | US-transfer .torrent   13,56 Gb 4 2 22 января 2016 12:48 Защитник / Safe (2012) BDRip 1080p от HQ-ViDEO | Лицензия | US-transfer .torrent   [Информация о файле (нажмите для просмотра)] Перевод: Профессиональный дублированный (Лицензия) + Оригинальная дорожка (Английская)Субтитры: Русские, Английские |.srt|Видео: x.264 / 1920 x 816 / 2.35:1 / 18000 kbps / 23,976 fpsАудио 1: Русский / AC3 Dolby Digital / 48 KHz / 640 kbps / 3/2 (L,C,R,l,r) + LFE chАудио 2: Английский / AC3 Dolby Digital / 48 KHz / 640 kbps / 3/2 (L,C,R,l,r) + LFE ch 12,73 Gb 5 3 22 января 2016 12:48 Защитник / Safe (2012) BDRip 720p от HQ-ViDEO | Лицензия | US-transfer .torrent   [Информация о файле (нажмите для просмотра)] Перевод: Профессиональный дублированный (Лицензия) + Оригинальная дорожка (Английская)Субтитры: Русские, Английские |.srt|Видео: x.264 / 1280 x 544 / 2.35:1 / ~7372 kbps / 23,976 fpsАудио 1: Русский / AC3 Dolby Digital / 48 KHz / 640 kbps / 3/2 (L,C,R,l,r) + LFE chАудио 2: Английский / AC3 Dolby Digital / 48 KHz / 640 kbps / 3/2 (L,C,R,l,r) + LFE ch 5,72 Gb 6 5 22 января 2016 12:48 Защитник / Safe (2012) BDRip от HQ-ViDEO | Лицензия | US-transfer .torrent   [Информация о файле (нажмите для просмотра)] Перевод: Профессиональный дублированный (Лицензия) + Оригинальная дорожка (Английская/Отдельно)Субтитры: Русские, Английские |.srt|Видео: XviD / 720 x 304 / 2.37:1 / 1744 kbps / 23,976 fpsАудио 1: Русский / AC3 Dolby Digital / 48 KHz / 448 kbps / 3/2 (L,C,R,l,r) + LFE chАудио 2: Английский / AC3 Dolby Digital / 48 KHz / 448 kbps / 3/2 (L,C,R,l,r) + LFE ch| narod.ru 1,45 Gb 112 20 22 января 2016 12:48 Защитник / Safe (2012) HDRip-AVC .torrent   [Информация о файле (нажмите для просмотра)] Перевод: Дублированный + Оригинал (английский)Формат: MKVКачество: HDRip-AVC (BDRip 1080p)Видео: H.264/AVC, 800x340, 24,000 fps, 1992 kbps, 0.305 bit/pixelАудио #1: Русский, AAC-HE, 2 chnls, 120 kbps |DUBАудио #2: Английский, AAC-HE, 2 chnls, 120 kbps |Original, Line 1,37 Gb 8 1 22 января 2016 12:48 Защитник / Safe (2012) BDRemux .torrent   [Информация о файле (нажмите для просмотра)] Перевод: Профессиональный (дублированный)Кодек: h.264 AVCКачество: BDRemuxВидео: 1920*1080 (16:9), ~ 18,9 Мбит/сек, 24,000 кадра/секЗвук: AC-3, 640 Кбит/сек, 6 каналов 13,09 Gb 6 2 22 января 2016 12:48 Защитник / Safe (2012) BDRip-AVC от R.G. AVI | AVC | Лицензия .torrent   [Информация о файле (нажмите для просмотра)] Перевод: Профессиональный (полное дублирование)Качество: BDRip-AVC [BDRemux]Формат: MKVВидео: H.264, 1088x464 (2,35:1), 24,000 кадр/сек, 2676 Кбит/сек, 0.221 bit/pixelАудио: 48 kHz, AC3 Dolby Digital, 3/2 (L,C,R,l,r) + LFE ch, ~640.00 kbps avg 2,18 Gb 12 6 22 января 2016 12:48 Защитник / Safe (2012) BDRip 1080p | Лицензия .torrent   [Информация о файле (нажмите для просмотра)] Качество: BDRip 1080pВидео: MPEG-4 AVC, 11.0 Mбит/с, 1920х816, 24.000 кадр/сАудио: Русский (DTS, 6 ch, 1510 Кбит/с) 7,79 Gb 10 3 22 января 2016 12:48 Защитник / Safe (2012) BDRip 720p .torrent   [Информация о файле (нажмите для просмотра)] Перевод: Дублированный [лицензия]Кодек: H 264Качество: BDRip 720pВидео: 5138 kb/s, 1280x544Звук: Русский: DTS, 1510 kb/s, (6 ch) 4,37 Gb 2 5 22 января 2016 12:48 Защитник / Safe (2012) Blu-Ray .torrent   [Информация о файле (нажмите для просмотра)] Формат: m2tsКачество: Blu-RayВидео: MPEG-4 AVC, 19260 Кбит/с, 1920х1080, 24.000 кадр/сАудио: Русский (DTS-HD MA, 6 ch, 3887 Кбит/с) 18 Gb 4 2 22 января 2016 12:48 Защитник / Safe (2012) DVDRip | КПК | D .torrent   [Информация о файле (нажмите для просмотра)] Перевод: Профессиональный (дублированный) |ЛицензияКодек: MPEG4Качество: DVDRipВидео: 640x272, 25 fps, 698 kbpsАудио: AAC, 2 ch, 96 kbpsСубтитры: Недоступны 514,99 Mb 9 3 22 января 2016 12:48 Защитник / Safe (2012) DVDRip-AVC [Hi10P] от FREEISLAND .torrent   [Информация о файле (нажмите для просмотра)] Перевод: Дублированный [лицензия]Качество: DVDRip-AVC Hi10P (SSIM: 0.9806806)Контейнер: MKVВидео: AVC at 980 Кбит/сек, 720 x [email protected] 1024 x 436 (2.349) at 25.000 fpsАудио: AC-3 at 192 Кбит/сек, 2 каналов, 48,0 КГцСубтитры: нетВидео: Идентификатор : 1 Формат : AVC Формат/Информация : Advanced Video Codec Профиль формата : High [email protected] Параметр CABAC формата : Да Параметр ReFrames формата : 16 кадров Идентификатор кодека : V_MPEG4/ISO/AVC Продолжительность : 1 ч. 23 м. Битрейт : 980 Кбит/сек Ширина : 720 пикселей Высота : 436 пикселей Соотношение сторон : 2,35:1 Частота кадров : 25,000 кадров/сек Цветовое пространство : YUV Субдискретизация насыщенности : 4:2:0 Битовая глубина : 10 бит Тип развёртки : Прогрессивная Бит/(Пиксели*Кадры) : 0.125 Размер потока : 570 Мбайт (82%) Библиотека кодирования : x264 core 125 r2200+666+30 20c70fc tMod [[email protected] X86_64] Настройки программы : cabac=1 / ref=16 / deblock=1:-1:-1 / analyse=0x3:0x133 / me=umh / subme=11 / psy=1 / fade_compensate=0.00 / psy_rd=1.00:0.10 / mixed_ref=1 / me_range=64 / chroma_me=1 / trellis=2 / 8x8dct=1 / cqm=0 / deadzone=21,11 / fast_pskip=0 / chroma_qp_offset=-3 / threads=12 / lookahead_threads=2 / sliced_threads=0 / nr=0 / decimate=1 / interlaced=0 / bluray_compat=0 / constrained_intra=0 / fgo=0 / bframes=12 / b_pyramid=2 / b_adapt=2 / b_bias=0 / direct=3 / weightb=1 / open_gop=0 / weightp=2 / keyint=250 / keyint_min=25 / scenecut=40 / intra_refresh=0 / rc_lookahead=40 / rc=2pass / mbtree=0 / bitrate=980 / ratetol=1.0 / qcomp=1.00 / qpmin=0 / qpmax=48 / qpstep=4 / cplxblur=20.0 / qblur=0.5 / vbv_maxrate=50000 / vbv_bufsize=62500 / nal_hrd=none / ip_ratio=1.40 / pb_ratio=1.30 / aq=3:1.00 Default : Да Forced : Нет Основные цвета : BT.601-6 525, BT.1358 525, BT.1700 NTSC, SMPTE 170M Характеристики трансфера : BT.601-6 525, BT.601-6 625, BT.1358 525, BT.1358 625, BT.1700 NTSC, SMPTE 170M Коэффициенты матрицы : BT.601-6 525, BT.1358 525, BT.1700 NTSC, SMPTE 170MАудио: Идентификатор : 2 Формат : AC-3 Формат/Информация : Audio Coding 3 Расширение режима : CM (complete main) Идентификатор кодека : A_AC3 Продолжительность : 1 ч. 23 м. Вид битрейта : Постоянный Битрейт : 192 Кбит/сек Каналы : 2 канала Расположение каналов : Front: L R Частота : 48,0 КГц Битовая глубина : 16 бит Метод сжатия : С потерями Размер потока : 114 Мбайт (16%) Заголовок : DUB Язык : Russian Default : Да Forced : Нет 698,44 Mb 8 4 22 января 2016 12:48 Защитник / Safe (2012) DVDRip | КПК от [email protected] | Лицензия .torrent   [Информация о файле (нажмите для просмотра)] Качество: DVDRip | КПКВидео: кодеккодек: x264,формат: mp4,размер кадра: 480x272, битрейт: 350 кб/сАудио: языкрусский, перевод: дублированный (дубляж) [лицензия], 292,14 Mb 4 5 22 января 2016 12:48 Защитник / Safe (2012) DVD5 .torrent   [Информация о файле (нажмите для просмотра)] Перевод: Профессиональный (полное дублирование)Качество: DVD5 (сжатый)Формат: DVD VideoВидео: MPEG2; PAL 16:9 (720x576)Аудио: Dolby AC3, 6 ch, 448 KbpsRussianСубтитры: нетВидео: Идентификатор : 224 (0xE0) Формат : MPEG Video Версия формата : Version 2 Профиль формата : [email protected] Параметр BVOP формата : Да Параметр матрицы формата : Выборочная Продолжительность : 19 м. Вид битрейта : Переменный Битрейт : 6745 Кбит/сек Максимальный битрейт : 8305 Кбит/сек Ширина : 720 пикселей Высота : 576 пикселей Соотношение сторон : 16:9 Частота кадров : 25,000 кадров/сек Стандарт вещания : PAL Цветовое пространство : YUV Субдискретизация насыщенности : 4:2:0 Битовая глубина : 8 бит Тип развёртки : Прогрессивная Порядок развёртки : Нижнее поле первое Метод сжатия : С потерями Бит/(Пиксели*Кадры) : 0.651 Размер потока : 941 Мбайт (92%)Аудио: Идентификатор : 189 (0xBD)-128 (0x80) Формат : AC-3 Формат/Информация : Audio Coding 3 Расширение режима : CM (complete main) Режим смешивания : DVD-Video Продолжительность : 19 м. Вид битрейта : Постоянный Битрейт : 448 Кбит/сек Каналы : 6 каналов Расположение каналов : Front: L C R, Side: L R, LFE Частота : 48,0 КГц Битовая глубина : 16 бит Метод сжатия : С потерями Размер потока : 62,5 Мбайт (6%) 4,35 Gb 2 4 22 января 2016 12:48 Защитник / Safe (2012) DVDRip-AVC от Vaippp | Лицензия .torrent   [Информация о файле (нажмите для просмотра)] Перевод: Профессиональный дублированный (Лицензия)Субтитры: НетВидео: x.264 / 720 x 436 @ 1024 x 436 / 2.35:1 / 1857 kbps / 25 fpsАудио: Русский / AC3 Dolby Digital / 48 KHz / 448 kbps / 3/2 (L,C,R,l,r) + LFE ch 1,46 Gb 12 6 22 января 2016 12:48 Защитник / Safe (2012) DVD9 | Лицензия .torrent   [Информация о файле (нажмите для просмотра)] Формат: DVD-VideoКачество: DVD9Видео: PAL 16:9 (720x576) VBR, 7448 KbpsАудио: Русский (Dolby AC3, 6 ch), (DTS, 5 ch), 448 Kbps 6,15 Gb 2 3

gig-torrent.net

Скачать фильм Защитник через торрент в хорошем качестве бесплатно 1080p

Общее

Уникальный идентификатор : 214684509874315741524171488551103122743 (0xA182BB8CBDFB03738CBA6E942C5C4D37)

Полное имя : E:VideoConcussion..2015..BDREMUX.1080p (S).mkv

Формат : Matroska

Версия формата : Version 4 / Version 2

Размер файла : 23,6 Гбайт

Продолжительность : 2 ч. 2 м.

Режим общего битрейта : Переменный

Общий поток : 27,5 Мбит/сек

Название фильма : Concussion..2015..BDREMUX.1080p (S)

Дата кодирования : UTC 2016-03-28 22:55:58

Программа кодирования : mkvmerge v8.3.0 ('Over the Horizon') 64bit

Библиотека кодирования : libebml v1.3.1 + libmatroska v1.4.2

Обложка : Yes

Attachments : cover_land.jpg / small_cover.jpg / small_cover_land.jpg / cover.jpg

Видео

Идентификатор : 1

Формат : AVC

Формат/Информация : Advanced Video Codec

Профиль формата : [email protected]

Параметр CABAC формата : Да

Параметр ReFrames формата : 2 кадра

Параметр GOP формата : M=1, N=10

Идентификатор кодека : V_MPEG4/ISO/AVC

Продолжительность : 2 ч. 2 м.

Вид битрейта : Переменный

Битрейт : 24,9 Мбит/сек

Ширина : 1920 пикселей

Высота : 1080 пикселей

Соотношение сторон : 16:9

Режим частоты кадров : Постоянный

Частота кадров : 23,976 (24000/1001) кадра/сек

Цветовое пространство : YUV

Субдискретизация насыщенности : 4:2:0

Битовая глубина : 8 бит

Тип развёртки : Прогрессивная

Бит/(Пиксели*Кадры) : 0.501

Размер потока : 21,4 Гбайт (91%)

Язык : English

Default : Нет

Forced : Нет

Аудио #1

Идентификатор : 2

Формат : AC-3

Формат/Информация : Audio Coding 3

Расширение режима : CM (complete main)

Параметр Endianness формата : Big

Идентификатор кодека : A_AC3

Продолжительность : 2 ч. 2 м.

Вид битрейта : Постоянный

Битрейт : 384 Кбит/сек

Каналы : 6 каналов

Расположение каналов : Front: L C R, Side: L R, LFE

Частота : 48,0 КГц

Частота кадров : 31,250 кадров/сек (1536 spf)

Метод сжатия : С потерями

Задержка видео : 992 мс.

Размер потока : 337 Мбайт (1%)

Заголовок : DUB [iTunes]

Язык : Russian

Default : Да

Forced : Нет

Аудио #2

Идентификатор : 3

Формат : DTS

Формат/Информация : Digital Theater Systems

Профиль формата : MA / Core

Режим : 16

Параметр Endianness формата : Big

Идентификатор кодека : A_DTS

Продолжительность : 2 ч. 2 м.

Вид битрейта : Переменный / Постоянный

Битрейт : 2140 Кбит/сек / 1509 Кбит/сек

Каналы : 6 каналов

Расположение каналов : Front: L C R, Side: L R, LFE

Частота : 48,0 КГц

Частота кадров : 93,750 кадра/сек (512 spf)

Битовая глубина : 16 бит

Метод сжатия : Без потерь / Lossy

Размер потока : 1,84 Гбайт (8%)

Заголовок : Original

Язык : English

Default : Нет

Forced : Нет

Текст #1

Идентификатор : 4

Формат : PGS

Режим смешивания : zlib

Идентификатор кодека : S_HDMV/PGS

Идентификатор кодека/Информация : Picture based subtitle format used on BDs/HD-DVDs

Продолжительность : 2 ч. 0 м.

Битрейт : 12,1 Кбит/сек

Count of elements : 3192

Размер потока : 10,4 Мбайт (0%)

Заголовок : English-PGS

Язык : English

Default : Нет

Forced : Нет

Текст #2

Идентификатор : 5

Формат : PGS

Режим смешивания : zlib

Идентификатор кодека : S_HDMV/PGS

Идентификатор кодека/Информация : Picture based subtitle format used on BDs/HD-DVDs

Продолжительность : 1 ч. 57 м.

Битрейт : 10,3 Кбит/сек

Count of elements : 2662

Размер потока : 8,64 Мбайт (0%)

Заголовок : English-PGS

Язык : English

Default : Нет

Forced : Нет

Текст #3

Идентификатор : 6

Формат : PGS

Режим смешивания : zlib

Идентификатор кодека : S_HDMV/PGS

Идентификатор кодека/Информация : Picture based subtitle format used on BDs/HD-DVDs

Продолжительность : 2 ч. 0 м.

Битрейт : 18,2 Кбит/сек

Count of elements : 4123

Размер потока : 15,7 Мбайт (0%)

Заголовок : English-COMMENTARY-PGS

Язык : English

Default : Нет

Forced : Нет

Текст #4

Идентификатор : 7

Формат : VobSub

Режим смешивания : zlib

Идентификатор кодека : S_VOBSUB

Идентификатор кодека/Информация : Picture based subtitle format used on DVDs

Продолжительность : 2 ч. 0 м.

Битрейт : 9797 бит/сек

Count of elements : 2061

Размер потока : 8,45 Мбайт (0%)

Язык : English

Default : Нет

Forced : Нет

Текст #5

Идентификатор : 8

Формат : VobSub

Режим смешивания : zlib

Идентификатор кодека : S_VOBSUB

Идентификатор кодека/Информация : Picture based subtitle format used on DVDs

Продолжительность : 2 ч. 0 м.

Битрейт : 5984 бит/сек

Count of elements : 1594

Размер потока : 5,16 Мбайт (0%)

Язык : English

Default : Нет

Forced : Нет

Текст #6

Идентификатор : 9

Формат : VobSub

Режим смешивания : zlib

Идентификатор кодека : S_VOBSUB

Идентификатор кодека/Информация : Picture based subtitle format used on DVDs

Продолжительность : 1 ч. 57 м.

Битрейт : 5181 бит/сек

Count of elements : 1328

Размер потока : 4,34 Мбайт (0%)

Язык : English

Default : Нет

Forced : Нет

Текст #7

Идентификатор : 10

Формат : UTF-8

Идентификатор кодека : S_TEXT/UTF8

Идентификатор кодека/Информация : UTF-8 Plain Text

Продолжительность : 1 ч. 57 м.

Битрейт : 56 бит/сек

Count of elements : 1466

Размер потока : 48,8 Кбайт (0%)

Заголовок : Original

Язык : English

Default : Нет

Forced : Нет

Меню

00:00:00.000 : en:Chapter 1

00:07:26.696 : en:Chapter 2

00:14:41.631 : en:Chapter 3

00:21:48.098 : en:Chapter 4

00:29:36.566 : en:Chapter 5

00:37:42.927 : en:Chapter 6

00:43:44.539 : en:Chapter 7

00:51:30.713 : en:Chapter 8

00:59:35.447 : en:Chapter 9

01:06:58.264 : en:Chapter 10

01:13:07.508 : en:Chapter 11

01:22:18.308 : en:Chapter 12

01:30:34.721 : en:Chapter 13

01:38:15.098 : en:Chapter 14

01:46:46.942 : en:Chapter 15

01:53:34.808 : en:Chapter 16

piratbit.ru

Скачать фильм Защитник через торрент в хорошем качестве бесплатно HDRip by _Один_777

Размер: 706 MB | Добавлен: 1 год 6 мес. назад | Торрент скачан:471 раз
Реклама Дарим 3000 рублей за регистрацию, не упусти свой шанс получить шикарный бонус!!!

29-03-2016 07:40 Защитник Скачать торрент  

Защитник / Concussion

Год выпуска: 2015Страна: Великобритания, Австралия, США / Cantillon Company, LStar Capital, Scott Free Productions, Shuman Company, Village Roadshow PicturesЖанр: Драма, биография, спортПродолжительность: 02:02:49Перевод: Профессиональный (Дубляж) iTunesCубтитры: нет

Режиссер: Питер Ландесман / Peter Landesman

В ролях: Уилл Смит, Алек Болдуин, Альберт Брукс, Гугу Эмбата-Ро, Дэвид Морс, Арлисс Ховард, Майк О’Мэлли, Эдди Марсан, Хилл Харпер, Адевале Акиннуойе-Агбадже, Стивен Мойер, Ричард Т. Джонс, Пол Райзер, Люк Уилсон, Сара Линдсей, Мэттью Уиллиг, Битси Таллок, Кевин Джиггеттс, Гэри Граббс, Рэнди Ковиц...

Описание: Америка потрясена чередой неожиданных и необъяснимых смертей знаменитых спортсменов. Разгадать загадку предстоит талантливому молодому нейрохирургу, но, как оказалось, не все готовы услышать жестокую правду…

Сэмпл: http://sendfile.su/1219513

Качество: HDRipФормат: AVIВидео кодек: XviDАудио кодек: MP3Видео: 640x272 (2.35:1), 23.976 fps, XviD build 73 ~634 kbps avg, 0.15 bit/pixelАудио: 48 kHz, MPEG Layer 3, 2 ch, ~160.00 kbps avg

Скачать Защитник через торрент http://s018.radikal.ru/i517/1603/a6/b2b73e3624e1.jpg Скачать фильм Защитник через торрент бесплантно в хорошем качестве Описание: Америка потрясена чередой неожиданных и необъяснимых смертей знаменитых спортсменов. Разгадать загадку предстоит талантливому ... 2016-03-29 07:40 9 10 17

Loading...

Loading...

% Раздел Тема Автор DL S | L
Фильмы 2015 [DVDrip, WEB-DLRip, HDrip] [ 2.16 GB ] Защитник / Concussion [2015 биография BDRip] DUB [] bober100 Скачать
Фильмы 2015 [DVDrip, WEB-DLRip, HDrip] [ 1.46 GB ] Защитник / Concussion [2015 биография BDRip] - [] Twi7ter Скачать
Фильмы 2015 [DVDrip, WEB-DLRip, HDrip] [ 2.18 GB ] Защитник / Concussion [2015 биография BDRip-AVC] potroks Скачать
Фильмы 2015 [DVDrip, WEB-DLRip, HDrip] [ 1.46 GB ] Защитник / Concussion [2015 биография BDRip-AVC] potroks Скачать
Фильмы 2015 [DVDrip, WEB-DLRip, HDrip] [ 746 MB ] Защитник / Concussion [2015 Австралия биография BDRip-AVC от sokol_ok] DUB sokol_ok Скачать
Фильмы 2015 [DVDrip, WEB-DLRip, HDrip] [ 2.18 GB ] Защитник / Concussion [2015 Австралия биография BDRip-AVC от sokol_ok] DUB sokol_ok Скачать
Фильмы (Blu-ray, BD-Remux, HDDVD) [ 36.17 GB ] Защитник / Concussion [2015 биография Blu-Ray CEE] Russian Mafia Скачать

Рекламный пират

29-03-2016 20:43 Защитник Скачать торрент  

Сто раз скачан - ноль эмоций. Видимо хорошее кинцо. Глянем

03-04-2016 10:47 Защитник Скачать торрент  

408 писал(а):

Сто раз скачан - ноль эмоций. Видимо хорошее кинцо. Глянем

вот и сам комментирующий скачал, и тоже ни одной эмоции. придётся смотреть самому и комментировать

Дорогой пользователь! Огромная просьба, поблагодарите релизера, оцените раздачу и оставьте свои комментарий, если Вы скачали Защитник через торрент бесплатно! Внесите свою лепту в развитие PiratBit!

Комментировать посты могут только пользователи прошедшие не сложную регистрацию

Защитник через торрент Скачать бесплатно Защитник Защитник скачать торрент Защитник смотреть онлайн Cкачать фильм Защитник бесплатно Защитник скачать торрент в хорошем качестве Защитник смотреть онлайн бесплатно в хорошем качестве

Вы не можете начинать темыВы не можете отвечать на сообщенияВы не можете редактировать свои сообщенияВы не можете удалять свои сообщенияВы не можете голосовать в опросахВы не можете прикреплять файлы к сообщениямВы можете скачивать файлы

piratbit.ru

Скачать фильм Защитник через торрент в хорошем качестве бесплатно 1080p

ОбщееУникальный идентификатор : 254994788854898011876850842117151241316 (0xBFD635BF67487DE9A918BB24D5CDB464)Полное имя : E:\3aIII,UTHUK.2015.BDRip.1080p.mkvФормат : MatroskaВерсия формата : Version 4 / Version 2Размер файла : 8,93 ГбайтПродолжительность : 2 ч. 2 м.Общий поток : 10,4 Мбит/секНазвание фильма : 3aIII,UTHUK.2015.BDRip.1080pДата кодирования : UTC 2016-03-08 23:50:01Программа кодирования : mkvmerge v8.3.0 ('Over the Horizon') 64bitБиблиотека кодирования : libebml v1.3.1 + libmatroska v1.4.2DURATION : 02:02:49.312000000NUMBER_OF_FRAMES : 230291NUMBER_OF_BYTES : 176863488_STATISTICS_WRITING_APP : mkvmerge v8.3.0 ('Over the Horizon') 64bit_STATISTICS_WRITING_DATE_UTC : 2016-03-08 23:50:01_STATISTICS_TAGS : BPS DURATION NUMBER_OF_FRAMES NUMBER_OF_BYTES

ВидеоИдентификатор : 1Формат : AVCФормат/Информация : Advanced Video CodecПрофиль формата : [email protected]Параметр CABAC формата : ДаПараметр ReFrames формата : 5 кадровИдентификатор кодека : V_MPEG4/ISO/AVCПродолжительность : 2 ч. 2 м.Битрейт : 8684 Кбит/секШирина : 1920 пикселейВысота : 808 пикселейСоотношение сторон : 2,40:1Режим частоты кадров : ПостоянныйЧастота кадров : 23,976 кадра/секЦветовое пространство : YUVСубдискретизация насыщенности : 4:2:0Битовая глубина : 8 битТип развёртки : ПрогрессивнаяБит/(Пиксели*Кадры) : 0.233Размер потока : 7,29 Гбайт (82%)Библиотека кодирования : x264 core 148 r2665 a01e339Настройки программы : cabac=1 / ref=5 / deblock=1:0:0 / analyse=0x3:0x133 / me=umh / subme=7 / psy=1 / psy_rd=1.00:0.00 / mixed_ref=1 / me_range=16 / chroma_me=1 / trellis=1 / 8x8dct=1 / cqm=0 / deadzone=21,11 / fast_pskip=0 / chroma_qp_offset=-2 / threads=18 / lookahead_threads=3 / sliced_threads=0 / nr=0 / decimate=1 / interlaced=0 / bluray_compat=0 / constrained_intra=0 / bframes=3 / b_pyramid=2 / b_adapt=1 / b_bias=0 / direct=1 / weightb=1 / open_gop=0 / weightp=2 / keyint=250 / keyint_min=23 / scenecut=40 / intra_refresh=0 / rc_lookahead=40 / rc=2pass / mbtree=1 / bitrate=8684 / ratetol=1.0 / qcomp=0.60 / qpmin=0 / qpmax=69 / qpstep=4 / cplxblur=20.0 / qblur=0.5 / ip_ratio=1.40 / aq=1:1.00Язык : EnglishDefault : ДаForced : НетDURATION : 02:02:49.332000000NUMBER_OF_FRAMES : 176687NUMBER_OF_BYTES : 7997868479_STATISTICS_WRITING_APP : mkvmerge v8.3.0 ('Over the Horizon') 64bit_STATISTICS_WRITING_DATE_UTC : 2016-03-08 23:50:01_STATISTICS_TAGS : BPS DURATION NUMBER_OF_FRAMES NUMBER_OF_BYTES

Аудио #1Идентификатор : 2Формат : AC-3Формат/Информация : Audio Coding 3Расширение режима : CM (complete main)Параметр Endianness формата : BigИдентификатор кодека : A_AC3Продолжительность : 2 ч. 2 м.Вид битрейта : ПостоянныйБитрейт : 192 Кбит/секКаналы : 2 каналаРасположение каналов : Front: L RЧастота : 48,0 КГцБитовая глубина : 16 битМетод сжатия : С потерямиРазмер потока : 169 Мбайт (2%)Заголовок : MVOЯзык : RussianDefault : ДаForced : Нет

Аудио #2Идентификатор : 3Формат : DTSФормат/Информация : Digital Theater SystemsРежим : 16Параметр Endianness формата : BigИдентификатор кодека : A_DTSПродолжительность : 2 ч. 2 м.Вид битрейта : ПостоянныйБитрейт : 1509 Кбит/секКаналы : 6 каналовРасположение каналов : Front: L C R, Side: L R, LFEЧастота : 48,0 КГцБитовая глубина : 24 битМетод сжатия : С потерямиРазмер потока : 1,29 Гбайт (15%)Язык : EnglishDefault : НетForced : Нет

Текст #1Идентификатор : 4Формат : VobSubРежим смешивания : zlibИдентификатор кодека : S_VOBSUBИдентификатор кодека/Информация : The same subtitle format used on DVDsЯзык : EnglishDefault : НетForced : Нет

Текст #2Идентификатор : 5Формат : VobSubРежим смешивания : zlibИдентификатор кодека : S_VOBSUBИдентификатор кодека/Информация : The same subtitle format used on DVDsЯзык : EnglishDefault : НетForced : Нет

Текст #3Идентификатор : 6Формат : VobSubРежим смешивания : zlibИдентификатор кодека : S_VOBSUBИдентификатор кодека/Информация : The same subtitle format used on DVDsЯзык : EnglishDefault : НетForced : Нет

Меню00:00:00.000 : en:00:00:00.00000:07:26.696 : en:00:07:26.69600:14:41.631 : en:00:14:41.63100:21:48.098 : en:00:21:48.09800:29:36.566 : en:00:29:36.56600:37:42.927 : en:00:37:42.92700:43:44.539 : en:00:43:44.53900:51:30.713 : en:00:51:30.71300:59:35.447 : en:00:59:35.44701:06:58.264 : en:01:06:58.26401:13:07.508 : en:01:13:07.50801:22:18.308 : en:01:22:18.30801:30:34.721 : en:01:30:34.72101:38:15.098 : en:01:38:15.09801:46:46.942 : en:01:46:46.94201:53:34.808 : en:01:53:34.808

piratbit.ru

Скачать фильм Защитник через торрент в хорошем качестве бесплатно BDRip-AVC

GeneralUnique ID                                : 179083035173602785625025070263259430256 (0x86BA2353C9D4272B9C26CD0AFDC4FD70)Complete name                            : D:\download\Concussion.2015.BDRip-AVC by schultz R.G.Resident.mkvFormat                                   : MatroskaFormat version                           : Version 4 / Version 2File size                                : 2.43 GiBDuration                                 : 2h 2mnOverall bit rate                         : 2 829 KbpsEncoded date                             : UTC 2016-03-09 11:36:01Writing application                      : mkvmerge v8.9.0 ('Father Daughter') 64bitWriting library                          : Lavf56.22.100DURATION                                 : 02:00:37.676000000NUMBER_OF_FRAMES                         : 1594NUMBER_OF_BYTES                          : 5414490_STATISTICS_WRITING_APP                  : mkvmerge v8.9.0 ('Father Daughter') 64bit_STATISTICS_WRITING_DATE_UTC             : 2016-03-28 19:43:33_STATISTICS_TAGS                         : BPS DURATION NUMBER_OF_FRAMES NUMBER_OF_BYTES

VideoID                                       : 1Format                                   : AVCFormat/Info                              : Advanced Video CodecFormat profile                           : [email protected] settings, CABAC                   : YesFormat settings, ReFrames                : 12 framesCodec ID                                 : V_MPEG4/ISO/AVCDuration                                 : 2h 2mnBit rate                                 : 2 039 KbpsWidth                                    : 1 024 pixelsHeight                                   : 428 pixelsDisplay aspect ratio                     : 2.40:1Frame rate                               : 23.976 fpsColor space                              : YUVChroma subsampling                       : 4:2:0Bit depth                                : 8 bitsScan type                                : ProgressiveBits/(Pixel*Frame)                       : 0.194Stream size                              : 1.72 GiB (71%)Writing library                          : x264 core 146 r2538 121396cEncoding settings                        : cabac=1 / ref=12 / deblock=1:-3:-3 / analyse=0x3:0x113 / me=umh / subme=11 / psy=1 / psy_rd=1.00:0.00 / mixed_ref=1 / me_range=48 / chroma_me=1 / trellis=2 / 8x8dct=1 / cqm=0 / deadzone=21,11 / fast_pskip=0 / chroma_qp_offset=-2 / threads=12 / lookahead_threads=3 / sliced_threads=0 / nr=0 / decimate=1 / interlaced=0 / bluray_compat=0 / constrained_intra=0 / bframes=13 / b_pyramid=2 / b_adapt=2 / b_bias=0 / direct=3 / weightb=1 / open_gop=0 / weightp=2 / keyint=240 / keyint_min=23 / scenecut=40 / intra_refresh=0 / rc_lookahead=40 / rc=2pass / mbtree=1 / bitrate=2039 / ratetol=1.0 / qcomp=0.60 / qpmin=0 / qpmax=69 / qpstep=4 / cplxblur=20.0 / qblur=0.5 / vbv_maxrate=14000 / vbv_bufsize=14000 / nal_hrd=none / filler=0 / ip_ratio=1.40 / aq=1:1.00Language                                 : EnglishDefault                                  : YesForced                                   : NoDURATION                                 : 02:02:49.374000000NUMBER_OF_FRAMES                         : 176688NUMBER_OF_BYTES                          : 1878195633_STATISTICS_WRITING_APP                  : mkvmerge v8.9.0 ('Father Daughter') 64bit_STATISTICS_WRITING_DATE_UTC             : 2016-03-28 19:43:33_STATISTICS_TAGS                         : BPS DURATION NUMBER_OF_FRAMES NUMBER_OF_BYTES

Audio #1ID                                       : 2Format                                   : AC-3Format/Info                              : Audio Coding 3Mode extension                           : CM (complete main)Codec ID                                 : A_AC3Duration                                 : 2h 2mnBit rate mode                            : ConstantBit rate                                 : 384 KbpsChannel(s)                               : 6 channelsChannel positions                        : Front: L C R, Side: L R, LFESampling rate                            : 48.0 KHzBit depth                                : 16 bitsCompression mode                         : LossyDelay relative to video                  : 970msStream size                              : 337 MiB (14%)Default                                  : YesForced                                   : No

Audio #2ID                                       : 3Format                                   : AC-3Format/Info                              : Audio Coding 3Mode extension                           : CM (complete main)Codec ID                                 : A_AC3Duration                                 : 2h 2mnBit rate mode                            : ConstantBit rate                                 : 384 KbpsChannel(s)                               : 6 channelsChannel positions                        : Front: L C R, Side: L R, LFESampling rate                            : 48.0 KHzBit depth                                : 16 bitsCompression mode                         : LossyStream size                              : 337 MiB (14%)Language                                 : EnglishDefault                                  : NoForced                                   : No

Text #1ID                                       : 4Format                                   : VobSubMuxing mode                              : zlibCodec ID                                 : S_VOBSUBCodec ID/Info                            : The same subtitle format used on DVDsLanguage                                 : EnglishDefault                                  : NoForced                                   : No

Text #2ID                                       : 5Format                                   : VobSubMuxing mode                              : zlibCodec ID                                 : S_VOBSUBCodec ID/Info                            : The same subtitle format used on DVDsLanguage                                 : EnglishDefault                                  : NoForced                                   : No

Text #3ID                                       : 6Format                                   : VobSubMuxing mode                              : zlibCodec ID                                 : S_VOBSUBCodec ID/Info                            : The same subtitle format used on DVDsLanguage                                 : EnglishDefault                                  : NoForced                                   : No

Menu00:00:00.000                             : en:00:00:00.00000:07:26.696                             : en:00:07:26.69600:14:41.631                             : en:00:14:41.63100:21:48.098                             : en:00:21:48.09800:29:36.566                             : en:00:29:36.56600:37:42.927                             : en:00:37:42.92700:43:44.539                             : en:00:43:44.53900:51:30.713                             : en:00:51:30.71300:59:35.447                             : en:00:59:35.44701:06:58.264                             : en:01:06:58.26401:13:07.508                             : en:01:13:07.50801:22:18.308                             : en:01:22:18.30801:30:34.721                             : en:01:30:34.72101:38:15.098                             : en:01:38:15.09801:46:46.942                             : en:01:46:46.94201:53:34.808                             : en:01:53:34.808

piratbit.ru


Смотрите также