Фокус фильм скачать торрент в хорошем качестве hd 1080


Скачать Фокус через торрент - фильм в хорошем качестве

Категория: Фильмы 5147 1 Торрент добавлен: 27-04-2015 Рейтинг:

2015 / комедия, драма, мелодрама, криминал / 104 мин.Название: Фокус / FocusСтрана: СШАРежиссер: Гленн Фикарра, Джон РекуаВ ролях: Уилл Смит, Марго Робби, Родриго Санторо, Б.Д. Вонг, Адриан Мартинес, Роберт Тейлор, Доминик Фумуса, Стефани Онор, Джо Крест, Дон Йессо

Стать ловким мошенником дано далеко не каждому, а лучшим и вовсе единицам, ведь для этого нужно не просто ловкость рук и умение спланировать аферу, а нечто большее. Настоящему талантливому аферисту необходимо умение перевоплощаться, да так убедительно, чтобы никто и не заподозрил вас в обмане. У Никки есть все важные качества афериста, и он знает свое ремесло в самых мельчайших подробностях, именно поэтому спокойно вот уже какой год подряд обманывает доверчивых туристов в Буэнос-Айресе. Схема была отлажена и работала исправно, пока на горизонте не появилась Джесс, неумелая начинающая мошенница. Присмотревшись к ней, Никки решает дальше развивать в ней таланты и передать Джесс кое-какой свой опыт. Однако со временем Никки начинает замечать, что между ними появляется не только совместная работа, но и зарождающиеся взаимоотношения и поэтому решает оборвать все контакты с ней. Через какое-то время Никки вновь работает над очередным миллиардером и узнает, что его ученица Джесс также впутана в эту аферу. Опытному мошеннику придется внести изменения в свой план и заново все тщательнее продумать.

Трейлер к фильму Фокус

 

Фокус скачать торрент

Кодек: MPEG-4 AVC Качество: Blu-Ray (1080p)Видео: 25026 Кбит/с, 1920x1080Звук: Русский (DTS-HD MA, 6 ch, 3646 Кбит/с)Дублированный - BlueBird

31,06 Gb

Кодек: MPEG-4 AVC Качество: BDRip (1080p)Видео: 16,8 Мбит/сек, 1920x1080Звук: Русский (DTS, 6 ch, 1509 Кбит/с)Дублированный - BlueBird

13,67 Gb

Качество: BDRip 720pФормат: MKV Видео: MPEG4/AVC, 5336 Кбит/сек, 1280х720 (16:9), 23.976 кадра/сек Аудио 1: AC3, 6 каналов, 640 Кбит/сек Професиональный (полное дублирование)

4,98 Gb

Формат: AVI (XviD)Качество: HDRip [рип с BDRip 720p]Видео: 1496 Kb/s, 720x400Аудио: AC3, 384 Kb/s (6 ch) Дублированное [iTunes]

1,37 Gb

Вы находитесь на странице, где можете совершенно бесплатно скачать фильм Фокус в хорошем качестве через торрент, в любом формате, который больше всего вам на данный момент подходит. Скачивание осуществляется через торрент, что означает максимально высокую скорость загрузки. Желаем Вам приятного просмотра!. Не забудь поделиться своими впечатлениями после того как посмотришь фильм Фокус.

Информация Посетители, находящиеся в группе Гости, не могут оставлять комментарии к данной публикации.

psp-gu.ru

Скачать фильм Фокус через торрент в хорошем качестве бесплатно 1080p

Format                      : MatroskaFormat version              : Version 2File size                   : 9.71 GiBDuration                    : 1h 44mnOverall bit rate            : 13.3 MbpsMovie name                  : Focus.(2015).BDRip.1080p.[denis100]Encoded date                : UTC 2015-06-19 08:05:22Writing application         : mkvmerge v5.8.0 ('No Sleep / Pillow') built on Sep  2 2012 15:37:04Writing library             : libebml v1.2.3 + libmatroska v1.3.0

VideoID                          : 1Format                      : AVCFormat/Info                 : Advanced Video CodecFormat profile              : [email protected] settings, CABAC      : YesFormat settings, ReFrames   : 4 framesCodec ID                    : V_MPEG4/ISO/AVCDuration                    : 1h 44mnBit rate                    : 12.0 MbpsWidth                       : 1 920 pixelsHeight                      : 1 080 pixelsDisplay aspect ratio        : 16:9Frame rate mode             : ConstantFrame rate                  : 23.976 fpsColor space                 : YUVChroma subsampling          : 4:2:0Bit depth                   : 8 bitsScan type                   : ProgressiveBits/(Pixel*Frame)          : 0.241Stream size                 : 8.58 GiB (88%)Title                       : Focus.(2015).BDRip.1080p.[denis100]Writing library             : x264 core 130 r2273 b3065e6Encoding settings           : cabac=1 / ref=4 / deblock=1:-3:-3 / analyse=0x3:0x113 / me=umh / subme=11 / psy=1 / psy_rd=1.05:0.05 / mixed_ref=1 / me_range=32 / chroma_me=1 / trellis=2 / 8x8dct=1 / cqm=0 / deadzone=21,11 / fast_pskip=0 / chroma_qp_offset=-5 / threads=12 / lookahead_threads=2 / sliced_threads=0 / nr=0 / decimate=0 / interlaced=0 / bluray_compat=0 / constrained_intra=0 / bframes=8 / b_pyramid=2 / b_adapt=2 / b_bias=0 / direct=3 / weightb=1 / open_gop=0 / weightp=2 / keyint=250 / keyint_min=23 / scenecut=40 / intra_refresh=0 / rc_lookahead=75 / rc=2pass / mbtree=1 / bitrate=12000 / ratetol=1.0 / qcomp=0.60 / qpmin=0 / qpmax=69 / qpstep=4 / cplxblur=20.0 / qblur=0.5 / ip_ratio=1.40 / aq=1:0.95Language                    : EnglishDefault                     : YesForced                      : No

Audio #1ID                          : 2Format                      : AC-3Format/Info                 : Audio Coding 3Mode extension              : CM (complete main)Format settings, Endianness : BigCodec ID                    : A_AC3Duration                    : 1h 44mnBit rate mode               : ConstantBit rate                    : 640 KbpsChannel(s)                  : 6 channelsChannel positions           : Front: L C R, Side: L R, LFESampling rate               : 48.0 KHzBit depth                   : 16 bitsCompression mode            : LossyStream size                 : 479 MiB (5%)Title                       : Дубляж - Blu-Ray CEELanguage                    : RussianDefault                     : YesForced                      : No

Audio #2ID                          : 3Format                      : AC-3Format/Info                 : Audio Coding 3Mode extension              : CM (complete main)Format settings, Endianness : BigCodec ID                    : A_AC3Duration                    : 1h 44mnBit rate mode               : ConstantBit rate                    : 640 KbpsChannel(s)                  : 6 channelsChannel positions           : Front: L C R, Side: L R, LFESampling rate               : 48.0 KHzBit depth                   : 16 bitsCompression mode            : LossyStream size                 : 479 MiB (5%)Language                    : EnglishDefault                     : NoForced                      : No

Text #1ID                          : 4Format                      : UTF-8Codec ID                    : S_TEXT/UTF8Codec ID/Info               : UTF-8 Plain TextTitle                       : forcedLanguage                    : RussianDefault                     : YesForced                      : No

Text #2ID                          : 5Format                      : UTF-8Codec ID                    : S_TEXT/UTF8Codec ID/Info               : UTF-8 Plain TextTitle                       : fullLanguage                    : RussianDefault                     : NoForced                      : No

Text #3ID                          : 6Format                      : UTF-8Codec ID                    : S_TEXT/UTF8Codec ID/Info               : UTF-8 Plain TextTitle                       : forcedLanguage                    : UkrainianDefault                     : NoForced                      : No

Text #4ID                          : 7Format                      : UTF-8Codec ID                    : S_TEXT/UTF8Codec ID/Info               : UTF-8 Plain TextTitle                       : fullLanguage                    : EnglishDefault                     : NoForced                      : No

Text #5ID                          : 8Format                      : UTF-8Codec ID                    : S_TEXT/UTF8Codec ID/Info               : UTF-8 Plain TextTitle                       : SDHLanguage                    : EnglishDefault                     : NoForced                      : No

Text #6ID                          : 9Format                      : UTF-8Codec ID                    : S_TEXT/UTF8Codec ID/Info               : UTF-8 Plain TextTitle                       : SDH-ColoredLanguage                    : EnglishDefault                     : NoForced                      : No

Menu00:00:00.000                : :Chapter 0100:09:17.974                : :Chapter 0200:18:55.217                : :Chapter 0300:30:22.903                : :Chapter 0400:40:56.077                : :Chapter 0500:49:16.368                : :Chapter 0601:00:10.481                : :Chapter 0701:11:02.756                : :Chapter 0801:20:27.488                : :Chapter 0901:28:33.890                : :Chapter 1001:39:19.619                : :Chapter 1101:44:43.902                : :Chapter 12

piratbit.ru

Скачать торрент Фокус / Focus (2014) BDRip-AVC от R.G. HD-Films

Название: ФокусОригинальное название: FocusГод выпуска: 2014Страна: США, АргентинаЖанр: драма, мелодрама, комедия, криминалПродолжительность: 01:44:44Перевод: ДубляжСубтитры: русские (Форсированные), русские (Полные), английские (Полные) Режиссер: Гленн Фикарра / Glenn Ficarra, Джон Рекуа / John RequaВ ролях: Уилл Смит (Nicky), Марго Робби (Jess), Адриан Мартинес (Farhad), Джералд МакРэйни (Owens), Родриго Санторо (Garriga), Б.Д. Вонг (Liyuan), Бреннан Браун (Horst), Роберт Тейлор (McEwen), Дотан Бонен (Gordon), Грифф Ферст (Gareth), Стефани Онор (Janice), Дэвид Стэнфорд (Drunken Stranger)Описание: История об опытном мошеннике, который влюбляется в девушку, делающую первые шаги на поприще нелегального отъема средств у граждан. Отношения становятся для них проблемой, когда обнаруживается, что романтика мешает их нечестному бизнесу.Рейтингimdb.com: 6.60 (75 479)MPAA: R - Лицам до 17 лет обязательно присутствие взрослогоКачество: BDRip-AVC 60fpsФормат: MKVВидео кодек: AVCАудио кодек:AC3Видео: AVC, 1024x576 (16:9), 4750 kbps, 59,940 fps, 0,134 bppАудио: русский / AC3 / 5.1 / 48 kHz / 640 kbps / 16 bit |Дубляж| Навигация по главам: есть

MI

General Unique ID : 206908665568890415270668756386308752901 (0x9BA928D37FFC51F1BC3130BF0A0D0605) Format : Matroska Format version : Version 4 / Version 2 File size : 3.95 GiB Duration : 1h 44mn Overall bit rate : 5 395 Kbps Movie name : Tiberiumsun69 Encoded date : UTC 2015-06-26 07:41:36 Writing application : mkvmerge v7.9.0 ('Birds') 64bit Writing library : libebml v1.3.1 + libmatroska v1.4.2 Attachment : Yes / Yes

Video ID : 1 Format : AVC Format/Info : Advanced Video Codec Format profile : [email protected] Format settings, CABAC : Yes Format settings, ReFrames : 4 frames Codec ID : V_MPEG4/ISO/AVC Duration : 1h 44mn Bit rate : 4 750 Kbps Width : 1 024 pixels Height : 576 pixels Display aspect ratio : 16:9 Frame rate : 59.940 fps Color space : YUV Chroma subsampling : 4:2:0 Bit depth : 8 bits Scan type : Progressive Bits/(Pixel*Frame) : 0.134 Stream size : 3.40 GiB (86%) Title : Tiberiumsun69 Writing library : x264 core 146 r2538 121396c Encoding settings : cabac=1 / ref=4 / deblock=1:0:0 / analyse=0x3:0x113 / me=umh / subme=9 / psy=1 / psy_rd=1.00:0.10 / mixed_ref=1 / me_range=32 / chroma_me=1 / trellis=2 / 8x8dct=1 / cqm=0 / deadzone=21,11 / fast_pskip=0 / chroma_qp_offset=-3 / threads=12 / lookahead_threads=3 / sliced_threads=0 / nr=0 / decimate=1 / interlaced=0 / bluray_compat=0 / constrained_intra=0 / bframes=16 / b_pyramid=2 / b_adapt=2 / b_bias=0 / direct=3 / weightb=1 / open_gop=0 / weightp=2 / keyint=600 / keyint_min=59 / scenecut=40 / intra_refresh=0 / rc_lookahead=60 / rc=2pass / mbtree=1 / bitrate=4750 / ratetol=1.0 / qcomp=0.60 / qpmin=0 / qpmax=69 / qpstep=4 / cplxblur=20.0 / qblur=0.5 / vbv_maxrate=50000 / vbv_bufsize=62500 / nal_hrd=none / filler=0 / ip_ratio=1.40 / aq=1:1.00 Language : English Default : Yes Forced : No

Audio ID : 2 Format : AC-3 Format/Info : Audio Coding 3 Mode extension : CM (complete main) Codec ID : A_AC3 Duration : 1h 44mn Bit rate mode : Constant Bit rate : 640 Kbps Channel(s) : 6 channels Channel positions : Front: L C R, Side: L R, LFE Sampling rate : 48.0 KHz Bit depth : 16 bits Compression mode : Lossy Stream size : 479 MiB (12%) Title : Дубляж Language : Russian Default : Yes Forced : No

Text #1 ID : 3 Format : UTF-8 Codec ID : S_TEXT/UTF8 Codec ID/Info : UTF-8 Plain Text Title : Форсированные Language : Russian Default : Yes Forced : No

Text #2 ID : 4 Format : UTF-8 Codec ID : S_TEXT/UTF8 Codec ID/Info : UTF-8 Plain Text Title : Полные Language : Russian Default : No Forced : No

Text #3 ID : 5 Format : UTF-8 Codec ID : S_TEXT/UTF8 Codec ID/Info : UTF-8 Plain Text Title : Полные Language : English Default : No Forced : No

Menu 00:00:00.000 : en:00:00:00.000 00:09:17.974 : en:00:09:17.974 00:18:55.217 : en:00:18:55.217 00:30:22.904 : en:00:30:22.904 00:40:56.079 : en:00:40:56.079 00:49:16.370 : en:00:49:16.370 01:00:10.482 : en:01:00:10.482 01:11:02.758 : en:01:11:02.758 01:20:27.489 : en:01:20:27.489 01:28:33.892 : en:01:28:33.892 01:39:19.620 : en:01:39:19.620

Просьба к переливающим на другие сайты, в оформлении указывайте пожалуйста авторство группы

krutor.org

Скачать фильм Фокус через торрент в хорошем качестве бесплатно 1080p] 2xDub (Rus

ОбщееУникальный идентификатор                 : 180252862015522404489941382665057592396 (0x879B703E5F34327CAFB39FF148FBE44C)Полное имя                               : D:\Фокус (2015) BDRip 1080p.mkvФормат                                   : MatroskaВерсия формата                           : Version 4 / Version 2Размер файла                             : 14,1 ГбайтПродолжительность                        : 1 ч. 44 м.Общий поток                              : 19,3 Мбит/секДата кодирования                         : UTC 2015-05-16 20:12:59Программа кодирования                    : mkvmerge v6.9.1 ('Blue Panther') 32bit built on Apr 18 2014 18:15:44Библиотека кодирования                   : libebml v1.3.0 + libmatroska v1.4.1Attachements                             : cover.jpg

ВидеоИдентификатор                            : 1Формат                                   : AVCФормат/Информация                        : Advanced Video CodecПрофиль формата                          : [email protected]Параметр CABAC формата                   : ДаПараметр ReFrames формата                : 4 кадраИдентификатор кодека                     : V_MPEG4/ISO/AVCПродолжительность                        : 1 ч. 44 м.Битрейт                                  : 16,8 Мбит/секШирина                                   : 1920 пикселейВысота                                   : 1080 пикселейСоотношение сторон                       : 16:9Режим частоты кадров                     : ПостоянныйЧастота кадров                           : 23,976 кадра/секЦветовое пространство                    : YUVСубдискретизация насыщенности            : 4:2:0Битовая глубина                          : 8 битТип развёртки                            : ПрогрессивнаяБит/(Пиксели*Кадры)                      : 0.338Размер потока                            : 12,3 Гбайт (87%)Заголовок                                : HDAccessБиблиотека кодирования                   : x264 core 146 r2538 121396cНастройки программы                      : cabac=1 / ref=4 / deblock=1:-3:-3 / analyse=0x3:0x133 / me=umh / subme=10 / psy=1 / psy_rd=1.02:0.00 / mixed_ref=1 / me_range=48 / chroma_me=1 / trellis=2 / 8x8dct=1 / cqm=0 / deadzone=21,11 / fast_pskip=1 / chroma_qp_offset=-2 / threads=16 / lookahead_threads=2 / sliced_threads=0 / nr=0 / decimate=1 / interlaced=0 / bluray_compat=0 / constrained_intra=0 / bframes=8 / b_pyramid=2 / b_adapt=2 / b_bias=0 / direct=3 / weightb=1 / open_gop=0 / weightp=2 / keyint=250 / keyint_min=23 / scenecut=40 / intra_refresh=0 / rc_lookahead=150 / rc=crf / mbtree=0 / crf=18.2 / qcomp=0.70 / qpmin=0 / qpmax=69 / qpstep=4 / vbv_maxrate=50000 / vbv_bufsize=62500 / crf_max=0.0 / nal_hrd=none / filler=0 / ip_ratio=1.20 / pb_ratio=1.20 / aq=3:0.68Язык                                     : EnglishDefault                                  : ДаForced                                   : Нет

Аудио #1Идентификатор                            : 2Формат                                   : AC-3Формат/Информация                        : Audio Coding 3Расширение режима                        : CM (complete main)Параметр Endianness формата              : BigИдентификатор кодека                     : A_AC3Продолжительность                        : 1 ч. 44 м.Вид битрейта                             : ПостоянныйБитрейт                                  : 384 Кбит/секКаналы                                   : 6 каналовРасположение каналов                     : Front: L C R, Side: L R, LFEЧастота                                  : 48,0 КГцБитовая глубина                          : 16 битМетод сжатия                             : С потерямиРазмер потока                            : 288 Мбайт (2%)Заголовок                                : Дубляж, iTunesЯзык                                     : RussianDefault                                  : ДаForced                                   : Нет

Аудио #2Идентификатор                            : 3Формат                                   : AC-3Формат/Информация                        : Audio Coding 3Расширение режима                        : CM (complete main)Параметр Endianness формата              : BigИдентификатор кодека                     : A_AC3Продолжительность                        : 1 ч. 44 м.Вид битрейта                             : ПостоянныйБитрейт                                  : 192 Кбит/секКаналы                                   : 2 каналаРасположение каналов                     : Front: L RЧастота                                  : 48,0 КГцБитовая глубина                          : 16 битМетод сжатия                             : С потерямиРазмер потока                            : 144 Мбайт (1%)Заголовок                                : Дубляж, iTunesЯзык                                     : UkrainianDefault                                  : НетForced                                   : Нет

Аудио #3Идентификатор                            : 4Формат                                   : DTSФормат/Информация                        : Digital Theater SystemsРежим                                    : 16Параметр Endianness формата              : BigИдентификатор кодека                     : A_DTSПродолжительность                        : 1 ч. 44 м.Вид битрейта                             : ПостоянныйБитрейт                                  : 1509 Кбит/секКаналы                                   : 6 каналовРасположение каналов                     : Front: L C R, Side: L R, LFEЧастота                                  : 48,0 КГцБитовая глубина                          : 24 битМетод сжатия                             : С потерямиРазмер потока                            : 1,10 Гбайт (8%)Заголовок                                : ОригиналЯзык                                     : EnglishDefault                                  : НетForced                                   : Нет

Текст #1Идентификатор                            : 5Формат                                   : UTF-8Идентификатор кодека                     : S_TEXT/UTF8Идентификатор кодека/Информация          : UTF-8 Plain TextЗаголовок                                : ForcedЯзык                                     : RussianDefault                                  : ДаForced                                   : Нет

Текст #2Идентификатор                            : 6Формат                                   : UTF-8Идентификатор кодека                     : S_TEXT/UTF8Идентификатор кодека/Информация          : UTF-8 Plain TextЗаголовок                                : FullЯзык                                     : RussianDefault                                  : НетForced                                   : Нет

Текст #3Идентификатор                            : 7Формат                                   : UTF-8Идентификатор кодека                     : S_TEXT/UTF8Идентификатор кодека/Информация          : UTF-8 Plain TextЗаголовок                                : ForcedЯзык                                     : UkrainianDefault                                  : НетForced                                   : Нет

Текст #4Идентификатор                            : 8Формат                                   : UTF-8Идентификатор кодека                     : S_TEXT/UTF8Идентификатор кодека/Информация          : UTF-8 Plain TextЗаголовок                                : FullЯзык                                     : EnglishDefault                                  : НетForced                                   : Нет

Меню00:00:00.000                             : en:00:00:00.00000:09:17.974                             : en:00:09:17.97400:18:55.217                             : en:00:18:55.21700:30:22.904                             : en:00:30:22.90400:40:56.079                             : en:00:40:56.07900:49:16.370                             : en:00:49:16.37001:00:10.482                             : en:01:00:10.48201:11:02.758                             : en:01:11:02.75801:20:27.489                             : en:01:20:27.48901:28:33.892                             : en:01:28:33.89201:39:19.620                             : en:01:39:19.620

piratbit.ru


Смотрите также