Гайвер 2 скачать фильм через торрент бесплатно в хорошем качестве


Темный герой через торрент в хорошем качестве бесплатно DVDRip-AVC

Размер: 1.44 GB | Добавлен: 5 лет назад | Торрент скачан:256 раз
Реклама Дарим 3000 рублей за регистрацию, не упусти свой шанс получить шикарный бонус!!!

06-10-2012 15:06 Гайвер 2: Темный герой Скачать торрент  

Гайвер 2: Темный герой / Guyver: Dark Hero

Год выпуска: 1994Страна: СШАЖанр: фантастика, боевикПродолжительность: 02:03:54Перевод: Профессиональный одноголосый

Режиссер: Стив ВангПродюссер: Стив Ванг, Ray Cecire, Кен ИядомиСценарий: Натан Лонг, Стив Ванг, Йошики Такая

Мировой рейтинг IMDB 5.60 (1 558)

В ролях: Дэвид Хэйтер, Кэти Кристоферсон, Бруно Джанотта, Кристофер Майкл, Стюарт Уайсс, Билли Ли, Jim O'Donoghoe, Дж.Д. Смит, Alisa Merline, Wes Deitrick

Описание: Шона, волею судеб ставшего обладателем Гайвера, мучают странные сны, смысл которых он не может понять. В поисках ответов он отправляется к месту археологических раскопок, где был обнаружен инопланетный космический корабль, очень похожий на те, которые он рисовал по утрам. Но там молодой человек обнаруживает пришельцев, околачивающихся возле археологических раскопок, и ему необходимо использовать свои чудодейственные доспехи, чтобы остановить их...

Качество: DVDRip-AVCФормат: MKVВидео кодек: H.26xАудио кодек: AACВидео: h364, 720x464, ~1420 Kbps, 23.98 fpsАудио#1: AAC, ~245 Kbps, 6 Ch, 48 kHz (Андрей Гаврилов)

Скачать Гайвер 2: Темный герой через торрент http://pic.pb.wtf/images/1/4ohixqom9g.jpg Скачать фильм Гайвер 2: Темный герой через торрент бесплантно в хорошем качестве Описание: Шона, волею судеб ставшего обладателем Гайвера, мучают странные сны, смысл которых он не может понять. В поисках ответов он ... 2012-10-06 15:06 10 10 17

Loading...

Loading...

Рекламный пират

06-10-2012 16:56 Гайвер 2: Темный герой Скачать торрент  

у первой части хоть коменты есть...

06-10-2012 17:05 Гайвер 2: Темный герой Скачать торрент  

в своё время фильм суперский был.

06-10-2012 17:24 Гайвер 2: Темный герой Скачать торрент  

да он и сейчас не плохо выглядит при бюджете 900000$

06-10-2012 17:48 Гайвер 2: Темный герой Скачать торрент  

Фильм и вправду хороший и на сегодняшний день

06-10-2012 19:13 Гайвер 2: Темный герой Скачать торрент  

На сегодняшний день фильм полное г-но! Но ля, как я тащился от него когда он только вышел! Ммм.... Это было что-то! Если б его пересняли с настоящими спецэффектами (а не далекой юности) то стоило бы посмотреть. Первый встал бы в очередь :). Не советую качать.... автору Респект!!

06-10-2012 19:18 Гайвер 2: Темный герой Скачать торрент  

в свое время покупал видеокассету с данным фильмом, где то валяется, только зря потратился, однозначно в топку данный фильм

30-10-2012 18:28 Гайвер 2: Темный герой Скачать торрент  

если не понимаете ничего...зачем лезть в тему???фильм моего детства...........................ах.................круто......

09-10-2013 17:32 Гайвер 2: Темный герой Скачать торрент  

фильм однозначно в ТОПЕ, единственное перевели бы его нормально, но все равно моя оценка 10 из 10и. Фильм детства..... ностальгия....

Pекламный агент PB

10-10-2013 12:36 Гайвер 2: Темный герой Скачать торрент  

именно из-за такого перевода и ностальгия. пересматривал пару лет назад качать уже не буду, но все равно спасибо.

06-02-2014 21:55 Гайвер 2: Темный герой Скачать торрент  

Плиз встаньте на раздачу!!!

Дорогой пользователь! Огромная просьба, поблагодарите релизера, оцените раздачу и оставьте свои комментарий, если Вы скачали Гайвер 2: Темный герой через торрент бесплатно! Внесите свою лепту в развитие PiratBit!

Комментировать посты могут только пользователи прошедшие не сложную регистрацию

Гайвер 2: Темный герой через торрент Скачать бесплатно Гайвер 2: Темный герой Гайвер 2: Темный герой скачать торрент Гайвер 2: Темный герой смотреть онлайн Cкачать фильм Гайвер 2: Темный герой бесплатно Гайвер 2: Темный герой скачать торрент в хорошем качестве Гайвер 2: Темный герой смотреть онлайн бесплатно в хорошем качестве

Вы не можете начинать темыВы не можете отвечать на сообщенияВы не можете редактировать свои сообщенияВы не можете удалять свои сообщенияВы не можете голосовать в опросахВы не можете прикреплять файлы к сообщениямВы можете скачивать файлы

piratbit.ru

Скачать фильм Гайвер (1991) через торрент

27 апреля 2016 10:19 Гайвер / Guyver (1991) BDRip 720p | A .torrent   [Информация о файле (нажмите для просмотра)] Перевод#1: Авторский (одноголосый закадровый)А. ГавриловПеревод#2: Авторский (одноголосый закадровый)В. ГорчаковПеревод#3: Авторский (одноголосый закадровый)А. Гаврилов (ранний VHS)Перевод#4: Авторский (одноголосый закадровый)неизвестный (VHS)Формат: H.264Качество: BDRip 720pВидео: MPEG-4 AVC, 1280x720, 5809 Кбит/с, 23.976 кадр/сАудио#1: Русский (48 kHz, AC3, 6 ch, 384 Кбит/с)Аудио#2: Русский (48 kHz, AC3, 2 ch, 384 Кбит/с)Аудио#3: Русский (48 kHz, AC3, 2 ch, 192 Кбит/с)Аудио#2: Русский (48 kHz, AC3, 2 ch, 192 Кбит/с)Аудио#3: Английский (48 kHz, AC3, 6 ch, 448 kbps)Субтитры: Русские, английские 4,89 Gb 7 3 27 апреля 2016 10:19 Гайвер / Guyver (1991) Blu-Ray Remux 1080p | A .torrent   [Информация о файле (нажмите для просмотра)] Перевод#1: Авторский (одноголосый закадровый)Андрей ГавриловПеревод#2: Авторский (одноголосый закадровый)Василий ГорчаковПеревод#3: Авторский (одноголосый закадровый)Андрей Гаврилов (ранний VHS)Перевод#4: Авторский (одноголосый закадровый)неизвестный (VHS)Формат: BDAVКачество: Blu-Ray Remux 1080pВидео: MPEG-4 AVC, 1920x1080, 26264 Кбит/с, 25 кадр/сАудио#1: Русский (48 kHz, AC3, 6 ch, 384 Кбит/с)Аудио#2: Русский (48 kHz, AC3, 2 ch, 384 Кбит/с)Аудио#3: Русский (48 kHz, AC3, 2 ch, 192 Кбит/с)Аудио#4: Русский (48 kHz, AC3, 2 ch, 192 Кбит/с)Аудио#5: Английский (48 kHz, AC3, 6 ch, 448 Кбит/с)Субтитры: Русские, английские 18,94 Gb 3 2 27 апреля 2016 10:19 Гайвер / Guyver (1991) DVDRip-AVC от New-team | Режиссерская версия .torrent   [Информация о файле (нажмите для просмотра)] Перевод: Авторский (одноголосый закадровый) Андрей ГавриловВидео: [email protected] (16:9), 23.976 fps, h364, 1 838 Kbps, 0.239 bit/pixelАудио #1: 48 kHz, AC3 Dolby Digital, 2/0 (L,R) ch, ~192kbps | AVOАудио #2: 48 kHz, AC3 Dolby Digital, 2/0 (L,R) ch, ~192kbps | Original 1,44 Gb 11 4 27 апреля 2016 10:19 Гайвер / Guyver (1991) DVDRip от New-team | Режиссерская версия .torrent   [Информация о файле (нажмите для просмотра)] Перевод: Авторский (одноголосый закадровый) Андрей ГавриловВидео: 624x344 (1.81:1), 23.976 fps, XviD build 50 ~984 kbps avg, 0.19 bit/pixelАудио: 48 kHz, MPEG Layer 3, 2 ch, ~128.00 kbps avg 744,67 Mb 7 2 27 апреля 2016 10:19 Гайвер / The Guyver (1991) DVD5 | A .torrent   [Информация о файле (нажмите для просмотра)] Перевод: 1 -Авторский(одноголосый) - Гаврилов Андрей 2 - Оригинальный (английский)Кодек: MPEG2Качество: DVD5Видео: NTSC 16:9 (720x480), 23.976 fps, ~8800 Kbps (0.700 bit/pixel)Звук: #1Russian (Dolby AC3, 48 kHz, 3/2 ch, 384 Kbps)Субтитры: English, Espanol 4,36 Gb 2 1 27 апреля 2016 10:19 Гайвер / Guyver (1991) DVD9 от E180 .torrent   [Информация о файле (нажмите для просмотра)] Перевод: Авторский (одноголосый закадровый): Гаврилов (2 перевода) / Горчаков / не определилКодек: MPEG2Качество: DVD9Видео: 720x480 (16:9) 29.97fps 9800kbpsЗвук: Dolby AC3 48000Hz stereo 192kbps - все переводы Dolby AC3 48000Hz 6ch 384kbps - английскийСубтитры: английские, испанские 4,74 Gb 3 3 27 апреля 2016 10:19 Гайвер / Guyver (1991) DVDRip | A .torrent   [Информация о файле (нажмите для просмотра)] Перевод: Перевод #1: Оригинальный Перевод #2: Авторский (одноголосый, закадровый) Андрей ГавриловКодек: x264Качество: DVDRipВидео: x264 [email protected] 23.976fps ~1417.13KbpsЗвук: Аудио 1: AAC-LC 6Ch 48kHz vbr ~245Kbps (q0.27) Оригинальный Аудио 2: AAC-LC 6Ch 48kHz vbr ~246Kbps (q0.27) Авторский (одноголосый, закадровый) Андрей ГавриловСубтитры: Английские 1,24 Gb 3 1 27 апреля 2016 10:19 Гайвер / Guyver (1991) DVDRip .torrent   [Информация о файле (нажмите для просмотра)] Перевод: Профессиональный (одноголосый)Качество: DVDRipФормат: AVIВидео: 704x384 (1.83:1), 23.976 fps, XviD build 46 ~1388 kbps avg, 0.21 bit/pixelАудио: 1,45 Gb 3 2

gig-torrent.net

Гайвер / Guyver [1991 BDRip 720p AVO+ VO+ENG] [Режиссерская версия / Director's Cut] скачать через торрент

GeneralUnique ID : 231050411674915103973281793435063262005 (0xADD2B0CE7D2D7E218AF6D13CA96F9B35)Complete name : D:\Proba\Guyver (1991) [720p].mkvFormat : MatroskaFormat version : Version 4 / Version 2File size : 4.89 GiBDuration : 1h 32mnOverall bit rate : 7 564 KbpsEncoded date : UTC 2015-05-19 12:47:00Writing application : mkvmerge v7.8.0 ('River Man') 64bit built on Mar 27 2015 16:31:37Writing library : libebml v1.3.1 + libmatroska v1.4.2_STATISTICS_WRITING_APP : mkvmerge v7.8.0 ('River Man') 64bit built on Mar 27 2015 16:31:37_STATISTICS_WRITING_DATE_UT : 2015-05-19 12:47:00_STATISTICS_TAGS : BPS DURATION NUMBER_OF_FRAMES NUMBER_OF_BYTESDURATION : 01:28:10.749000000NUMBER_OF_FRAMES : 888NUMBER_OF_BYTES : 23311

VideoID : 1Format : AVCFormat/Info : Advanced Video CodecFormat profile : [email protected] settings, CABAC : YesFormat settings, ReFrames : 9 framesCodec ID : V_MPEG4/ISO/AVCDuration : 1h 32mnBit rate : 5 813 KbpsWidth : 1 280 pixelsHeight : 720 pixelsDisplay aspect ratio : 16:9Frame rate mode : ConstantFrame rate : 23.976 fpsColor space : YUVChroma subsampling : 4:2:0Bit depth : 8 bitsScan type : ProgressiveBits/(Pixel*Frame) : 0.263Stream size : 3.75 GiB (77%)Writing library : x264 core 146 r0+2586 e393126 t_mod_Custom [[email protected] X86_64]Encoding settings : cabac=1 / ref=9 / deblock=1:-3:-3 / analyse=0x3:0x133 / me=umh / subme=10 / psy=1 / fade_compensate=0.00 / psy_rd=1.00:0.05 / mixed_ref=1 / me_range=24 / chroma_me=1 / trellis=2 / 8x8dct=1 / cqm=0 / deadzone=21,11 / fast_pskip=0 / chroma_qp_offset=-3 / threads=6 / lookahead_threads=1 / sliced_threads=0 / nr=0 / decimate=1 / interlaced=0 / bluray_compat=0 / constrained_intra=0 / fgo=0 / bframes=12 / b_pyramid=2 / b_adapt=2 / b_bias=0 / direct=3 / weightb=1 / open_gop=0 / weightp=2 / keyint=250 / keyint_min=23 / scenecut=40 / intra_refresh=0 / rc_lookahead=60 / rc=crf / mbtree=0 / crf=17.0000 / qcomp=0.70 / qpmin=0:0:0 / qpmax=69:69:69 / qpstep=4 / vbv_maxrate=62500 / vbv_bufsize=78125 / crf_max=0.0 / nal_hrd=none / filler=0 / ip_ratio=1.40 / pb_ratio=1.30 / aq=1:0.65 / aq-sensitivity=10.00 / aq-factor=1.00:1.00:1.00 / aq2=0 / aq3=0Language : EnglishDefault : NoForced : NoColor range : LimitedColor primaries : BT.709Transfer characteristics : BT.709Matrix coefficients : BT.709_STATISTICS_WRITING_APP : mkvmerge v7.8.0 ('River Man') 64bit built on Mar 27 2015 16:31:37_STATISTICS_WRITING_DATE_UT : 2015-05-19 12:47:00_STATISTICS_TAGS : BPS DURATION NUMBER_OF_FRAMES NUMBER_OF_BYTESDURATION : 01:32:26.792000000NUMBER_OF_FRAMES : 132990NUMBER_OF_BYTES : 4133696001

Audio #1ID : 2Format : AC-3Format/Info : Audio Coding 3Mode extension : CM (complete main)Format settings, Endianness : BigCodec ID : A_AC3Duration : 1h 32mnBit rate mode : ConstantBit rate : 384 KbpsChannel(s) : 6 channelsChannel positions : Front: L C R, Side: L R, LFESampling rate : 48.0 KHzCompression mode : LossyStream size : 254 MiB (5%)Title : ГавриловLanguage : RussianDefault : NoForced : No

Audio #2ID : 3Format : AC-3Format/Info : Audio Coding 3Mode extension : CM (complete main)Format settings, Endianness : BigCodec ID : A_AC3Duration : 1h 32mnBit rate mode : ConstantBit rate : 384 KbpsChannel(s) : 2 channelsChannel positions : Front: L RSampling rate : 48.0 KHzCompression mode : LossyStream size : 254 MiB (5%)Title : ГорчаковLanguage : RussianDefault : NoForced : No

Audio #3ID : 4Format : AC-3Format/Info : Audio Coding 3Mode extension : CM (complete main)Format settings, Endianness : BigCodec ID : A_AC3Duration : 1h 32mnBit rate mode : ConstantBit rate : 192 KbpsChannel(s) : 2 channelsChannel positions : Front: L RSampling rate : 48.0 KHzCompression mode : LossyStream size : 127 MiB (3%)Title : Гаврилов (ранний VHS)Language : RussianDefault : NoForced : No

Audio #4ID : 5Format : AC-3Format/Info : Audio Coding 3Mode extension : CM (complete main)Format settings, Endianness : BigCodec ID : A_AC3Duration : 1h 32mnBit rate mode : ConstantBit rate : 192 KbpsChannel(s) : 2 channelsChannel positions : Front: L RSampling rate : 48.0 KHzCompression mode : LossyStream size : 127 MiB (3%)Title : неизвестный (VHS)Language : RussianDefault : NoForced : No

Audio #5ID : 6Format : AC-3Format/Info : Audio Coding 3Mode extension : CM (complete main)Format settings, Endianness : BigCodec ID : A_AC3Duration : 1h 32mnBit rate mode : ConstantBit rate : 448 KbpsChannel(s) : 6 channelsChannel positions : Front: L C R, Side: L R, LFESampling rate : 48.0 KHzCompression mode : LossyStream size : 296 MiB (6%)Title : оригиналLanguage : EnglishDefault : NoForced : No

Text #1ID : 7Format : UTF-8Codec ID : S_TEXT/UTF8Codec ID/Info : UTF-8 Plain TextTitle : fullLanguage : RussianDefault : NoForced : No

Text #2ID : 8Format : UTF-8Codec ID : S_TEXT/UTF8Codec ID/Info : UTF-8 Plain TextTitle : forced (Горчаков)Language : RussianDefault : NoForced : No

Text #3ID : 9Format : UTF-8Codec ID : S_TEXT/UTF8Codec ID/Info : UTF-8 Plain TextTitle : forced (неизвестный)Language : RussianDefault : NoForced : No

Text #4ID : 10Format : UTF-8Codec ID : S_TEXT/UTF8Codec ID/Info : UTF-8 Plain TextTitle : originalLanguage : EnglishDefault : NoForced : No

Menu00:00:00.000 : en:00:00:00.00000:00:00.375 : en:00:00:00.37500:12:43.429 : en:00:12:43.42900:25:54.845 : en:00:25:54.84500:42:10.862 : en:00:42:10.86201:00:27.290 : en:01:00:27.29001:12:12.828 : en:01:12:12.82801:22:17.224 : en:01:22:17.22401:29:49.801 : en:01:29:49.801

piratbit.ru

rutor.org :: Гайвер / The Guyver (1989) DVDRip ::: Скачать торрент

Quirky11 11-04-2011 9:15:03 (40 месяцев назад) Оценил на: 10 Аааа!!! Меня мама в 6 лет им пугала "...Будешь хулиганить - придет ГАЙВЕР!..." xDDD блин надо посмореть - у меня на кассете две серии гдето были, можно забыть о них, буду качать! dizdec 12-10-2010 1:24:52 (46 месяцев назад) Оценил на: 10 ..да наверное мой первый фильм - ужасы , фантастика..)))...помниться еще вторая часть есть- "гайвер - темный герой"..или как там... detroit88 19-10-2009 12:59:09 (58 месяцев назад) Пожалуйста, подкинте скорости.....Зарание спасибо! Vasiliskus 09-04-2009 21:44:20 (65 месяцев назад) Оценил на: 10 спасибо за мульт, давно искала - муж просил =))) ... кстати, в качестве ответа на местный вопрос, есть продолжение этих серий, только там их 26, снятые-переснятые в 2005 году)), там идея та де и сюжет не особо отличается, но в целом тож интересно) а мульт полнометражный я находила лишь в оч. хреновом какчестве и за 1986 и за 1989 года...вот Partizan-56 11-10-2008 13:35:36 (71 месяц назад) Я смотрю вы тут пишите что это Аниме,а кто-нибудь может выложить полнометражные фильмы Гайвер,когда совсем маленький был смотрел на кассетах две части,незнай мож другие ещё есть dangao 08-09-2008 9:23:43 (72 месяца назад) Оценил на: 10 спасибо скачал посмотрел -очень понравилось . А продолжение есть?? Agito Makishima 09-08-2008 17:19:35 (73 месяца назад) хм,встаю на раздачу Ehoteg 08-08-2008 2:22:58 (73 месяца назад) Оценил на: 1 КОГДА раздача скачать не могу ?!! очень хочу посмотреть!!! Agito Makishima 30-07-2008 20:35:47 (73 месяца назад) хм,kikasso,спасибо за поддержку. kikasso 29-07-2008 15:50:08 (73 месяца назад) Agito Makishima, не обращайте внимания, есть на свете люди с особым, позитивным мышлением, девиз которых "трэшак, отстой, в топку". От них молоко киснет, цветы вянут, "подсистема mldonkey вешается". Одеяло убежало, улетела простыня.. illlogic 28-07-2008 5:12:24 (73 месяца назад) этот отстой для энертнэх виндузятников. пусть нормальные торренты генерирует Agito Makishima 26-07-2008 10:36:15 (73 месяца назад) хм,illlogic,смени mldonkey на нормальный клиент(uTorrent),все будет нормально качаться. illlogic 25-07-2008 13:52:26 (73 месяца назад) Agito Makishima подсистема mldonkey вешается когда добавляю торренты закаченые этим юзером. трэшак Agito Makishima 19-07-2008 19:51:45 (74 месяца назад) хм, с раздачи не уходить, а то больше ничего выкладывать не буду. Allexxa 19-07-2008 19:35:13 (74 месяца назад) Спасибо. Давно хотел скачать, но нигде не мог найти. Agito Makishima 19-07-2008 19:07:57 (74 месяца назад) хм, illlogic, уважай чужой труд,не хочешь не качай,а не пиши детсадовские комментарии  illlogic 19-07-2008 19:00:38 (74 месяца назад) в топку 666 19-07-2008 16:05:17 (74 месяца назад) народ ктонить подскажет это фильм или че то типа аниме а то я тут ссылку нащел http://www.dvusrachek.narod.ru/guyver-downloads.html подскажите ктонить это одно и тоже или разные вещи Agito Makishima 18-07-2008 23:09:41 (74 месяца назад) хм,что-то даже спасибо никто не скажет... 666 18-07-2008 23:09:27 (74 месяца назад) тока не надо удалять торрент 4get 18-07-2008 20:27:58 (74 месяца назад) ЦитатаКто-то писал:Категория Кино

В раздаче не кино, а аниме - http://www.world-art.ru/animation/animation.php?id=715

Тут же для этого раздел "Мультипликация" есть.

 AnArHiStKa 18-07-2008 18:56:10 (74 месяца назад) Agito Makishima, я вам дала ссылку на шаблон, так почему бы не оформить раздачу по шаблону, вместо того, чтобы давать отрывочные пояснения в комментариях? Ко всему прочему, если раздаётся аниме в котором много серий, принято указывать список эпизодов. Меня интересует один вопрос - вы принципиально не хотите оформить раздачу нормально, или не знаете как? Если второе - могу помочь на первый раз. Если же первое - ну...сами понимаете, у администрации есть право решать, каким должно быть оформление, и если оно не соответствует минимальным требованиям, раздача может быть удалена.

Я не говорю, что мы не признательны за ваш труд, но людям должно быть понятно, что они получат, скачав торрент. Давайте не будем идти на принцип, и сделаем всё как надо.

 Agito Makishima 18-07-2008 18:10:58 (74 месяца назад) хм, в этот торрент входят: - 12 эпизодов OVA ,формат кодека avi , с одной звуковой дорожкой, с любительским oдноголосым переводом (без чистой японской звуковой дорожки)

- 12 эпизодов OVA ,формат кодека mkv ,с чистой японской звуковой дорожкой , без любительского oдноголосого перевода (перевод русские субтитры)

- русские субтитры к 12 эпизодам .

 AnArHiStKa 18-07-2008 17:38:52 (74 месяца назад) Agito Makishima, неважно что вы написали, важно - как вы это написали :) В вашем оформлении ничего непонятно. Неискушенному "зрителю" будет сложно разобраться что тут такое раздают. Или вы заливаете для "избранных"? Поверьте мне - грамотно оформленная раздача - залог получения большого кол-ва заинтересованных пиров.  Agito Makishima 18-07-2008 17:23:36 (74 месяца назад) я же написал , что в эту раздачу входит еще один более качественный рип , но с японской звуковой дорожкой и русскими субтитрами, кто не хочет его качать , пускай снимет галки с файлов mkv в uTorrent (второй рип 1.99 гБ , кодек x264 ,разрешение 640x480 ,AUDIO INFO *** SampleRate(Sample/sec) : 48000 BitRate(Bit/sample) : 16 Channels : 2). AnArHiStKa 18-07-2008 17:07:02 (74 месяца назад) ЦитатаКто-то писал:Качество: DVDRip Размер: 3.42 ГБ Что-то большой рип...:ЦитатаКто-то писал:Размер 5.41 GB А это как понимать?

Стоит формить раздачу по шаблону и точно указать, что входит в состав торрента и подробное чёткое описание.

 

Все файлы предоставлены пользователями сайта для свободного обмена. Рутор.org и наши серверы не располагают какими-либо цифровыми копиями аудио-визуальных произведений, мы храним только информацию о них и торрент-файлы, загруженными пользователями для обмена. Для направления жалоб на нарушения исключительных авторских прав, пожалуйста, пишите на email pollyfuckingshit(гав-гав)ro[точка]ру с темой "удалить не читая" или "авторские права"

main-rutor.org

Гайвер 2: Темный герой скачать через торрент » Торрент Кино

Он снова зовет меня драться. Убивать В свое время, после просмотра этой дилогии, у меня возникло сильное желание ознакомиться с одноименным аниме. Но поскольку в середине 90-х интернета не было, а на VHS практически нереально его найти, то я с годами перегорел. Освежив сейчас в памяти данные фильмы — забытое желание опять начало подниматься во мне. После уничтожения корпорации «Кронос», Шон Баркер продолжает жить своей жизнью. Вот только есть одно но… Гайвер по прежнему в нем, и тяготит его страшным бременем. Пытаясь хоть как то утолить жажду Гайвера к насилию и убийствам, Шон по ночам выходит на борьбу с преступностью. Внезапно у него начинаются странные сны, на разгадку которых он отправляется на археологические раскопки. Постепенно понимая что нашли археологи, и какую опасность это несет, Шон начинает новую битву. Ведь то что скрывается в глубине пещеры — ничего хорошего землянам не сулит… Многие говорят, что второй фильм получился гораздо лучше первого. Да, качество заметно улучшилось во всем. Начиная от проработки костюмов, заканчивая постановкой боевых сцен. Актерский состав полностью обновился. Скажу что эти перемены пошли на пользу. Актеры может и никому не известные (а для некоторых это стало единственным стоящим проектом), но со своими обязанностями они справились на ура. Нет больше переигровок как в первом фильме. А если и есть, то они мало заметны на фоне происходящего действия. По костюмам (спецэффектов в фильме практически нет) можно сказать одно — серьезные изменения претерпел только костюм самого Гайвера. Он сделан более детально, продуманно, нежели в первом фильме. Остальные зоонойды стали более подвижными и уже выглядят более устрашающе и свирепо. Где то добавилось чуть реалистичности, но в остальном все то же самое. Вот за что я накину пару лишних баллов, так это за постановку боевых сцен. Они уже не выглядят нелепо. Это очень хорошо поставленная, красивая боевая хореография со всевозможными трюками. Единственное что не понравилось, так это финальная битва. Все испортили стилем «летающего самурая», когда законы физики идут куда подальше. Также понравился тот факт, что звуковое сопровождение и так на уровне, но еще Гайверу прицепили разные механические звуки костюма, подобно киборгам. Броня то все таки биомеханическая, и эти звуки очень органично это показывают. Ну и конечно нереально эпичный саундтрек.------------------------------------------Он снова зовет меня драться. Убивать В свое время, после просмотра этой дилогии, у меня возникло сильное желание ознакомиться с одноименным аниме. Но поскольку в середине 90-х интернета не было, а на VHS практически нереально его найти, то я с годами перегорел. Освежив сейчас в памяти данные фильмы - забытое желание опять начало подниматься во мне. После уничтожения корпорации 'Кронос', Шон Баркер продолжает жить своей жизнью. Вот только есть одно но... Гайвер по прежнему в нем, и тяготит его страшным бременем. Пытаясь хоть как то утолить жажду Гайвера к насилию и убийствам, Шон по ночам выходит на борьбу с преступностью. Внезапно у него начинаются странные сны, на разгадку которых он отправляется на археологические раскопки. Постепенно понимая что нашли археологи, и какую опасность это несет, Шон начинает новую битву. Ведь то что скрывается в глубине пещеры - ничего хорошего землянам не сулит... Многие говорят, что второй фильм получился гораздо лучше первого. Да, качество заметно улучшилось во всем. Начиная от проработки костюмов, заканчивая постановкой боевых сцен. Актерский состав полностью обновился. Скажу что эти перемены пошли на пользу. Актеры может и никому не известные (а для некоторых это стало единственным стоящим проектом), но со своими обязанностями они справились на ура. Нет больше переигровок как в первом фильме. А если и есть, то они мало заметны на фоне происходящего действия. По костюмам (спецэффектов в фильме практически нет) можно сказать одно - серьезные изменения претерпел только костюм самого Гайвера. Он сделан более детально, продуманно, нежели в первом фильме. Остальные зоонойды стали более подвижными и уже выглядят более устрашающе и свирепо. Где то добавилось чуть реалистичности, но в остальном все то же самое. Вот за что я накину пару лишних баллов, так это за постановку боевых сцен. Они уже не выглядят нелепо. Это очень хорошо поставленная, красивая боевая хореография со всевозможными трюками. Единственное что не понравилось, так это финальная битва. Все испортили стилем 'летающего самурая', когда законы физики идут куда подальше. Также понравился тот факт, что звуковое сопровождение и так на уровне, но еще Гайверу прицепили разные механические звуки костюма, подобно киборгам. Броня то все таки биомеханическая, и эти звуки очень органично это показывают. Ну и конечно нереально эпичный саундтрек.------------------------------------------Фильм этот появился у меня на одной кассете вместе с первой частью. Плёнка в своё время была просто засмотрена до дыр. Именно оттуда из детства прилетали воспоминания и впечатления, когда пересматривал фильм сейчас, 20 лет спустя. Но тогда это было просто интересное кино с драчками и супергероем. Сейчас же понимаешь, насколько атмосферна картина! Потрясающий саундтрек, актёры. Главный герой подобран идеально - таким и должен быть гайвер - тайна, драма, тьма, геройство. Сразу, что бросается в глаза, это работа оператора - довольно однообразные декорации по сюжету (пещеры и леса) тут создают особую атмосферу. Костюмы и грим тоже очень хороши. Отдельным сюрпризом оказалось, что тогда на кассете были вырезаны некоторые фрагменты, в основном диалоги и пара сцен. Но весьма необычно было смотреть эти куски, внезапно появляющиеся в казалось наизусть выученных местах. По поводу самой истории про гайвера. Лишь с появлением интернета, я узнал, что существовал мультфильм, и что не было никакой третьей части, о которой ходили легенды во дворе. По поводу продолжения - разумеется никакого сиквела уже не будет. Максимум - это перезапуск. Любопытно будет посмотреть на историю с современными возможностями кинематографа, но не более. Гайвер для многих останется лишь тем самым, в плохом VHS качестве с одноголосым гнусавым переводом. Ах да, оценка... 10 из 10, не иначе.------------------------------------------Знаете, так получилось что Гайвер стал одним из моих кумиров детства. Было время когда я смотрел этот фильм почти каждый день, и мне совсем не надоедало, причём смотрел я именно вторую часть, так как первую я смотреть вообще боялся (из-за некоторых сцен). О существовании аниме я узнал спустя много лет, после подключения интернета я посмотрел все серии версии 2005 года (хотя во времена моего детства существовала более старая версия, ну да ладно) и я пришёл в дикое восхищения от того? как умело создатели смогли экранизировать аниме сериал, что является весьма трудной задачей. С экранизацией создатели справились на ура, хотя тем? кто посмотрел фильм ?после просмотра аниме, он врядл и понравится? ибо порой возникает подобные вопросы: Если у Гайвера есть сверхрежущие мечи, то почему он дерётся с зоонойдами в рукопашном бою? Пересмотрев этот фильм спустя много лет, я не изменил своего мнения о нём, он всё так же превосходен, в отличие от первой части, которая в детстве мне нравилась, но сейчас я вижу, что это дешёвая фантастическая комедия. Но главное достоинство этого фильма - это его компактность. В современном кинематографе я часто вижу, как высокобюджетные фильмы показывают события, не стоющие своих затрат, и это дико раздражает, но в этом фильме всё с точностью да наоборот: снять такой фильм на какие-то жалкие 900 000, это надо уметь.

torrent-kino.org

Скачать фильм Гайвер через торрент в хорошем качестве бесплатно DVDRip-AVC

Размер: 1.44 GB | Добавлен: 4 года 2 мес. назад | Торрент скачан:159 раз
Реклама Дарим 3000 рублей за регистрацию, не упусти свой шанс получить шикарный бонус!!!

11-08-2013 09:26 Гайвер Скачать торрент  

Гайвер / Guyver

Режиссерская версия / Director's Cut

Страна: США, ЯпонияЖанр: фантастика, боевик, комедияГод выпуска: 1991Продолжительность: 01:32:47Перевод: Авторский (одноголосый закадровый) Андрей ГавриловCубтитры: нетОригинальная аудиодорожка: английская

Режиссер: Скримин Мэд Джордж / Screaming Mad George , Стив Ванг / Steve Wang

В ролях: Джек Армстронг, Марк Хэмилл, Вивиан Ву, Дэвид Гэйл, Джонни Сайко, Грег Пайк, Джимми Уолкер, Питер Спеллос, Майкл Берриман, Спайс Уильямс, Дебора Горман, Джеффри Комбс

Описание: Инопланетяне прибыли на Землю, чтобы создать новое органическое оружие — человеческий разум. Имплантируя в человеческий мозг дополнительный ген, они превращают людей в непобедимых монстров.Только альтернативное оружие — «Гайвер» может противостоять порабощению. «Гайвер» представляет собой некий биокостюм, стократно увеличивающий прыткость и силу носителя. Случайным обладателем «Гайвера» становится обыкновенный студент, изучающий каратэ.

Качество видео: DVDRip-AVCФормат видео: MKVВидео кодек: h364Аудио кодек: AC3Видео: [email protected] (16:9), 23.976 fps, h364, 1 838 Kbps, 0.239 bit/pixelАудио #1: 48 kHz, AC3 Dolby Digital, 2/0 (L,R) ch, ~192kbps | AVOАудио #2: 48 kHz, AC3 Dolby Digital, 2/0 (L,R) ch, ~192kbps | OriginalРаздача от:

D:Мои рипыGajver_DVDRip-AVC.by_dexter_lex.mkvGeneralUnique ID : 229684614453254983639795584506741804888 (0xACCBA5CDF78973779F3630873A224F58)Complete name : D:Мои рипыGajver_DVDRip-AVC.by_dexter_lex.mkvFormat : MatroskaFormat version : Version 4 / Version 2File size : 1.44 GiBDuration : 1h 32mnOverall bit rate : 2 223 KbpsEncoded date : UTC 2013-08-07 05:08:41Writing application : mkvmerge v6.1.0 ('Old Devil') built on Mar 4 2013 09:10:42Writing library : libebml v1.3.0 + libmatroska v1.4.0Video #1ID : 1Format : AVCFormat/Info : Advanced Video CodecFormat profile : [email protected] settings, CABAC : YesFormat settings, ReFrames : 11 framesCodec ID : V_MPEG4/ISO/AVCDuration : 1h 32mnBit rate : 1 838 KbpsWidth : 704 pixelsHeight : 456 pixelsDisplay aspect ratio : 16:9Frame rate : 23.976 fpsColor space : YUVChroma subsampling : 4:2:0Bit depth : 8 bitsScan type : ProgressiveBits/(Pixel*Frame) : 0.239Stream size : 1.16 GiB (81%)Writing library : x264 core 130 r2273 b3065e6Encoding settings : cabac=1 / ref=11 / deblock=1:-2:-1 / analyse=0x3:0x113 / me=umh / subme=10 / psy=1 / psy_rd=1.00:0.20 / mixed_ref=1 / me_range=32 / chroma_me=1 / trellis=2 / 8x8dct=1 / cqm=0 / deadzone=21,11 / fast_pskip=0 / chroma_qp_offset=-3 / threads=6 / lookahead_threads=1 / sliced_threads=0 / nr=0 / decimate=1 / interlaced=0 / bluray_compat=0 / constrained_intra=0 / bframes=8 / b_pyramid=2 / b_adapt=2 / b_bias=0 / direct=3 / weightb=1 / open_gop=0 / weightp=2 / keyint=240 / keyint_min=23 / scenecut=40 / intra_refresh=0 / rc_lookahead=60 / rc=2pass / mbtree=1 / bitrate=1838 / ratetol=1.0 / qcomp=0.60 / qpmin=0 / qpmax=69 / qpstep=4 / cplxblur=20.0 / qblur=0.5 / ip_ratio=1.40 / aq=1:1.00Default : YesForced : NoAudio #2ID : 2Format : AC-3Format/Info : Audio Coding 3Mode extension : CM (complete main)Codec ID : A_AC3Duration : 1h 32mnBit rate mode : ConstantBit rate : 192 KbpsChannel(s) : 2 channelsChannel positions : Front: L RSampling rate : 48.0 KHzBit depth : 16 bitsCompression mode : LossyStream size : 127 MiB (9%)Title : AVO ГавриловLanguage : RussianDefault : YesForced : NoAudio #3ID : 3Format : AC-3Format/Info : Audio Coding 3Mode extension : CM (complete main)Codec ID : A_AC3Duration : 1h 32mnBit rate mode : ConstantBit rate : 192 KbpsChannel(s) : 2 channelsChannel positions : Front: L RSampling rate : 48.0 KHzBit depth : 16 bitsCompression mode : LossyStream size : 127 MiB (9%)Title : OriginalLanguage : EnglishDefault : NoForced : No

Скачать Гайвер через торрент http://i54.fastpic.ru/big/2013/0321/db/8ad728f6c56427e81729619adae38ddb.jpg Скачать фильм Гайвер через торрент бесплантно в хорошем качестве Описание: Инопланетяне прибыли на Землю, чтобы создать новое органическое оружие — человеческий разум. Имплантируя в человеческий мозг ... 2013-08-11 09:26 9.1 10 14

Loading...

Loading...

Рекламный пират

11-08-2013 09:28 Гайвер Скачать торрент  

По сравнение с предыдущей раздачами тут преимущество в оригинальную аудиодорожку и анаморфное разрешение.

11-08-2013 10:18 Гайвер Скачать торрент  

второго в студию!

11-08-2013 11:00 Гайвер Скачать торрент  

да прикольный был фильм, жаль что не переснимут.

11-08-2013 12:08 Гайвер Скачать торрент  

asash писал(а):

да прикольный был фильм, жаль что не переснимут.

Точно, на новый лад был-бы вообще неплох. В своё время, сколько раз его посмотрел.

11-08-2013 13:37 Гайвер Скачать торрент  

vodorod

Будет второй только позже.

Я первый раз посмотрел фильм где то в конце 90-х годов, точно не помню когда. Но первые впечатления были изумительные, еще помню видик кассету жувал некоторые фрагменты не до конца досматривал. Было детство :)

11-08-2013 15:07 Гайвер Скачать торрент  

мда.. молодость :((((

11-08-2013 15:31 Гайвер Скачать торрент  

у меня гайвер был на VHS вместе с Правдивой ложью

Дорогой пользователь! Огромная просьба, поблагодарите релизера, оцените раздачу и оставьте свои комментарий, если Вы скачали Гайвер через торрент бесплатно! Внесите свою лепту в развитие PiratBit!

Комментировать посты могут только пользователи прошедшие не сложную регистрацию

Гайвер через торрент Скачать бесплатно Гайвер Гайвер скачать торрент Гайвер смотреть онлайн Cкачать фильм Гайвер бесплатно Гайвер скачать торрент в хорошем качестве Гайвер смотреть онлайн бесплатно в хорошем качестве

Вы не можете начинать темыВы не можете отвечать на сообщенияВы не можете редактировать свои сообщенияВы не можете удалять свои сообщенияВы не можете голосовать в опросахВы не можете прикреплять файлы к сообщениямВы можете скачивать файлы

piratbit.ru


Смотрите также