Гиппопотам фильм 2017 скачать торрент в хорошем качестве hd 1080


2017 hd 720, 1080

!

: : The Hippopotamus : 2017: : : , , , , , , , , ,

IMDB: 7.1/10 (141 ) : 6.8/10 (718 )

:"" , . . . . , . . , .

. , . , , . , , . , . , .

: : 1 26 : (, ) | iTunes

: AVI: BDRip

2398

556

udp://shubt.net:2710

470 4 39

udp://bt.megapeer.org:6969

423 3 5000

udp://kaztorka.org:2710

79 22 95

http://tracker.filetracker.pl:8089/announce

53 87 64

http://tracker2.wasabii.com.tw:6969/announce

68 62 73

http://tracker.grepler.com:6969/announce

97 13 53

http://125.227.35.196:6969/announce

58 78 98

http://tracker.tiny-vps.com:6969/announce

52 25 49

http://87.248.186.252:8080/announce

2 1 41

http://210.244.71.25:6969/announce

415 6 3847

http://46.4.109.148:6969/announce

52 80 23

udp://46.148.18.250:2710

470 4 38

http://tracker.dler.org:6969/announce

77 98 77

udp://[2001:67c:28f8:92::1111:1]:2710

20 51 69

udp://ipv6.leechers-paradise.org:6969

62 22 29

1,42 Gb

434

The.Hippopotamus.2017.BDRip.1.42Gb.MegaPeer.avi (1,42 Gb)

858

668

udp://shubt.net:2710

39 1 2

udp://tracker.openbittorrent.com:80/announce

12 40 68

udp://tracker.publicbt.com:80/announce

57 93 56

http://tracker.filetracker.pl:8089/announce

76 23 55

http://tracker2.wasabii.com.tw:6969/announce

80 97 94

http://tracker.grepler.com:6969/announce

87 69 61

http://125.227.35.196:6969/announce

38 51 27

http://tracker.tiny-vps.com:6969/announce

55 52 33

http://87.248.186.252:8080/announce

40 26 39

http://210.244.71.25:6969/announce

42 1 213

http://46.4.109.148:6969/announce

76 13 90

udp://46.148.18.250:2710

40 1 2

http://tracker.dler.org:6969/announce

85 84 82

udp://[2001:67c:28f8:92::1111:1]:2710

59 42 88

udp://ipv6.leechers-paradise.org:6969

72 75 29

4,18 Gb

33

The.Hippopotamus.2017.BDRip.720p.ExKinoRay.mkv (4,18 Gb)

763

724

udp://shubt.net:2710

38 94 4

udp://tracker.openbittorrent.com:80/announce

40 26 69

udp://tracker.publicbt.com:80/announce

97 66 14

http://tracker.filetracker.pl:8089/announce

21 36 26

http://tracker2.wasabii.com.tw:6969/announce

22 22 65

http://tracker.grepler.com:6969/announce

94 39 29

http://125.227.35.196:6969/announce

20 37 35

http://tracker.tiny-vps.com:6969/announce

87 37 70

http://87.248.186.252:8080/announce

62 77 15

http://210.244.71.25:6969/announce

36 1 35

http://46.4.109.148:6969/announce

79 80 22

udp://46.148.18.250:2710

38 30 4

http://tracker.dler.org:6969/announce

60 52 82

udp://[2001:67c:28f8:92::1111:1]:2710

10 72 21

udp://ipv6.leechers-paradise.org:6969

59 55 69

8,75 Gb

19

The.Hippopotamus.2017.BDRip.1080p.ExKinoRay.mkv (8,75 Gb)

vtorrents.net

Скачать торрент Гиппопотам / The Hippopotamus (2017) BDRip 1080p от ExKinoRay

Информация о фильмеНазвание: ГиппопотамОригинальное название: The HippopotamusГод выхода: 2017Жанр: КомедияРежиссер: Джон ДженксВ ролях: Мэттью Модайн, Рассел Тови, Фиона Шоу, Роджер Аллам, Тим МакИннерни, Джеральдин Сомервилль, Эмили Беррингтон, Адриан Буше, Лайн Рени, Томми Найт

О фильме:Низвергнутый поэт, страстный любитель виски и дебошир Тэд Уоллес получает странное предложение от своей крестной дочери. Он должен отправиться в имение своего школьного друга, чтобы расследовать серию чудесных исцелений, всполошивших аристократическое семейство. В центре этих событий оказывается младший сын лорда Логан - ангельский подросток с необузданной сексуальной фантазией. Прожженный скептик и циник Тэд горит желанием вывести всех на чистую воду, однако разгадка «тайны без преступления» приводит к поразительным последствиям.

Страна: ВеликобританияСтудия: Electric Shadow CompanyПродолжительность: 01:29:20Перевод: Профессиональный многоголосый | iTunes

ФайлКачество: BDRip 1080pВидео: MPEG-4 AVC, 1920x804, 13.0 Mbit/s, 24.000 fpsЗвук: Аудио #01: 48 kHz, AC3, 5.1, 384 Kbps | iTunes | RUS |Аудио #02: 48 kHz, AC3, 5.1, 640 Kbps | Оригинал | ENG |Субтитры: Английские

MI

General Unique ID : 209749054995860814491235476747266430416 (0x9DCC32D64AE6D69385C2CD54A33A15D0) Complete name : C:UsersbattiDesktopThe.Hippopotamus.2017.BDRip.1080p.ExKinoRay.mkv Format : Matroska Format version : Version 4 / Version 2 File size : 8.75 GiB Duration : 1 h 29 min Overall bit rate : 14.0 Mb/s Encoded date : UTC 2017-07-27 19:56:40 Writing application : mkvmerge v14.0.0 ('Flow') 64bit Writing library : libebml v1.3.4 + libmatroska v1.4.5

Video ID : 1 Format : AVC Format/Info : Advanced Video Codec Format profile : [email protected] Format settings, CABAC : Yes Format settings, ReFrames : 5 frames Codec ID : V_MPEG4/ISO/AVC Duration : 1 h 29 min Bit rate : 13.0 Mb/s Width : 1 920 pixels Height : 804 pixels Display aspect ratio : 2.40:1 Frame rate mode : Constant Frame rate : 24.000 FPS Color space : YUV Chroma subsampling : 4:2:0 Bit depth : 8 bits Scan type : Progressive Bits/(Pixel*Frame) : 0.351 Stream size : 8.11 GiB (93%) Writing library : x264 core 148 r2705 3f5ed56 Encoding settings : cabac=1 / ref=5 / deblock=1:-3:-3 / analyse=0x3:0x133 / me=umh / subme=10 / psy=1 / psy_rd=1.05:0.05 / mixed_ref=1 / me_range=48 / chroma_me=1 / trellis=2 / 8x8dct=1 / cqm=0 / deadzone=21,11 / fast_pskip=0 / chroma_qp_offset=-3 / threads=12 / lookahead_threads=2 / sliced_threads=0 / nr=0 / decimate=0 / interlaced=0 / bluray_compat=0 / constrained_intra=0 / bframes=8 / b_pyramid=2 / b_adapt=2 / b_bias=0 / direct=3 / weightb=1 / open_gop=0 / weightp=2 / keyint=240 / keyint_min=23 / scenecut=40 / intra_refresh=0 / rc_lookahead=50 / rc=2pass / mbtree=0 / bitrate=13000 / ratetol=1.0 / qcomp=0.60 / qpmin=0 / qpmax=69 / qpstep=4 / cplxblur=20.0 / qblur=0.5 / vbv_maxrate=50000 / vbv_bufsize=62500 / nal_hrd=none / filler=0 / ip_ratio=1.40 / pb_ratio=1.30 / aq=3:0.80 Language : English Default : Yes Forced : No

Audio #1 ID : 2 Format : AC-3 Format/Info : Audio Coding 3 Format settings, Endianness : Big Codec ID : A_AC3 Duration : 1 h 29 min Bit rate mode : Constant Bit rate : 384 kb/s Channel(s) : 6 channels Channel positions : Front: L C R, Side: L R, LFE Sampling rate : 48.0 kHz Frame rate : 31.250 FPS (1536 spf) Bit depth : 16 bits Compression mode : Lossy Stream size : 245 MiB (3%) Title : iTunes Language : Russian Service kind : Complete Main Default : Yes Forced : No

Audio #2 ID : 3 Format : AC-3 Format/Info : Audio Coding 3 Format settings, Endianness : Big Codec ID : A_AC3 Duration : 1 h 29 min Bit rate mode : Constant Bit rate : 640 kb/s Channel(s) : 6 channels Channel positions : Front: L C R, Side: L R, LFE Sampling rate : 48.0 kHz Frame rate : 31.250 FPS (1536 spf) Bit depth : 16 bits Compression mode : Lossy Stream size : 409 MiB (5%) Title : Original Language : English Service kind : Complete Main Default : No Forced : No

Text ID : 4 Format : UTF-8 Codec ID : S_TEXT/UTF8 Codec ID/Info : UTF-8 Plain Text Duration : 1 h 25 min Bit rate : 77 b/s Count of elements : 1571 Stream size : 48.2 KiB (0%) Title : SDH Language : English Default : No Forced : No

Menu 00:00:00.000 : en:00:00:00.000 00:02:21.958 : en:00:02:21.958 00:08:27.333 : en:00:08:27.333 00:14:43.000 : en:00:14:43.000 00:18:29.458 : en:00:18:29.458 00:25:19.916 : en:00:25:19.916 00:33:56.291 : en:00:33:56.291 00:39:09.625 : en:00:39:09.625 00:44:04.166 : en:00:44:04.166 00:50:00.208 : en:00:50:00.208 00:55:28.125 : en:00:55:28.125 00:59:55.500 : en:00:59:55.500 01:04:11.875 : en:01:04:11.875 01:10:58.125 : en:01:10:58.125 01:17:04.750 : en:01:17:04.750 01:22:31.041 : en:01:22:31.041 01:25:43.416 : en:01:25:43.416

Релиз от: Автор релиза: Подпишись на меня, кликни по картинке > :

krutor.org

Скачать фильм Гиппопотам через торрент в хорошем качестве бесплатно 1080p

GeneralUnique ID : 205616619483887826679153606006679786013 (0x9AB0520931552339BF57B25600FFD21D)Complete name : F:\Video\The.Hippopotamus.2017.BDREMUX.1080p.ExKinoRay.mkvFormat : MatroskaFormat version : Version 4 / Version 2File size : 20.5 GiBDuration : 1 h 29 minOverall bit rate : 32.8 Mb/sEncoded date : UTC 2017-07-27 20:47:25Writing application : mkvmerge v14.0.0 ('Flow') 64bitWriting library : libebml v1.3.4 + libmatroska v1.4.5

VideoID : 1Format : AVCFormat/Info : Advanced Video CodecFormat profile : [email protected] settings, CABAC : YesFormat settings, ReFrames : 4 framesCodec ID : V_MPEG4/ISO/AVCDuration : 1 h 29 minBit rate mode : ConstantBit rate : 30.0 Mb/sWidth : 1 920 pixelsHeight : 1 080 pixelsDisplay aspect ratio : 16:9Frame rate mode : ConstantFrame rate : 24.000 FPSStandard : NTSCColor space : YUVChroma subsampling : 4:2:0Bit depth : 8 bitsScan type : ProgressiveBits/(Pixel*Frame) : 0.603Stream size : 17.9 GiB (87%)Language : EnglishDefault : YesForced : NoColor range : LimitedColor primaries : BT.709Transfer characteristics : BT.709Matrix coefficients : BT.709

Audio #1ID : 2Format : AC-3Format/Info : Audio Coding 3Format settings, Endianness : BigCodec ID : A_AC3Duration : 1 h 29 minBit rate mode : ConstantBit rate : 384 kb/sChannel(s) : 6 channelsChannel positions : Front: L C R, Side: L R, LFESampling rate : 48.0 kHzFrame rate : 31.250 FPS (1536 spf)Bit depth : 16 bitsCompression mode : LossyStream size : 245 MiB (1%)Title : iTunesLanguage : RussianService kind : Complete MainDefault : YesForced : No

Audio #2ID : 3Format : DTSFormat/Info : Digital Theater SystemsFormat profile : MA / CoreMode : 16Format settings, Endianness : BigCodec ID : A_DTSDuration : 1 h 29 minBit rate mode : Variable / ConstantBit rate : 3 760 kb/s / 1 509 kb/sChannel(s) : 6 channelsChannel positions : Front: L C R, Side: L R, LFESampling rate : 48.0 kHzFrame rate : 93.750 FPS (512 spf)Bit depth : 24 bitsCompression mode : Lossless / LossyStream size : 2.35 GiB (11%)Title : OriginalLanguage : EnglishDefault : NoForced : No

TextID : 4Format : UTF-8Codec ID : S_TEXT/UTF8Codec ID/Info : UTF-8 Plain TextDuration : 1 h 25 minBit rate : 77 b/sCount of elements : 1571Stream size : 48.2 KiB (0%)Title : SDHLanguage : EnglishDefault : NoForced : No

Menu00:00:00.000 : en:00:00:00.00000:02:21.958 : en:00:02:21.95800:08:27.333 : en:00:08:27.33300:14:43.000 : en:00:14:43.00000:18:29.458 : en:00:18:29.45800:25:19.916 : en:00:25:19.91600:33:56.291 : en:00:33:56.29100:39:09.625 : en:00:39:09.62500:44:04.166 : en:00:44:04.16600:50:00.208 : en:00:50:00.20800:55:28.125 : en:00:55:28.12500:59:55.500 : en:00:59:55.50001:04:11.875 : en:01:04:11.87501:10:58.125 : en:01:10:58.12501:17:04.750 : en:01:17:04.75001:22:31.041 : en:01:22:31.04101:25:43.416 : en:01:25:43.416

piratbit.ru

2017 hd 720, 1080

!

: : The Hippopotamus : 2017: : : , , , , , , , , ,

IMDB: 7.1/10 (141 ) : 6.8/10 (718 )

:"" , . . . . , . . , .

. , . , , . , , . , . , .

: : 1 26 : (, ) | iTunes

: AVI: BDRip

2295

555

udp://shubt.net:2710

442 17 276

udp://bt.megapeer.org:6969

399 14 2442

udp://kaztorka.org:2710

59 78 47

http://tracker.filetracker.pl:8089/announce

61 14 57

http://tracker2.wasabii.com.tw:6969/announce

78 14 32

http://tracker.grepler.com:6969/announce

71 74 98

http://125.227.35.196:6969/announce

50 36 61

http://tracker.tiny-vps.com:6969/announce

40 65 31

http://87.248.186.252:8080/announce

25 20 1

http://210.244.71.25:6969/announce

429 21 1509

http://46.4.109.148:6969/announce

97 78 95

udp://46.148.18.250:2710

445 17 276

http://tracker.dler.org:6969/announce

50 44 77

udp://[2001:67c:28f8:92::1111:1]:2710

11 27 100

udp://ipv6.leechers-paradise.org:6969

38 36 16

1,42 Gb

424

The.Hippopotamus.2017.BDRip.1.42Gb.MegaPeer.avi (1,42 Gb)

838

832

udp://shubt.net:2710

53 1 14

udp://tracker.openbittorrent.com:80/announce

14 92 67

udp://tracker.publicbt.com:80/announce

83 97 96

http://tracker.filetracker.pl:8089/announce

67 74 55

http://tracker2.wasabii.com.tw:6969/announce

13 90 47

http://tracker.grepler.com:6969/announce

27 13 95

http://125.227.35.196:6969/announce

66 88 33

http://tracker.tiny-vps.com:6969/announce

93 28 90

http://87.248.186.252:8080/announce

69 25 31

http://210.244.71.25:6969/announce

46 57 114

http://46.4.109.148:6969/announce

91 57 70

udp://46.148.18.250:2710

53 1 14

http://tracker.dler.org:6969/announce

61 63 34

udp://[2001:67c:28f8:92::1111:1]:2710

80 86 75

udp://ipv6.leechers-paradise.org:6969

22 60 92

4,18 Gb

32

The.Hippopotamus.2017.BDRip.720p.ExKinoRay.mkv (4,18 Gb)

533

837

udp://shubt.net:2710

40 94 16

udp://tracker.openbittorrent.com:80/announce

75 14 47

udp://tracker.publicbt.com:80/announce

10 39 96

http://tracker.filetracker.pl:8089/announce

45 75 59

http://tracker2.wasabii.com.tw:6969/announce

10 93 35

http://tracker.grepler.com:6969/announce

24 81 96

http://125.227.35.196:6969/announce

23 69 83

http://tracker.tiny-vps.com:6969/announce

73 11 89

http://87.248.186.252:8080/announce

3 22 29

http://210.244.71.25:6969/announce

39 67 77

http://46.4.109.148:6969/announce

42 48 99

udp://46.148.18.250:2710

40 81 16

http://tracker.dler.org:6969/announce

21 29 21

udp://[2001:67c:28f8:92::1111:1]:2710

64 20 82

udp://ipv6.leechers-paradise.org:6969

24 94 69

8,75 Gb

18

The.Hippopotamus.2017.BDRip.1080p.ExKinoRay.mkv (8,75 Gb)

torrentor-thinkcenter.pw


Смотрите также