Хитмэн агент 47 фильм скачать торрент бесплатно в хорошем качестве


Агент 47 через торрент в хорошем качестве бесплатно BDRip-AVC от sokol_ok

Раздают: 1 [ 0 KB/s ]
Размер: 1.46 GB | Добавлен: 1 год 11 мес. назад | Торрент скачан:535 раз
Реклама Дарим 3000 рублей за регистрацию, не упусти свой шанс получить шикарный бонус!!!

19-11-2015 13:44 Хитмэн: Агент 47 Скачать торрент  

Хитмэн: Агент 47Hitman: Agent 47 Страна: США, Германия, ИндонезияЖанр: боевик, фантастика, триллер

Год выпуска: 2015Продолжительность: 01:36:16

Перевод: Профессиональный (полное дублирование) [Лицензия BD CEE]Субтитры: русские, английскиеОригинальная аудиодорожка: нет

Режиссер: Александр Бах / Aleksander Bach

В ролях: Руперт Френд, Ханна Уэр, Закари Куинто, Киран Хайндс, Томас Кречман, Анджела Бейби, Дэн Баккедаль, Шарлин Бек, Михаэль Борнхюттер, Мелисса Бротон, Нильс Брункхорст, Михаэлла Каспар

Описание:История об элитном убийце, созданном при помощи генной инженерии, который объединяется с женщиной, чтобы помочь ей найти отца и раскрыть тайну своего происхождения. Релиз:

Автор рипа: Stalker oK

Сэмпл

Качество видео: BDRip-AVC [Blu-ray 1080p]Формат видео: MKVВидео кодек: AVCАудио кодек: AC3Видео: 1726 Кбит/сек, 1032x432 (2.35:1), 23,976 кадр/сек, AVCАудио: русский, 448 Кбит/сек, 48 КГц, 16 бит, 5.1, AC3Навигация по главам: есть

GeneralUnique ID : 240855751870765125713710220672448637006 (0xB53321672CE389BC81723A998414A84E)Complete name : M:\Rips\Hitman Agent 47\Hitman.Agent.47.2015.BDRip-AVC.Dub.1.45Gb...stalkerok.new-team.mkvFormat : MatroskaFile size : 1.46 GiBDuration : 1h 36mnOverall bit rate : 2 175 KbpsMovie name : Hitman: Agent 47 (2015) (New-Team) (Rip by Stalker oK)Encoded date : UTC 2015-11-19 13:23:26Writing application : mkvmerge v7.9.0 ('Birds') 64bitWriting library : libebml v1.3.1 + libmatroska v1.4.2

VideoID : 1Format : AVCFormat/Info : Advanced Video CodecFormat profile : [email protected] settings, CABAC : YesFormat settings, ReFrames : 13 framesCodec ID : V_MPEG4/ISO/AVCDuration : 1h 36mnBit rate : 1 726 KbpsWidth : 1 032 pixelsHeight : 432 pixelsDisplay aspect ratio : 2.35:1Original display aspect ratio : 2.35:1Frame rate : 23.976 fpsColor space : YUVChroma subsampling : 4:2:0Bit depth : 8 bitsScan type : ProgressiveBits/(Pixel*Frame) : 0.161Stream size : 1.13 GiB (77%)Title : Hitman: Agent 47 (2015) (New-Team) (Rip by Stalker oK)Writing library : x264 core 146 r2538kMod 121396cEncoding settings : cabac=1 / ref=13 / deblock=1:-3:-3 / analyse=0x3:0x133 / me=umh / subme=11 / psy=1 / fade_compensate=0.00 / psy_rd=1.00:0.10 / mixed_ref=1 / me_range=48 / chroma_me=1 / trellis=2 / 8x8dct=1 / cqm=0 / deadzone=21,11 / fast_pskip=0 / chroma_qp_offset=-3 / threads=12 / lookahead_threads=3 / sliced_threads=0 / nr=0 / decimate=0 / interlaced=0 / bluray_compat=0 / constrained_intra=0 / fgo=0 / bframes=14 / b_pyramid=2 / b_adapt=2 / b_bias=0 / direct=3 / weightb=1 / open_gop=0 / weightp=2 / keyint=240 / keyint_min=23 / scenecut=40 / intra_refresh=0 / rc_lookahead=60 / rc=2pass / mbtree=0 / bitrate=1726 / ratetol=1.0 / qcomp=0.70 / qpmin=0 / qpmax=69 / qpstep=4 / cplxblur=20.0 / qblur=0.5 / vbv_maxrate=50000 / vbv_bufsize=62500 / nal_hrd=none / filler=0 / ip_ratio=1.40 / pb_ratio=1.30 / aq=3:0.90

AudioID : 2Format : AC-3Format/Info : Audio Coding 3Mode extension : CM (complete main)Codec ID : A_AC3Duration : 1h 36mnBit rate mode : ConstantBit rate : 448 KbpsChannel(s) : 6 channelsChannel positions : Front: L C R, Side: L R, LFESampling rate : 48.0 KHzBit depth : 16 bitsCompression mode : LossyStream size : 309 MiB (21%)Language : Russian

Text #1ID : 3Format : UTF-8Codec ID : S_TEXT/UTF8Codec ID/Info : UTF-8 Plain TextLanguage : Russian

Text #2ID : 4Format : UTF-8Codec ID : S_TEXT/UTF8Codec ID/Info : UTF-8 Plain TextLanguage : English

Menu00:00:00.000 : en:Chapter 100:07:11.347 : en:Chapter 200:09:02.959 : en:Chapter 300:13:11.582 : en:Chapter 400:16:21.605 : en:Chapter 500:19:22.786 : en:Chapter 600:24:43.815 : en:Chapter 700:27:19.179 : en:Chapter 800:30:18.691 : en:Chapter 900:33:03.815 : en:Chapter 1000:38:18.713 : en:Chapter 1100:43:11.755 : en:Chapter 1200:46:53.435 : en:Chapter 1300:50:39.870 : en:Chapter 1400:54:02.530 : en:Chapter 1500:59:50.587 : en:Chapter 1601:06:01.749 : en:Chapter 1701:09:06.142 : en:Chapter 1801:13:23.190 : en:Chapter 1901:16:55.319 : en:Chapter 2001:21:15.745 : en:Chapter 2101:25:20.824 : en:Chapter 2201:28:06.155 : en:Chapter 2301:31:17.847 : en:Chapter 24

Скачать Хитмэн: Агент 47 через торрент http://i72.fastpic.ru/big/2015/0531/46/68ef8a2783b58e5344cc30bbd3f1b046.png Скачать фильм Хитмэн: Агент 47 через торрент бесплантно в хорошем качестве Описание:История об элитном убийце, созданном при помощи генной инженерии, который объединяется с женщиной, чтобы помочь ей найти отца и ... 2015-11-19 13:44 8.7 10 17

Loading...

Loading...

% Раздел Тема Автор DL S | L
Фильмы 2015 [DVDrip, WEB-DLRip, HDrip] [ 2.17 GB ] Хитмэн: Агент 47 / Hitman: Agent 47 [2015 Германия Индонезия BDRip-AVC от sokol_ok] DUB sokol_ok Скачать
Фильмы [HD 720p, 1080p] (Хороший звук DUB, MVO) [ 4.34 GB ] Хитмэн: Агент 47 / Hitman: Agent 47 [2015 BDRip 720p] DUB potroks Скачать
Фильмы 2015 [DVDrip, WEB-DLRip, HDrip] [ 1.46 GB ] Хитмэн: Агент 47 / Hitman: Agent 47 [2015 BDRip-AVC] DUB potroks Скачать
Фильмы 2015 [DVDrip, WEB-DLRip, HDrip] [ 1.46 GB ] Хитмэн: Агент 47 / Hitman: Agent 47 [2015 BDRip] DUB Twi7ter Скачать
Фильмы 2015 [DVDrip, WEB-DLRip, HDrip] [ 2.18 GB ] Хитмэн: Агент 47 / Hitman: Agent 47 [2015 BDRip-AVC] DUB potroks Скачать
Фильмы [HD 720p, 1080p] (Хороший звук DUB, MVO) [ 4.95 GB ] Хитмэн: Агент 47 / Hitman: Agent 47 [2015 BDRip 720p] DUB Ворон Скачать
Фильмы 2015 [DVDrip, WEB-DLRip, HDrip] [ 1.36 GB ] Хитмэн: Агент 47 / Hitman: Agent 47 [2015 HDRip-AVC] [] killermax2013 Скачать

Рекламный пират

28-11-2015 01:20 Хитмэн: Агент 47 Скачать торрент  

Рассмотрим фильм с двух сторон:Кино по культовой игре.Первая и непоправимая ошибка фильма — это, опять же, актёр, играющий протагониста. Руперт Френд — никаким боком не подходит для 47-го, а его лысина, которую и лысиной назвать нельзя, и долбанный штрих-код, который, видимо, представляет из себя простую наклейку из какой-нибудь Hubba Bubba — выбивают из колеи. Стоит ли распинаться о том, что картина полностью лишена канонизма и плюет в лицо фанатам игровой серии? Думаю нет, ибо и так всё понятно уже по первым кадрам данной нетленки.Что этот фильм что первый вышедший в 2007 году полностью провалился.Кино не по игреЕсли кто не знаком с серией игр о Хитмане или если вообще не сравнивать , то фильм вышел на твердую 6/10Экшен выглядит относительно неплохо, но, к глубочайшему сожалению, данный аспект не спас всю сложившуюся о сабже картинку. Хитмэн получился весьма посредственным боевиком. Удачной экранизацией игры этот фильм не назвать никак. Основные идеи Хитмэна из мира игр тут не переданы на экран. Да и до остросюжетного боевика высокого качества здесь тоже далеко. Вышел среднячек такой....

Дорогой пользователь! Огромная просьба, поблагодарите релизера, оцените раздачу и оставьте свои комментарий, если Вы скачали Хитмэн: Агент 47 через торрент бесплатно! Внесите свою лепту в развитие PiratBit!

Комментировать посты могут только пользователи прошедшие не сложную регистрацию

Хитмэн: Агент 47 через торрент Скачать бесплатно Хитмэн: Агент 47 Хитмэн: Агент 47 скачать торрент Хитмэн: Агент 47 смотреть онлайн Cкачать фильм Хитмэн: Агент 47 бесплатно Хитмэн: Агент 47 скачать торрент в хорошем качестве Хитмэн: Агент 47 смотреть онлайн бесплатно в хорошем качестве

Вы не можете начинать темыВы не можете отвечать на сообщенияВы не можете редактировать свои сообщенияВы не можете удалять свои сообщенияВы не можете голосовать в опросахВы не можете прикреплять файлы к сообщениямВы можете скачивать файлы

piratbit.ru

Агент 47 через торрент в хорошем качестве бесплатно BDRip-AVC от sokol_ok

Размер: 2.17 GB | Добавлен: 1 год 11 мес. назад | Торрент скачан:645 раз
Реклама Дарим 3000 рублей за регистрацию, не упусти свой шанс получить шикарный бонус!!!

19-11-2015 22:33 Хитмэн: Агент 47 Скачать торрент  

Хитмэн: Агент 47Hitman: Agent 47 Страна: США, Германия, ИндонезияЖанр: боевик, фантастика, триллер

Год выпуска: 2015Продолжительность: 01:36:16

Перевод: Профессиональный (полное дублирование) [Лицензия BD CEE]Субтитры: русские, английскиеОригинальная аудиодорожка: Английский

Режиссер: Александр Бах / Aleksander Bach

В ролях: Руперт Френд, Ханна Уэр, Закари Куинто, Киран Хайндс, Томас Кречман, Анджела Бейби, Дэн Баккедаль, Шарлин Бек, Михаэль Борнхюттер, Мелисса Бротон, Нильс Брункхорст, Михаэлла Каспар

Описание:История об элитном убийце, созданном при помощи генной инженерии, который объединяется с женщиной, чтобы помочь ей найти отца и раскрыть тайну своего происхождения. Релиз:

Автор рипа: Stalker oK

Сэмпл

Качество видео: BDRip-AVC [Blu-ray 1080p]Формат видео: MKVВидео кодек: AVCАудио кодек: AC3Видео: 2347 Кбит/сек, 1136*476 (2,35:1), в 23,976 кадр/сек, AVCАудио #1: Russian, 448 Кбит/сек, 48,0 КГц, 16 бит, 6 канала(ов), AC-3Аудио #2: English, 448 Кбит/сек, 48,0 КГц, 16 бит, 6 канала(ов), AC-3Навигация по главам: есть

ОбщееУникальный идентификатор : 244659406246777007486663481930358908081 (0xB80FB00AEC350CF78E9D4209DD26E4B1)Полное имя : M:\Rips\Hitman Agent 47\Hitman.Agent.47.2015.BDRip-AVC.Dub.2.18Gb...stalkerok.new-team.mkvФормат : MatroskaРазмер файла : 2,17 ГбайтПродолжительность : 1 ч. 36 м.Общий поток : 3231 Кбит/секНазвание фильма : Hitman: Agent 47 (2015) (New-Team) (Rip by Stalker oK)Дата кодирования : UTC 2015-11-19 18:05:54Программа кодирования : mkvmerge v7.9.0 ('Birds') 64bitБиблиотека кодирования : libebml v1.3.1 + libmatroska v1.4.2

ВидеоИдентификатор : 1Формат : AVCФормат/Информация : Advanced Video CodecПрофиль формата : [email protected]Параметр CABAC формата : ДаПараметр ReFrames формата : 12 кадрыИдентификатор кодека : V_MPEG4/ISO/AVCПродолжительность : 1 ч. 36 м.Битрейт : 2347 Кбит/секШирина : 1136 пикс.Высота : 476 пикс.Соотношение сторон : 2,35:1Частота кадров : 23,976 кадр/секЦветовое пространство : YUVПодвыборка цветности : 4:2:0Битовая глубина : 8 битТип развёртки : ПрогрессивнаяБит/(Пиксели*Кадры) : 0.181Размер потока : 1,53 Гбайт (70%)Заголовок : Hitman: Agent 47 (2015) (New-Team) (Rip by Stalker oK)Библиотека кодирования : x264 core 146 r2538kMod 121396cНастройки программы : cabac=1 / ref=12 / deblock=1:-3:-3 / analyse=0x3:0x133 / me=umh / subme=11 / psy=1 / fade_compensate=0.00 / psy_rd=1.00:0.10 / mixed_ref=1 / me_range=48 / chroma_me=1 / trellis=2 / 8x8dct=1 / cqm=0 / deadzone=21,11 / fast_pskip=0 / chroma_qp_offset=-3 / threads=12 / lookahead_threads=3 / sliced_threads=0 / nr=0 / decimate=0 / interlaced=0 / bluray_compat=0 / constrained_intra=0 / fgo=0 / bframes=13 / b_pyramid=2 / b_adapt=2 / b_bias=0 / direct=3 / weightb=1 / open_gop=0 / weightp=2 / keyint=240 / keyint_min=23 / scenecut=40 / intra_refresh=0 / rc_lookahead=60 / rc=2pass / mbtree=0 / bitrate=2347 / ratetol=1.0 / qcomp=0.70 / qpmin=0 / qpmax=69 / qpstep=4 / cplxblur=20.0 / qblur=0.5 / vbv_maxrate=50000 / vbv_bufsize=62500 / nal_hrd=none / filler=0 / ip_ratio=1.40 / pb_ratio=1.30 / aq=3:0.86

Аудио #1Идентификатор : 2Формат : AC-3Формат/Информация : Audio Coding 3Расширение режима : CM (complete main)Идентификатор кодека : A_AC3Продолжительность : 1 ч. 36 м.Вид битрейта : ПостоянныйБитрейт : 448 Кбит/секКанал(ы) : 6 канала(ов)Расположение каналов : Front: L C R, Side: L R, LFEЧастота : 48,0 КГцБитовая глубина : 16 битМетод сжатия : С потерямиРазмер потока : 309 Мбайт (14%)Язык : Russian

Аудио #2Идентификатор : 3Формат : AC-3Формат/Информация : Audio Coding 3Расширение режима : CM (complete main)Идентификатор кодека : A_AC3Продолжительность : 1 ч. 36 м.Вид битрейта : ПостоянныйБитрейт : 448 Кбит/секКанал(ы) : 6 канала(ов)Расположение каналов : Front: L C R, Side: L R, LFEЧастота : 48,0 КГцБитовая глубина : 16 битМетод сжатия : С потерямиРазмер потока : 309 Мбайт (14%)Язык : English

Текст #1Идентификатор : 4Формат : UTF-8Идентификатор кодека : S_TEXT/UTF8Идентификатор кодека/Информация : UTF-8 Plain TextЯзык : Russian

Текст #2Идентификатор : 5Формат : UTF-8Идентификатор кодека : S_TEXT/UTF8Идентификатор кодека/Информация : UTF-8 Plain TextЯзык : English

Меню00:00:00.000 : en:Chapter 100:07:11.347 : en:Chapter 200:09:02.959 : en:Chapter 300:13:11.582 : en:Chapter 400:16:21.605 : en:Chapter 500:19:22.786 : en:Chapter 600:24:43.815 : en:Chapter 700:27:19.179 : en:Chapter 800:30:18.691 : en:Chapter 900:33:03.815 : en:Chapter 1000:38:18.713 : en:Chapter 1100:43:11.755 : en:Chapter 1200:46:53.435 : en:Chapter 1300:50:39.870 : en:Chapter 1400:54:02.530 : en:Chapter 1500:59:50.587 : en:Chapter 1601:06:01.749 : en:Chapter 1701:09:06.142 : en:Chapter 1801:13:23.190 : en:Chapter 1901:16:55.319 : en:Chapter 2001:21:15.745 : en:Chapter 2101:25:20.824 : en:Chapter 2201:28:06.155 : en:Chapter 2301:31:17.847 : en:Chapter 24

Скачать Хитмэн: Агент 47 через торрент http://i72.fastpic.ru/big/2015/0531/46/68ef8a2783b58e5344cc30bbd3f1b046.png Скачать фильм Хитмэн: Агент 47 через торрент бесплантно в хорошем качестве Описание:История об элитном убийце, созданном при помощи генной инженерии, который объединяется с женщиной, чтобы помочь ей найти отца и ... 2015-11-19 22:33 9.7 10 16

Loading...

Loading...

% Раздел Тема Автор DL S | L
Фильмы [HD 720p, 1080p] (Хороший звук DUB, MVO) [ 4.34 GB ] Хитмэн: Агент 47 / Hitman: Agent 47 [2015 BDRip 720p] DUB potroks Скачать
Фильмы 2015 [DVDrip, WEB-DLRip, HDrip] [ 1.46 GB ] Хитмэн: Агент 47 / Hitman: Agent 47 [2015 Германия Индонезия BDRip-AVC от sokol_ok] DUB sokol_ok Скачать
Фильмы 2015 [DVDrip, WEB-DLRip, HDrip] [ 1.46 GB ] Хитмэн: Агент 47 / Hitman: Agent 47 [2015 BDRip-AVC] DUB potroks Скачать
Фильмы 2015 [DVDrip, WEB-DLRip, HDrip] [ 1.46 GB ] Хитмэн: Агент 47 / Hitman: Agent 47 [2015 BDRip] DUB Twi7ter Скачать
Фильмы 2015 [DVDrip, WEB-DLRip, HDrip] [ 2.18 GB ] Хитмэн: Агент 47 / Hitman: Agent 47 [2015 BDRip-AVC] DUB potroks Скачать
Фильмы [HD 720p, 1080p] (Хороший звук DUB, MVO) [ 4.95 GB ] Хитмэн: Агент 47 / Hitman: Agent 47 [2015 BDRip 720p] DUB Ворон Скачать
Фильмы 2015 [DVDrip, WEB-DLRip, HDrip] [ 1.36 GB ] Хитмэн: Агент 47 / Hitman: Agent 47 [2015 HDRip-AVC] [] killermax2013 Скачать

Рекламный пират

28-11-2015 01:20 Хитмэн: Агент 47 Скачать торрент  

Рассмотрим фильм с двух сторон:Кино по культовой игре.Первая и непоправимая ошибка фильма — это, опять же, актёр, играющий протагониста. Руперт Френд — никаким боком не подходит для 47-го, а его лысина, которую и лысиной назвать нельзя, и долбанный штрих-код, который, видимо, представляет из себя простую наклейку из какой-нибудь Hubba Bubba — выбивают из колеи. Стоит ли распинаться о том, что картина полностью лишена канонизма и плюет в лицо фанатам игровой серии? Думаю нет, ибо и так всё понятно уже по первым кадрам данной нетленки.Что этот фильм что первый вышедший в 2007 году полностью провалился.Кино не по игреЕсли кто не знаком с серией игр о Хитмане или если вообще не сравнивать , то фильм вышел на твердую 6/10Экшен выглядит относительно неплохо, но, к глубочайшему сожалению, данный аспект не спас всю сложившуюся о сабже картинку. Хитмэн получился весьма посредственным боевиком. Удачной экранизацией игры этот фильм не назвать никак. Основные идеи Хитмэна из мира игр тут не переданы на экран. Да и до остросюжетного боевика высокого качества здесь тоже далеко. Вышел среднячек такой....

29-11-2015 12:08 Хитмэн: Агент 47 Скачать торрент  

Простой боевичок, автору спс!Если бы из игры взяли различные способы ликвидации цели, то вышло бы вполне достойно!

24-01-2017 12:54 Хитмэн: Агент 47 Скачать торрент  

Первое кино Хитман, там где Ольга Куриленко играет, получился достойнее, чем этот.

Дорогой пользователь! Огромная просьба, поблагодарите релизера, оцените раздачу и оставьте свои комментарий, если Вы скачали Хитмэн: Агент 47 через торрент бесплатно! Внесите свою лепту в развитие PiratBit!

Комментировать посты могут только пользователи прошедшие не сложную регистрацию

Хитмэн: Агент 47 через торрент Скачать бесплатно Хитмэн: Агент 47 Хитмэн: Агент 47 скачать торрент Хитмэн: Агент 47 смотреть онлайн Cкачать фильм Хитмэн: Агент 47 бесплатно Хитмэн: Агент 47 скачать торрент в хорошем качестве Хитмэн: Агент 47 смотреть онлайн бесплатно в хорошем качестве

Вы не можете начинать темыВы не можете отвечать на сообщенияВы не можете редактировать свои сообщенияВы не можете удалять свои сообщенияВы не можете голосовать в опросахВы не можете прикреплять файлы к сообщениямВы можете скачивать файлы

piratbit.ru

Агент 47 через торрент в хорошем качестве бесплатно BDRip-AVC от potroks

GeneralUnique ID                   : 206147393989957460490639899883570084848 (0x9B168B3D4F575916A35956D195EA3BF0)Complete name               : Hitmen.Agent.47.2015.DUAL.BDRip.x264.-HELLYWOOD.mkvFormat                      : MatroskaFormat version              : Version 4 / Version 2File size                   : 2.18 GiBDuration                    : 1h 36mnOverall bit rate            : 3 244 KbpsMovie name                  : Hitman: Agent 47 (2015) - HELLYWOODEncoded date                : UTC 2010-02-22 21:41:31Writing application         : mkvmerge v5.8.0 ('No Sleep / Pillow') built on Sep 30 2012 10:57:14Writing library             : libebml v1.3.0 + libmatroska v1.4.0

VideoID                          : 1Format                      : AVCFormat/Info                 : Advanced Video CodecFormat profile              : [email protected] settings, CABAC      : YesFormat settings, ReFrames   : 12 framesCodec ID                    : V_MPEG4/ISO/AVCDuration                    : 1h 36mnBit rate                    : 2 346 KbpsWidth                       : 1 108 pixelsHeight                      : 464 pixelsDisplay aspect ratio        : 2.40:1Frame rate mode             : ConstantFrame rate                  : 23.976 fpsColor space                 : YUVChroma subsampling          : 4:2:0Bit depth                   : 8 bitsScan type                   : ProgressiveBits/(Pixel*Frame)          : 0.190Stream size                 : 1.54 GiB (70%)Title                       : potroksWriting library             : x264 core 148 r2638M 7599210Encoding settings           : cabac=1 / ref=12 / deblock=1:-2:-2 / analyse=0x3:0x133 / me=umh / subme=11 / psy=1 / psy_rd=1.00:0.10 / mixed_ref=1 / me_range=48 / chroma_me=1 / trellis=2 / 8x8dct=1 / cqm=0 / deadzone=21,11 / fast_pskip=0 / chroma_qp_offset=-3 / threads=10 / lookahead_threads=2 / sliced_threads=0 / nr=0 / decimate=1 / interlaced=0 / bluray_compat=0 / constrained_intra=0 / bframes=13 / b_pyramid=2 / b_adapt=2 / b_bias=0 / direct=3 / weightb=1 / open_gop=0 / weightp=2 / keyint=250 / keyint_min=23 / scenecut=40 / intra_refresh=0 / rc=2pass / mbtree=0 / bitrate=2346 / ratetol=1.0 / qcomp=0.70 / qpmin=0 / qpmax=69 / qpstep=4 / cplxblur=20.0 / qblur=0.5 / ip_ratio=1.40 / pb_ratio=1.30 / aq=1:0.80Language                    : EnglishDefault                     : YesForced                      : No

Audio #1ID                          : 2Format                      : AC-3Format/Info                 : Audio Coding 3Mode extension              : CM (complete main)Format settings, Endianness : BigCodec ID                    : A_AC3Duration                    : 1h 36mnBit rate mode               : ConstantBit rate                    : 448 KbpsChannel(s)                  : 6 channelsChannel positions           : Front: L C R, Side: L R, LFESampling rate               : 48.0 KHzCompression mode            : LossyStream size                 : 308 MiB (14%)Title                       : Dub | DD 5.1 @ 448 kbps - Blu-Ray CEELanguage                    : RussianDefault                     : YesForced                      : No

Audio #2ID                          : 3Format                      : AC-3Format/Info                 : Audio Coding 3Mode extension              : CM (complete main)Format settings, Endianness : BigCodec ID                    : A_AC3Duration                    : 1h 36mnBit rate mode               : ConstantBit rate                    : 448 KbpsChannel(s)                  : 6 channelsChannel positions           : Front: L C R, Side: L R, LFESampling rate               : 48.0 KHzCompression mode            : LossyStream size                 : 308 MiB (14%)Title                       : Original | DD 5.1 @ 448 kbpsLanguage                    : EnglishDefault                     : NoForced                      : No

Text #1ID                          : 4Format                      : UTF-8Codec ID                    : S_TEXT/UTF8Codec ID/Info               : UTF-8 Plain TextTitle                       : Blu-RayLanguage                    : RussianDefault                     : NoForced                      : No

Text #2ID                          : 5Format                      : UTF-8Codec ID                    : S_TEXT/UTF8Codec ID/Info               : UTF-8 Plain TextTitle                       : Blu-RayLanguage                    : UkrainianDefault                     : NoForced                      : No

Text #3ID                          : 6Format                      : UTF-8Codec ID                    : S_TEXT/UTF8Codec ID/Info               : UTF-8 Plain TextTitle                       : FullLanguage                    : EnglishDefault                     : NoForced                      : No

Text #4ID                          : 7Format                      : UTF-8Codec ID                    : S_TEXT/UTF8Codec ID/Info               : UTF-8 Plain TextTitle                       : SDHLanguage                    : EnglishDefault                     : NoForced                      : No

Text #5ID                          : 8Format                      : UTF-8Codec ID                    : S_TEXT/UTF8Codec ID/Info               : UTF-8 Plain TextTitle                       : SDH-ColoredLanguage                    : EnglishDefault                     : NoForced                      : No

Menu00:00:00.000                : :(01)00:00:00:00000:07:11.347                : :(02)00:07:11:34700:09:02.959                : :(03)00:09:02:95900:13:11.582                : :(04)00:13:11:58200:16:21.605                : :(05)00:16:21:60500:19:22.786                : :(06)00:19:22:78600:24:43.815                : :(07)00:24:43:81500:27:19.179                : :(08)00:27:19:17900:30:18.691                : :(09)00:30:18:69100:33:03.815                : :(10)00:33:03:81500:38:18.713                : :(11)00:38:18:71300:43:11.755                : :(12)00:43:11:75500:46:53.435                : :(13)00:46:53:43500:50:39.870                : :(14)00:50:39:87000:54:02.530                : :(15)00:54:02:53000:59:50.587                : :(16)00:59:50:58701:06:01.749                : :(17)01:06:01:74901:09:06.142                : :(18)01:09:06:14201:13:23.190                : :(19)01:13:23:19001:16:55.319                : :(20)01:16:55:31901:21:15.745                : :(21)01:21:15:74501:25:20.824                : :(22)01:25:20:82401:28:06.155                : :(23)01:28:06:15501:31:17.847                : :(24)01:31:17:847

piratbit.ru

Агент 47 через торрент в хорошем качестве бесплатно HDTV 1080p

Размер: 3.2 GB | Добавлен: 2 года назад | Торрент скачан:4006 раз
Реклама Дарим 3000 рублей за регистрацию, не упусти свой шанс получить шикарный бонус!!!

25-10-2015 20:08 Хитмэн: Агент 47 Скачать торрент  

Хитмэн: Агент 47 / Hitman: Agent 47 ИНФОРМАЦИЯ: Год выпуска:2015 Страна: США, Германия, Индонезия Жанр: боевик, фантастика, триллер Продолжительность: 01:36:12 Перевод: Дубляж - [Чистый звук] Режиссер: Александр БахВ Ролях: Руперт Френд (Agent 47), Ханна Уэр (Katia), Закари Куинто (John Smith), Киран Хайндс (Litvenko), Томас Кречман (Le Clerq), Анджела Бейби (Diana), Дэн Баккедаль (Sanders), Шарлин Бек (Tenement Woman), Михаэль Борнхюттер (Berlin Police Officer #1), Мелисса Бротон (Gardens by the Bay Woman with Baby), Нильс Брункхорст (Syndicate Doctor), Михаэлла Каспар (Hall of Records Clerk)Описание: История об элитном убийце, созданном при помощи генной инженерии, который объединяется с женщиной, чтобы помочь ей найти отца и раскрыть тайну своего происхождения.
  • Мировая премьера:19 августа 2015 ТЕХ.ДАННЫЕ: Качество: HDTV 1080p Формат: MKV Видео: AVC, 1920x1080 (16:9), 4218 kbps, 29,970 fps, 0,068 bpp Аудио №1: русский / AC3 / 2.0 / 48 kHz / 192 kbps / 16 bit || Аудио №2: английский / AC3 / 2.0 / 48 kHz / 256 kbps / 16 bit GeneralUnique ID : 227679678798245370903286320248397453600 (0xAB4982D84681319D9C894CD0B3B75920)Complete name : D:\Торенты\Хитмэн.Агент.47.2015.WEBRip.[1080].mkvFormat : MatroskaFormat version : Version 2File size : 3.20 GiBDuration : 1h 36mnOverall bit rate : 4 762 KbpsMovie name : Хитмэн.Агент.47.2015.WEBRip.[1080p].nnm-clubEncoded date : UTC 2015-10-25 17:27:21Writing application : mkvmerge v8.3.0 ('Over the Horizon') 64bitWriting library : libebml v1.3.1 + libmatroska v1.4.2

    VideoID : 1Format : AVCFormat/Info : Advanced Video CodecFormat profile : [email protected] settings, CABAC : YesFormat settings, ReFrames : 4 framesCodec ID : V_MPEG4/ISO/AVCDuration : 1h 36mnBit rate : 4 219 KbpsWidth : 1 920 pixelsHeight : 1 080 pixelsDisplay aspect ratio : 16:9Frame rate mode : VariableFrame rate : 29.970 fpsColor space : YUVChroma subsampling : 4:2:0Bit depth : 8 bitsScan type : ProgressiveBits/(Pixel*Frame) : 0.068Stream size : 2.84 GiB (89%)Title : Хитмэн.Агент.47.2015.WEBRip.[1080p].nnm-club.mkvWriting library : x264 core 148 r2597M e86f3a1Encoding settings : cabac=1 / ref=4 / deblock=1:0:0 / analyse=0x3:0x113 / me=umh / subme=8 / psy=1 / psy_rd=1.00:0.00 / mixed_ref=1 / me_range=16 / chroma_me=1 / trellis=1 / 8x8dct=1 / cqm=0 / deadzone=21,11 / fast_pskip=1 / chroma_qp_offset=-2 / threads=40 / lookahead_threads=8 / sliced_threads=0 / nr=0 / decimate=1 / interlaced=0 / bluray_compat=0 / constrained_intra=0 / bframes=3 / b_pyramid=2 / b_adapt=2 / b_bias=0 / direct=3 / weightb=1 / open_gop=0 / weightp=2 / keyint=250 / keyint_min=25 / scenecut=40 / intra_refresh=0 / rc_lookahead=50 / rc=crf / mbtree=1 / crf=22.0 / qcomp=0.60 / qpmin=0 / qpmax=69 / qpstep=4 / ip_ratio=1.40 / aq=1:1.00Default : YesForced : No

    Audio #1ID : 2Format : AC-3Format/Info : Audio Coding 3Mode extension : CM (complete main)Codec ID : A_AC3Duration : 1h 36mnBit rate mode : ConstantBit rate : 192 KbpsChannel(s) : 2 channelsChannel positions : Front: L RSampling rate : 48.0 KHzBit depth : 16 bitsCompression mode : LossyDelay relative to video : -35msStream size : 132 MiB (4%)Title : LineLanguage : RussianDefault : YesForced : No

    Audio #2ID : 3Format : AC-3Format/Info : Audio Coding 3Mode extension : CM (complete main)Codec ID : A_AC3Duration : 1h 36mnBit rate mode : ConstantBit rate : 256 KbpsChannel(s) : 2 channelsChannel positions : Front: L RSampling rate : 48.0 KHzBit depth : 16 bitsCompression mode : LossyDelay relative to video : -35msStream size : 176 MiB (5%)Title : OriginalLanguage : EnglishDefault : NoForced : No

    Скриншоты: © Оформление by Ворон
  • Скачать Хитмэн: Агент 47 через торрент http://pic.pb.wtf/images/6/ordi9.jpg Скачать фильм Хитмэн: Агент 47 через торрент бесплантно в хорошем качестве Описание: История об элитном убийце, созданном при помощи генной инженерии, который объединяется с женщиной, чтобы помочь ей найти отца и ... 2015-10-25 20:08 9.5 10 123

    Loading...

    Loading...

    Рекламный пират

    26-10-2015 05:36 Хитмэн: Агент 47 Скачать торрент  

    :vava: :jest3:

    26-10-2015 05:39 Хитмэн: Агент 47 Скачать торрент  

    Ворон, отличный трейлер

    26-10-2015 07:38 Хитмэн: Агент 47 Скачать торрент  

    Ворон супер!!! :rofle:

    26-10-2015 09:12 Хитмэн: Агент 47 Скачать торрент  

    [удалено] говно [удалено],почему от [удалено] тащатся? Ходит какаято [удалено] с рекламой доширака на башке и пистолетами китайскими .ссука и качал и раздаю это дерьмо.

    26-10-2015 09:16 Хитмэн: Агент 47 Скачать торрент  

    Ворон спасибо за ролик!!! Вот это реклама!!!!! Супер!!!

    26-10-2015 12:08 Хитмэн: Агент 47 Скачать торрент  

    Уматный ролик))))

    26-10-2015 12:58 Хитмэн: Агент 47 Скачать торрент  

    вроде нормальный фильм

    26-10-2015 15:02 Хитмэн: Агент 47 Скачать торрент  

    Pекламный агент PB

    26-10-2015 16:22 Хитмэн: Агент 47 Скачать торрент  

    Что-то мне подсказывает, что ролик лучше, чем фильм... )

    26-10-2015 16:30 Хитмэн: Агент 47 Скачать торрент  

    очень очень средне

    26-10-2015 17:03 Хитмэн: Агент 47 Скачать торрент  

    Мне кажется или рассинхрон идет с 30 минуты примерно?

    26-10-2015 17:22 Хитмэн: Агент 47 Скачать торрент  

    Подбор актеров сделан не верно. Агент 47 в моем понимании должен выглядеть иначе, как в игре hitman absolution. Главный злодей своим внешним видом и поведением смахивает на гея.Сопереживать ГГ нет абсолютно никакого желания.Буквально все актеры переигрывают. Нет ни одной захватывающей сцены драки, не правильно выразился, в фильме нет ни одного момента, когда можно было бы сказать, да эта сцена выглядит круто.Везде, где есть компьютерная графика, она сильно бросается в глаза отсутствием физических законов в сценах с ней. Очевидно, в качестве рисовальщиков были приглашены дилетанты.

    Этот фильм не достоин даже одного просмотра, в крайнем случае, если и смотреть, то с большим количеством перемоток во время просмотра сего шедевра.Авторам данного дерьма можно порекомендовать посмотреть трейлер к игре Hitman Absolution.

    Не рекомендуется к просмотру.

    26-10-2015 18:00 Хитмэн: Агент 47 Скачать торрент  

    PiratMan писал(а):

    Главный злодей своим внешним видом и поведением смахивает на гея.

    Вообще-то, он и есть гей.

    27-10-2015 03:46 Хитмэн: Агент 47 Скачать торрент  

    PiratMan писал(а):

    Подбор актеров сделан не верно. Агент 47 в моем понимании должен выглядеть иначе, как в игре hitman absolution. Главный злодей своим внешним видом и поведением смахивает на гея.Сопереживать ГГ нет абсолютно никакого желания.Буквально все актеры переигрывают. Нет ни одной захватывающей сцены драки, не правильно выразился, в фильме нет ни одного момента, когда можно было бы сказать, да эта сцена выглядит круто.Везде, где есть компьютерная графика, она сильно бросается в глаза отсутствием физических законов в сценах с ней. Очевидно, в качестве рисовальщиков были приглашены дилетанты.

    Этот фильм не достоин даже одного просмотра, в крайнем случае, если и смотреть, то с большим количеством перемоток во время просмотра сего шедевра.Авторам данного дерьма можно порекомендовать посмотреть трейлер к игре Hitman Absolution.

    Не рекомендуется к просмотру.

    Вообщето абсолюшн, тоже дерьмо редкостное, Хитмен в первую очередь бесшумный убийца с отсутствием экшена. Он интелектуал и виртуоз своего дела. А здесь какой то сплинтер целл пересняли)))))

    27-10-2015 06:34 Хитмэн: Агент 47 Скачать торрент  

    Abrahmon писал(а):

    Вообщето абсолюшн, тоже дерьмо редкостное, Хитмен в первую очередь бесшумный убийца с отсутствием экшена. Он интелектуал и виртуоз своего дела. А здесь какой то сплинтер целл пересняли)))))

    Короче, "миссия провалена" - если всех так мочить.

    27-10-2015 15:02 Хитмэн: Агент 47 Скачать торрент  

    пожалел что посмотрел

    Pекламный агент PB

    27-10-2015 15:25 Хитмэн: Агент 47 Скачать торрент  

    Abrahmon писал(а):

    Вообщето абсолюшн, тоже дерьмо редкостное, Хитмен в первую очередь бесшумный убийца с отсутствием экшена. Он интелектуал и виртуоз своего дела. А здесь какой то сплинтер целл пересняли)))))

    Не соглашусь. Мне абсолюшен очень понравился, очень захватывающая игра, миссия с монашками безусловно лучшая в игре. Опять же в ней отлично прорисован Хитмэн. Подобного (высокого) уровня игр давно уже не делали.

    Сделаю для вас открытие - данную игру можно пройти почти не используя огнестрел, т.е. бесшумно и то, по-моему, винтовка использовалась только в демке.

    29-10-2015 18:44 Хитмэн: Агент 47 Скачать торрент  

    Ворон писал(а):

    29-10-2015 19:08 Хитмэн: Агент 47 Скачать торрент  

    ролик просто КЛАСС!!!!!

    29-10-2015 22:35 Хитмэн: Агент 47 Скачать торрент  

    PiratMan писал(а):

    Подбор актеров сделан не верно. Агент 47 в моем понимании должен выглядеть иначе, как в игре hitman absolution. Главный злодей своим внешним видом и поведением смахивает на гея.Сопереживать ГГ нет абсолютно никакого желания.Буквально все актеры переигрывают. Нет ни одной захватывающей сцены драки, не правильно выразился, в фильме нет ни одного момента, когда можно было бы сказать, да эта сцена выглядит круто.Везде, где есть компьютерная графика, она сильно бросается в глаза отсутствием физических законов в сценах с ней. Очевидно, в качестве рисовальщиков были приглашены дилетанты.

    Этот фильм не достоин даже одного просмотра, в крайнем случае, если и смотреть, то с большим количеством перемоток во время просмотра сего шедевра.Авторам данного дерьма можно порекомендовать посмотреть трейлер к игре Hitman Absolution.

    Не рекомендуется к просмотру.

    Сними лучше о великий гуру кинокритики

    30-10-2015 05:19 Хитмэн: Агент 47 Скачать торрент  

    Фильм отстой, полная чушь!

    30-10-2015 18:08 Хитмэн: Агент 47 Скачать торрент  

    За качество спс! Ворон - трейлер угар)), навеяло

    05-11-2015 20:09 Хитмэн: Агент 47 Скачать торрент  

    Отвратительная игра актёров, идиотские наигранные диалоги и сюжет нудный. Жаль потраченного времени.
    !-Lexx- писал(а):

    Правила пользования данным ресурсом.

    Цитата:

    1. Регистрация. Регистрация является неотъемлемой частью присутствия на форуме. Прохождение регистрации автоматически обозначает Ваше согласие с данными Правилами. Если Вы не согласны с данными Правилами, напишите, пожалуйста, Администратору форума. Он деактивирует Вашу учётную запись. Обратите внимание, если имя, которое Вы выбрали для участия в форуме: - повторяет уже существующее или нарушает нормы приличия и морали (такие ники как: Гитлер, Алах-акбар, Шоха, Пахан и.т.д.) - несет в себе рекламу сайтов - содержит ненормативную лексику - сходно до степени смешения с модераторским или админским, то Ваша учётная запись будет деактивирована без предупреждения.

      Правила пользования данным ресурсом, п. 1, выдал -Lexx-

    06-11-2015 14:37 Хитмэн: Агент 47 Скачать торрент  

    Этот фильм уже намного лучше а Диана еще та с....

    Pекламный агент PB

    Дорогой пользователь! Огромная просьба, поблагодарите релизера, оцените раздачу и оставьте свои комментарий, если Вы скачали Хитмэн: Агент 47 через торрент бесплатно! Внесите свою лепту в развитие PiratBit!

    Комментировать посты могут только пользователи прошедшие не сложную регистрацию

    Хитмэн: Агент 47 через торрент Скачать бесплатно Хитмэн: Агент 47 Хитмэн: Агент 47 скачать торрент Хитмэн: Агент 47 смотреть онлайн Cкачать фильм Хитмэн: Агент 47 бесплатно Хитмэн: Агент 47 скачать торрент в хорошем качестве Хитмэн: Агент 47 смотреть онлайн бесплатно в хорошем качестве

    Вы можете начинать темыВы можете отвечать на сообщенияВы не можете редактировать свои сообщенияВы не можете удалять свои сообщенияВы не можете голосовать в опросахВы не можете прикреплять файлы к сообщениямВы можете скачивать файлы

    piratbit.ru

    Agent 47 (Александр Бах) [2015

    GeneralUnique ID : 237425314835103464094940323389508351102 (0xB29E73CC88005513B9CFB0BFFD5AF47E)Complete name : D:\Торенты\Кино\Hitman.Agent.47.2015.BluRay.Remux.mkvFormat : MatroskaFormat version : Version 2File size : 22.1 GiBDuration : 1h 36mnOverall bit rate mode : VariableOverall bit rate : 32.9 MbpsMovie name : BLUEBIRDEncoded date : UTC 2015-11-19 05:29:51Writing application : mkvmerge v7.9.0 ('Birds') 64bitWriting library : libebml v1.3.1 + libmatroska v1.4.2

    VideoID : 1Format : AVCFormat/Info : Advanced Video CodecFormat profile : [email protected] settings, CABAC : YesFormat settings, ReFrames : 4 framesCodec ID : V_MPEG4/ISO/AVCDuration : 1h 36mnBit rate mode : VariableBit rate : 29.5 MbpsMaximum bit rate : 28.0 MbpsWidth : 1 920 pixelsHeight : 1 080 pixelsDisplay aspect ratio : 16:9Frame rate : 23.976 fpsColor space : YUVChroma subsampling : 4:2:0Bit depth : 8 bitsScan type : ProgressiveBits/(Pixel*Frame) : 0.593Stream size : 19.8 GiB (90%)Default : YesForced : No

    Audio #1ID : 2Format : DTSFormat/Info : Digital Theater SystemsCodec ID : A_DTSDuration : 1h 36mnBit rate mode : ConstantBit rate : 755 KbpsChannel(s) : 6 channelsChannel positions : Front: L C R, Side: L R, LFESampling rate : 48.0 KHzBit depth : 24 bitsCompression mode : LossyStream size : 520 MiB (2%)Language : RussianDefault : YesForced : No

    Audio #2ID : 3Format : DTSFormat/Info : Digital Theater SystemsFormat profile : MA / CoreCodec ID : A_DTSDuration : 1h 36mnBit rate mode : VariableBit rate : 1 597 Kbps / 1 510 KbpsChannel(s) : 8 channels / 6 channelsChannel positions : Front: L C R, Side: L R, Back: L R, LFE / Front: L C R, Side: L R, LFESampling rate : 48.0 KHzBit depth : 24 bitsCompression mode : Lossless / LossyLanguage : EnglishDefault : NoForced : No

    Audio #3ID : 4Format : AC-3Format/Info : Audio Coding 3Mode extension : CM (complete main)Codec ID : A_AC3Duration : 1h 36mnBit rate mode : ConstantBit rate : 448 KbpsChannel(s) : 6 channelsChannel positions : Front: L C R, Side: L R, LFESampling rate : 48.0 KHzBit depth : 16 bitsCompression mode : LossyStream size : 309 MiB (1%)Language : UkrainianDefault : NoForced : No

    Text #1ID : 5Format : UTF-8Codec ID : S_TEXT/UTF8Codec ID/Info : UTF-8 Plain TextLanguage : RussianDefault : NoForced : No

    Text #2ID : 6Format : UTF-8Codec ID : S_TEXT/UTF8Codec ID/Info : UTF-8 Plain TextDefault : NoForced : No

    Text #3ID : 7Format : UTF-8Codec ID : S_TEXT/UTF8Codec ID/Info : UTF-8 Plain TextLanguage : EnglishDefault : NoForced : No

    Menu00:00:00.000 : en:Chapter 100:07:11.347 : en:Chapter 200:09:02.959 : en:Chapter 300:13:11.582 : en:Chapter 400:16:21.605 : en:Chapter 500:19:22.786 : en:Chapter 600:24:43.815 : en:Chapter 700:27:19.179 : en:Chapter 800:30:18.691 : en:Chapter 900:33:03.815 : en:Chapter 1000:38:18.713 : en:Chapter 1100:43:11.755 : en:Chapter 1200:46:53.435 : en:Chapter 1300:50:39.870 : en:Chapter 1400:54:02.530 : en:Chapter 1500:59:50.587 : en:Chapter 1601:06:01.749 : en:Chapter 1701:09:06.142 : en:Chapter 1801:13:23.190 : en:Chapter 1901:16:55.319 : en:Chapter 2001:21:15.745 : en:Chapter 2101:25:20.824 : en:Chapter 2201:28:06.155 : en:Chapter 2301:31:17.847 : en:Chapter 24

    piratbit.ru


    Смотрите также