Иллюзия полета фильм скачать торрент в хорошем качестве


Скачать фильм Иллюзия полета через торрент в хорошем качестве бесплатно DVDRip

Раздают: 1 [ 0 KB/s ]
Размер: 1.37 GB | Добавлен: 6 лет 8 мес. назад | Торрент скачан:377 раз
Реклама Дарим 3000 рублей за регистрацию, не упусти свой шанс получить шикарный бонус!!!

16-02-2011 17:08 Иллюзия полета Скачать торрент  

Иллюзия полета / Flightplan

Год выпуска: 2005Страна: СШАЖанр: триллер, драма, детективПродолжительность: 98 мин.Перевод: Профессиональный (полное дублирование)Тип релиза: Лицензия

Режиссер: Роберт ШвенткеПродюссер: Сара Бауэн, Роберт Диноцци, Брайан ГрейзерСценарий: Питер Э. Даулинг, Билли Рэй

Бюджет: $55 000 000

PG-13

-Детям до 13 лет просмотр не желателенМировой рейтинг IMDB 6.20 (47 424)

В ролях: Джоди Фостер, Питер Сарсгаард, Шон Бин, Кейт Бихан, Майкл Ирби, Ассаф Коэн, Эрика Кристенсен, Шейн Эдельман, Мэри Галлахер, Хейли Рэ

Описание: Во время авиарейса Берлин-Нью-Йорк, выполняемого сверхсовременным «Боингом-747», у Кайл Пратт неожиданно бесследно пропадает 6-летняя дочь Джулия. Переживая эмоциональный стресс после безвременной кончины мужа, Кайл отчаянно пытается доказать свою вменяемость не верящим ей членам экипажа и пассажирам. Однако ситуация выглядит настолько абсурдной и фантастичной, что она уже сама начинает сомневаться в адекватности своего восприятия реальности. К тому же факты свидетельствуют о том, что Джулии вообще не было на борту самолета. Понимая, что разгадывать эту тайну и спасать свою дочь ей придется в одиночку, Кайл решает целиком и полностью положиться на свой ум и смекалку.

Качество: DVDRipФормат: AVIВидео кодек: DivXАудио кодек: AC3Видео: 720x304 (2.37:1), 25 fps, DivX Codec 5.x or 6.x ~1689 kbps avg, 0.31 bit/pixelАудио: 48 kHz, AC3 Dolby Digital, 3/2 (L,C,R,l,r) + LFE ch, ~384.00 kbps avg         

Скачать Иллюзия полета через торрент http://s60.radikal.ru/i170/0812/af/41f944f9b50b.jpg Скачать фильм Иллюзия полета через торрент бесплантно в хорошем качестве Описание: Во время авиарейса Берлин-Нью-Йорк, выполняемого сверхсовременным «Боингом-747», у Кайл Пратт неожиданно бесследно пропадает ... 2011-02-16 17:08 10 10 3

Loading...

Loading...

Рекламный пират

16-02-2011 17:44 Иллюзия полета Скачать торрент  

Фильм очень даже стоящий !

18-02-2011 23:01 Иллюзия полета Скачать торрент  

kasinec1000 писал(а):

Фильм очень даже стоящий !

согласен!фильм очень понравился

14-02-2013 12:10 Иллюзия полета Скачать торрент  

Хороший фильмец. Автору спасибо.

Дорогой пользователь! Огромная просьба, поблагодарите релизера, оцените раздачу и оставьте свои комментарий, если Вы скачали Иллюзия полета через торрент бесплатно! Внесите свою лепту в развитие PiratBit!

Комментировать посты могут только пользователи прошедшие не сложную регистрацию

Иллюзия полета через торрент Скачать бесплатно Иллюзия полета Иллюзия полета скачать торрент Иллюзия полета смотреть онлайн Cкачать фильм Иллюзия полета бесплатно Иллюзия полета скачать торрент в хорошем качестве Иллюзия полета смотреть онлайн бесплатно в хорошем качестве

Вы не можете начинать темыВы не можете отвечать на сообщенияВы не можете редактировать свои сообщенияВы не можете удалять свои сообщенияВы не можете голосовать в опросахВы не можете прикреплять файлы к сообщениямВы можете скачивать файлы

piratbit.ru

rutor.org :: Иллюзия полета / Flightplan (2005) BDRip 1080p ::: Скачать торрент

Информация о фильмеНазвание: Иллюзия полетаОригинальное название: FlightplanГод выхода: 2005Жанр: триллер, драма, детективРежиссер: Роберт ШвенткеВ ролях: Джоди Фостер, Питер Сарсгаард, Кейт Бихан, Эрика Кристенсен, Яна Колесарова, Марлен Лоустон, Шон Бин, Грета Скакки, Майкл Ирби, Ассаф Коэн, Кристиан Беркель, Шэйн Эдельман, Мэри Галлахер, Хейли Рэмм, Форрест Лэндис, Джудит Скотт, Виктория Спарк, Джон Бенжамин Хикки, Мэттью Бомер, Гэвин Грейзер, Кристофер Гартин

О фильме: Во время авиарейса Берлин-Нью-Йорк, выполняемого сверхсовременным «Боингом-747», у Кайл Пратт неожиданно бесследно пропадает 6-летняя дочь Джулия. Переживая эмоциональный стресс после безвременной кончины мужа, Кайл отчаянно пытается доказать свою вменяемость не верящим ей членам экипажа и пассажирам. Однако ситуация выглядит настолько абсурдной и фантастичной, что она уже сама начинает сомневаться в адекватности своего восприятия реальности. К тому же факты свидетельствуют о том, что Джулии вообще не было на борту самолета. Понимая, что разгадывать эту тайну и спасать свою дочь ей придется в одиночку, Кайл решает целиком и полностью положиться на свой ум и смекалку.

Выпущено: СШАСтудия: Buena Vista PicturesПродолжительность: 01:38:02Перевод: Дублированный + Профессиональный двухголосый закадровый + Оригинал

ФайлКодек: x264Качество: BDRip (источник: BD-Remux)Видео: 1920x816 (2,35:1), 23.976 fps, 9665 kbpsАудио #1: AC-3, 6 ch, 384 kbps (Rus) ДубляжАудио #2: AC-3, 6 ch, 640 kbps (Rus) Петр Гланц и Инна КоролеваАудио #3: AC-3, 6 ch, 640 kbps (Eng) ОригиналСубтитры: Русские, АнглийскиеСкачать: семпл

MI

Общее Уникальный идентификатор : 180570174124726889999512284815593699167 (0x87D88CF0415274ED9102F3AA2025F75F) Полное имя : E:Flightplan.2005.BDRip.1080p.Rus.Eng.mkv Формат : Matroska Версия формата : Version 4 / Version 2 Размер файла : 7,75 Гбайт Продолжительность : 1 ч. 38 м. Общий поток : 11,3 Мбит/сек Название фильма : Иллюзия полета / Flightplan (2005) Дата кодирования : UTC 2013-06-10 19:38:43 Программа кодирования : mkvmerge v6.2.0 ('Promised Land') built on Apr 28 2013 12:22:01 Библиотека кодирования : libebml v1.3.0 + libmatroska v1.4.0

Видео Идентификатор : 1 Формат : AVC Формат/Информация : Advanced Video Codec Профиль формата : [email protected] Параметр CABAC формата : Да Параметр ReFrames формата : 5 кадров Идентификатор кодека : V_MPEG4/ISO/AVC Продолжительность : 1 ч. 38 м. Битрейт : 9665 Кбит/сек Ширина : 1920 пикселей Высота : 816 пикселей Соотношение сторон : 2,35:1 Режим частоты кадров : Постоянный Частота кадров : 23,976 кадра/сек Цветовое пространство : YUV Субдискретизация насыщенности : 4:2:0 Битовая глубина : 8 бит Тип развёртки : Прогрессивная Бит/(Пиксели*Кадры) : 0.257 Размер потока : 6,46 Гбайт (83%) Заголовок : Release by N1NT3NDO Библиотека кодирования : x264 core 130 r2273 b3065e6 Настройки программы : cabac=1 / ref=5 / deblock=1:-3:-3 / analyse=0x3:0x113 / me=umh / subme=10 / psy=1 / psy_rd=1.00:0.00 / mixed_ref=1 / me_range=32 / chroma_me=1 / trellis=2 / 8x8dct=1 / cqm=0 / deadzone=21,11 / fast_pskip=0 / chroma_qp_offset=-2 / threads=12 / lookahead_threads=1 / sliced_threads=0 / nr=0 / decimate=0 / interlaced=0 / bluray_compat=0 / constrained_intra=0 / bframes=5 / b_pyramid=2 / b_adapt=2 / b_bias=0 / direct=2 / weightb=1 / open_gop=0 / weightp=2 / keyint=240 / keyint_min=23 / scenecut=40 / intra_refresh=0 / rc_lookahead=80 / rc=2pass / mbtree=1 / bitrate=9665 / ratetol=1.0 / qcomp=0.60 / qpmin=0 / qpmax=69 / qpstep=4 / cplxblur=20.0 / qblur=0.5 / ip_ratio=1.40 / aq=1:0.70 Язык : English Default : Да Forced : Нет

Аудио #1 Идентификатор : 2 Формат : AC-3 Формат/Информация : Audio Coding 3 Расширение режима : CM (complete main) Параметр Endianness формата : Big Идентификатор кодека : A_AC3 Продолжительность : 1 ч. 38 м. Вид битрейта : Постоянный Битрейт : 384 Кбит/сек Каналы : 6 каналов Расположение каналов : Front: L C R, Side: L R, LFE Частота : 48,0 КГц Битовая глубина : 16 бит Метод сжатия : С потерями Размер потока : 269 Мбайт (3%) Заголовок : Rus Язык : Russian Default : Да Forced : Нет

Аудио #2 Идентификатор : 3 Формат : AC-3 Формат/Информация : Audio Coding 3 Расширение режима : CM (complete main) Параметр Endianness формата : Big Идентификатор кодека : A_AC3 Продолжительность : 1 ч. 38 м. Вид битрейта : Постоянный Битрейт : 640 Кбит/сек Каналы : 6 каналов Расположение каналов : Front: L C R, Side: L R, LFE Частота : 48,0 КГц Битовая глубина : 16 бит Метод сжатия : С потерями Размер потока : 449 Мбайт (6%) Заголовок : Rus Язык : Russian Default : Нет Forced : Нет

Аудио #3 Идентификатор : 4 Формат : AC-3 Формат/Информация : Audio Coding 3 Расширение режима : CM (complete main) Параметр Endianness формата : Big Идентификатор кодека : A_AC3 Продолжительность : 1 ч. 38 м. Вид битрейта : Постоянный Битрейт : 640 Кбит/сек Каналы : 6 каналов Расположение каналов : Front: L C R, Side: L R, LFE Частота : 48,0 КГц Битовая глубина : 16 бит Метод сжатия : С потерями Размер потока : 449 Мбайт (6%) Заголовок : Eng Язык : English Default : Нет Forced : Нет

Текст #1 Идентификатор : 5 Формат : UTF-8 Идентификатор кодека : S_TEXT/UTF8 Идентификатор кодека/Информация : UTF-8 Plain Text Заголовок : Rus Язык : Russian Default : Нет Forced : Нет

Текст #2 Идентификатор : 6 Формат : UTF-8 Идентификатор кодека : S_TEXT/UTF8 Идентификатор кодека/Информация : UTF-8 Plain Text Заголовок : Eng Язык : English Default : Нет Forced : Нет

Меню 00:00:00.000 : :1. Opening Credits/Berlin / :1. Opening Credits/Berlin 00:04:45.326 : :2. Departure / :2. Departure 00:11:05.665 : :3. Boarding / :3. Boarding 00:17:55.324 : :4. Julia Is Missing / :4. Julia Is Missing 00:26:53.069 : :5. No Record / :5. No Record 00:34:03.041 : :6. Cabin Search / :6. Cabin Search 00:40:44.984 : :7. Delusion or Reality? / :7. Delusion or Reality? 00:48:49.509 : :8. Believing Something Else / :8. Believing Something Else 00:54:56.876 : :9. Search the Holds / :9. Search the Holds 01:03:27.970 : :10. Descent / :10. Descent 01:11:51.724 : :11. Demands / :11. Demands 01:18:21.071 : :12. Arrival / :12. Arrival 01:28:44.027 : :13. Taken Away / :13. Taken Away 01:31:39.410 : :14. Credits / :14. Credits

x264

x264 [info]: frame I:963 Avg QP:13.82 size:208473 x264 [info]: frame P:33649 Avg QP:16.00 size: 82642 x264 [info]: frame B:106436 Avg QP:17.74 size: 38674

main-rutor.org

Скачать фильм Иллюзия полета через торрент в хорошем качестве бесплатно BDRip

Размер: 1.46 GB | Добавлен: 2 года 3 мес. назад | Торрент скачан:175 раз
Реклама Дарим 3000 рублей за регистрацию, не упусти свой шанс получить шикарный бонус!!!

11-07-2015 18:05 Иллюзия полета Скачать торрент  

Иллюзия полета / Flightplan Год выпуска: 2005Страна: СШАЖанр: триллер, драма, детективПродолжительность: 01:38:02Перевод: Профессиональный (двухголосый) [П.Гланц и И.Королева]субтитры: нет

Режиссер: Роберт Швентке

В ролях: Джоди Фостер, Питер Сарсгаард, Кейт Бихан, Эрика Кристенсен, Яна Колесарова, Марлен Лоустон, Шон Бин, Грета Скакки, Майкл Ирби, Ассаф Коэн, Кристиан Беркель и др.

Описание: Во время авиарейса Берлин-Нью-Йорк, выполняемого сверхсовременным «Боингом-747», у Кайл Пратт неожиданно бесследно пропадает 6-летняя дочь Джулия. Переживая эмоциональный стресс после безвременной кончины мужа, Кайл отчаянно пытается доказать свою вменяемость не верящим ей членам экипажа и пассажирам. Однако ситуация выглядит настолько абсурдной и фантастичной, что она уже сама начинает сомневаться в адекватности своего восприятия реальности.К тому же факты свидетельствуют о том, что Джулии вообще не было на борту самолета. Понимая, что разгадывать эту тайну и спасать свою дочь ей придется в одиночку, Кайл решает целиком и полностью положиться на свой ум и смекалку.

Качество: BDRip [исх. Blu-Ray Disc /1080p]Формат: AVIВидео кодек: XvID Аудио кодек: AC3 Видео: 720x304 (2.37:1), 23.976 fps, XviD build 64, 1724 kbps avg, 0.33 bit/pixelАудио: 48 kHz, AC3 Dolby Digital, 3/2 (L,C,R,l,r) + LFE ch, ~448 kbps

Скачать Иллюзия полета через торрент http://i31.fastpic.ru/big/2011/0926/1d/66c7f4316fcb6c3422a1907370b29d1d.jpg Скачать фильм Иллюзия полета через торрент бесплантно в хорошем качестве Описание: Во время авиарейса Берлин-Нью-Йорк, выполняемого сверхсовременным «Боингом-747», у Кайл Пратт неожиданно бесследно пропадает ... 2015-07-11 18:05 10 10 6

Loading...

Loading...

Рекламный пират

Дорогой пользователь! Огромная просьба, поблагодарите релизера, оцените раздачу и оставьте свои комментарий, если Вы скачали Иллюзия полета через торрент бесплатно! Внесите свою лепту в развитие PiratBit!

Комментировать посты могут только пользователи прошедшие не сложную регистрацию

Иллюзия полета через торрент Скачать бесплатно Иллюзия полета Иллюзия полета скачать торрент Иллюзия полета смотреть онлайн Cкачать фильм Иллюзия полета бесплатно Иллюзия полета скачать торрент в хорошем качестве Иллюзия полета смотреть онлайн бесплатно в хорошем качестве

Вы не можете начинать темыВы не можете отвечать на сообщенияВы не можете редактировать свои сообщенияВы не можете удалять свои сообщенияВы не можете голосовать в опросахВы не можете прикреплять файлы к сообщениямВы можете скачивать файлы

piratbit.ru

Иллюзия полета 2005 - скачать бесплатно через торрент в хорошем качестве. Без регистрации

Название: Иллюзия полета / Flightplan (2005) HDRip-AVC | D
Качество видео: HDRip-AVC [BDRip 1080p]
Перевод: Профессиональный (полное дублирование)
Видео: x264 1008х428 (2.36:1), ~1364 kbps, 23.976 fps, 0.132 bpp
Аудио: 48 kHz, AC3 Dolby Digital, 3/2 (L,C,R,l,r) + LFE ch, 384 kbps (Дубляж)48 kHz, AC3 Dolby Digital, 3/2 (L,C,R,l,r) + LFE ch, 384 kbps (Оригинал)
Скачать

Загрузка начнется в течение 5 сек.

1.46 GB

Название: Иллюзия полета / Flightplan (2005) BDRip 1080p
Качество видео: BDRip (источник: BD-Remux)
Перевод: Дублированный + Профессиональный двухголосый закадровый + Оригинал
Видео: x264 1920x816 (2,35:1), 23.976 fps, 9665 kbps
Аудио: AC-3, 6 ch, 384 kbps (Rus) ДубляжAC-3, 6 ch, 640 kbps (Rus) Петр Гланц и Инна КоролеваAC-3, 6 ch, 640 kbps (Eng) Оригинал
Скачать

Загрузка начнется в течение 5 сек.

7.75 GB

Название: Иллюзия полета / Flightplan (2005) BDRip 720p от Element team
Качество видео: BDRip 720p
Перевод: дубляж
Видео: x264 1280x544, 23.976 fps,2 818 kbps,0.169 Bits/(Pixel*Frame)
Аудио: AC-3,384 Kbps,6 channels,48.0 KHz
Скачать

Загрузка начнется в течение 5 сек.

2.18 GB

Название: Иллюзия полета / Flightplan (2005) BDRip 720p
Качество видео: BDRip 720p
Перевод: Профессиональный (дублированный)
Видео: x264 1280x544, 23.976 fps, 4594 kbps
Аудио: AC3, 6 ch, 384 kbps | Русский (дубляж)AC3, 6 ch, 448 kbps | Русский (двухголосый от Tycoon)DTS, 6 ch, 1510 kbps | Русский (П. Гланц & И. Королева)DTS, 6 ch, 1510 kbps | Английский (оригинал)
Скачать

Загрузка начнется в течение 5 сек.

5.90 GB

www.kinovit.net

Иллюзия полета (2005) HD 1080p скачать торрент в хорошем качестве

Информация о фильмеНазвание: Иллюзия полетаОригинальное название: FlightplanГод выхода: 2005Жанр: триллер, драма, детективРежиссер: Роберт ШвенткеВ ролях: Джоди Фостер, Питер Сарсгаард, Кейт Бихан, Эрика Кристенсен, Яна Колесарова, Марлен Лоустон, Шон Бин, Грета Скакки, Майкл Ирби, Ассаф Коэн, Кристиан Беркель, Шэйн Эдельман, Мэри Галлахер, Хейли Рэмм, Форрест Лэндис, Джудит Скотт, Виктория Спарк, Джон Бенжамин Хикки, Мэттью Бомер, Гэвин Грейзер, Кристофер Гартин

О фильме: Во время авиарейса Берлин-Нью-Йорк, выполняемого сверхсовременным «Боингом-747», у Кайл Пратт неожиданно бесследно пропадает 6-летняя дочь Джулия. Переживая эмоциональный стресс после безвременной кончины мужа, Кайл отчаянно пытается доказать свою вменяемость не верящим ей членам экипажа и пассажирам. Однако ситуация выглядит настолько абсурдной и фантастичной, что она уже сама начинает сомневаться в адекватности своего восприятия реальности. К тому же факты свидетельствуют о том, что Джулии вообще не было на борту самолета. Понимая, что разгадывать эту тайну и спасать свою дочь ей придется в одиночку, Кайл решает целиком и полностью положиться на свой ум и смекалку.

Выпущено: СШАСтудия: Buena Vista PicturesПродолжительность: 01:38:02Перевод: Дублированный + Профессиональный двухголосый закадровый + Оригинал

ФайлКодек: x264Качество: BDRip (источник: BD-Remux)Видео: 1920x816 (2,35:1), 23.976 fps, 9665 kbpsАудио #1: AC-3, 6 ch, 384 kbps (Rus) ДубляжАудио #2: AC-3, 6 ch, 640 kbps (Rus) Петр Гланц и Инна КоролеваАудио #3: AC-3, 6 ch, 640 kbps (Eng) ОригиналСубтитры: Русские, Английские

ОбщееУникальный идентификатор : 180570174124726889999512284815593699167 (0x87D88CF0415274ED9102F3AA2025F75F)Полное имя : E:Flightplan.2005.BDRip.1080p.Rus.Eng.mkvФормат : MatroskaВерсия формата : Version 4 / Version 2Размер файла : 7,75 ГбайтПродолжительность : 1 ч. 38 м.Общий поток : 11,3 Мбит/секНазвание фильма : Иллюзия полета / Flightplan (2005) Дата кодирования : UTC 2013-06-10 19:38:43Программа кодирования : mkvmerge v6.2.0 ('Promised Land') built on Apr 28 2013 12:22:01Библиотека кодирования : libebml v1.3.0 + libmatroska v1.4.0

ВидеоИдентификатор : 1Формат : AVCФормат/Информация : Advanced Video CodecПрофиль формата : [email protected]Параметр CABAC формата : ДаПараметр ReFrames формата : 5 кадровИдентификатор кодека : V_MPEG4/ISO/AVCПродолжительность : 1 ч. 38 м.Битрейт : 9665 Кбит/секШирина : 1920 пикселейВысота : 816 пикселейСоотношение сторон : 2,35:1Режим частоты кадров : ПостоянныйЧастота кадров : 23,976 кадра/секЦветовое пространство : YUVСубдискретизация насыщенности : 4:2:0Битовая глубина : 8 битТип развёртки : ПрогрессивнаяБит/(Пиксели*Кадры) : 0.257Размер потока : 6,46 Гбайт (83%)Заголовок : Release by N1NT3NDOБиблиотека кодирования : x264 core 130 r2273 b3065e6Настройки программы : cabac=1 / ref=5 / deblock=1:-3:-3 / analyse=0x3:0x113 / me=umh / subme=10 / psy=1 / psy_rd=1.00:0.00 / mixed_ref=1 / me_range=32 / chroma_me=1 / trellis=2 / 8x8dct=1 / cqm=0 / deadzone=21,11 / fast_pskip=0 / chroma_qp_offset=-2 / threads=12 / lookahead_threads=1 / sliced_threads=0 / nr=0 / decimate=0 / interlaced=0 / bluray_compat=0 / constrained_intra=0 / bframes=5 / b_pyramid=2 / b_adapt=2 / b_bias=0 / direct=2 / weightb=1 / open_gop=0 / weightp=2 / keyint=240 / keyint_min=23 / scenecut=40 / intra_refresh=0 / rc_lookahead=80 / rc=2pass / mbtree=1 / bitrate=9665 / ratetol=1.0 / qcomp=0.60 / qpmin=0 / qpmax=69 / qpstep=4 / cplxblur=20.0 / qblur=0.5 / ip_ratio=1.40 / aq=1:0.70Язык : EnglishDefault : ДаForced : Нет

Аудио #1Идентификатор : 2Формат : AC-3Формат/Информация : Audio Coding 3Расширение режима : CM (complete main)Параметр Endianness формата : BigИдентификатор кодека : A_AC3Продолжительность : 1 ч. 38 м.Вид битрейта : ПостоянныйБитрейт : 384 Кбит/секКаналы : 6 каналовРасположение каналов : Front: L C R, Side: L R, LFEЧастота : 48,0 КГцБитовая глубина : 16 битМетод сжатия : С потерямиРазмер потока : 269 Мбайт (3%)Заголовок : RusЯзык : RussianDefault : ДаForced : Нет

Аудио #2Идентификатор : 3Формат : AC-3Формат/Информация : Audio Coding 3Расширение режима : CM (complete main)Параметр Endianness формата : BigИдентификатор кодека : A_AC3Продолжительность : 1 ч. 38 м.Вид битрейта : ПостоянныйБитрейт : 640 Кбит/секКаналы : 6 каналовРасположение каналов : Front: L C R, Side: L R, LFEЧастота : 48,0 КГцБитовая глубина : 16 битМетод сжатия : С потерямиРазмер потока : 449 Мбайт (6%)Заголовок : RusЯзык : RussianDefault : НетForced : Нет

Аудио #3Идентификатор : 4Формат : AC-3Формат/Информация : Audio Coding 3Расширение режима : CM (complete main)Параметр Endianness формата : BigИдентификатор кодека : A_AC3Продолжительность : 1 ч. 38 м.Вид битрейта : ПостоянныйБитрейт : 640 Кбит/секКаналы : 6 каналовРасположение каналов : Front: L C R, Side: L R, LFEЧастота : 48,0 КГцБитовая глубина : 16 битМетод сжатия : С потерямиРазмер потока : 449 Мбайт (6%)Заголовок : EngЯзык : EnglishDefault : НетForced : Нет

Текст #1Идентификатор : 5Формат : UTF-8Идентификатор кодека : S_TEXT/UTF8Идентификатор кодека/Информация : UTF-8 Plain TextЗаголовок : RusЯзык : RussianDefault : НетForced : Нет

Текст #2Идентификатор : 6Формат : UTF-8Идентификатор кодека : S_TEXT/UTF8Идентификатор кодека/Информация : UTF-8 Plain TextЗаголовок : EngЯзык : EnglishDefault : НетForced : Нет

Меню00:00:00.000 : :1. Opening Credits/Berlin / :1. Opening Credits/Berlin00:04:45.326 : :2. Departure / :2. Departure00:11:05.665 : :3. Boarding / :3. Boarding00:17:55.324 : :4. Julia Is Missing / :4. Julia Is Missing00:26:53.069 : :5. No Record / :5. No Record00:34:03.041 : :6. Cabin Search / :6. Cabin Search00:40:44.984 : :7. Delusion or Reality? / :7. Delusion or Reality?00:48:49.509 : :8. Believing Something Else / :8. Believing Something Else00:54:56.876 : :9. Search the Holds / :9. Search the Holds01:03:27.970 : :10. Descent / :10. Descent01:11:51.724 : :11. Demands / :11. Demands01:18:21.071 : :12. Arrival / :12. Arrival01:28:44.027 : :13. Taken Away / :13. Taken Away01:31:39.410 : :14. Credits / :14. Credits

x264 [info]: frame I:963 Avg QP:13.82 size:208473x264 [info]: frame P:33649 Avg QP:16.00 size: 82642x264 [info]: frame B:106436 Avg QP:17.74 size: 38674

rutorg2.ru


Смотрите также