Кольт 45 скачать фильм через торрент бесплатно в хорошем качестве


Скачать фильм Кольт 45 (2014) через торрент

3 мая 2017 17:44 Кольт 45 (2014) BDRip | Официальный звук.avi.torrent   [Информация о файле (нажмите для просмотра)] Продолжительность: 01:23:52Перевод: Профессиональный многоголосый (Официальная озвучка)

ФайлКодек: XviDКачество: BDRipВидео: XviD, 2150 Кбит/с, 720x304Звук: AC3, 2 ch, 192 Кбит/с

Реклама, любого вида, отсутствует.

1,36 Gb 368 123 25 июля 2016 10:59 Кольт 45 / Colt 45 (2014) BDRip 720p от Leonardo and Scarabey | L .torrent   [Информация о файле (нажмите для просмотра)] Перевод: Любительский (многоголосый закадровый) ParadoхФормат: MKVВидео кодек: MPEG-4 AVC Аудио кодек: AC3Видео: 1280x536 (2.40:1) at 24.000 fps, AVC at 4023 kbps avg, 0.244 bit/pixelАудио: 48 kHz, AC3 Dolby Digital, 3/2 (L,C,R,l,r) + LFE ch, 448 kbps avgСубтитры: французкие 2,67 Gb 5 3 25 июля 2016 10:59 Кольт 45 / Colt 45 (2014) HDRip-AVC | Paradox .torrent   [Информация о файле (нажмите для просмотра)] Качество: HDRip (AVC)Видео: MPEG-4 AVC, 2025 Кбит/с, 1024x426Аудио: AC3, 6 ch, 448 Кбит/сПеревод: Любительский многоголосыйСубтитры: Французские 1,45 Gb 6 5 25 июля 2016 10:58 Кольт 45 / Colt 45 (2014) BDRip 720p | KinoGadget | iPad .torrent   [Информация о файле (нажмите для просмотра)] Перевод: Профессиональный многоголосыйКачество: BDRip 720pФормат: mp4 1,42 Gb 4 5 25 июля 2016 10:58 Кольт 45 / Colt 45 (2014) BDRip-AVC от HELLYWOOD | Paradoх .torrent   [Информация о файле (нажмите для просмотра)] Перевод: Любительский (многоголосый закадровый) [Paradoх]Субтитры: Французкие (полные + форс.)Качество: BDRip-AVCФормат: MKVВидео: х.264, 1180x494 (2,40:1), 24,000 fps, 2826 Кbps, 0.202 bit/pixelАудио#1: 48 kHz, AC3 Dolby Digital, 3/2 (L,C,R,l,r) + LFE ch, 448.00 kbps |RUSАудио#2: 48 kHz, AC3 Dolby Digital, 3/2 (L,C,R,l,r) + LFE ch, 448.00 kbps |FRE 2,18 Gb 3 2 25 июля 2016 10:58 Кольт 45 / Colt 45 (2014) HDRip от Кинорадиомагия | КПК | Paradox .torrent   [Информация о файле (нажмите для просмотра)] Формат: х264Качество: HDRip | КПКВидео: MPEG-4, 480 х 200, 23.976 fps, 454 Кбит/сАудио: ААС LC, 2 ch, 128 Кбит/с 350,41 Mb 2 5 25 июля 2016 10:58 Кольт 45 / Colt 45 (2014) HDRip | Paradox .torrent   [Информация о файле (нажмите для просмотра)] Формат: AVI (XviD)Качество: HDRipВидео: xvid, 720x304 (2.35:1), 24.000 fps, 1 019 Kbps (0.194 bit/pixel)Аудио: MP3, 48.0 KHz, 2 ch, 128 Kbps, CBR 696,01 Mb 3 5 25 июля 2016 10:58 Кольт 45 / Colt 45 (2014) BDRemux 1080p | Paradox .torrent   [Информация о файле (нажмите для просмотра)] Перевод: Любительский (многоголосый, закадровый) - Студия "Paradox"Перевод: Владимир ЕрмаковКачество: BDRemux 1080pФормат: MKVВидео: MPEG4/AVC, 30.3 Мбит/сек, 1920х1080 (16:9), 24.000 кадра/секАудио 1: AC3, 6 каналов, 448 Кбит/сек |РусскийАудио 2: DTS-HD MA, 6 каналов, 1561/1509 Кбит/сек |ФранцузскийСубтитры: Французские (Forced)Видео: Идентификатор : 1 Формат : AVC Формат/Информация : Advanced Video Codec Профиль формата : [email protected] Параметр CABAC формата : Да Параметр ReFrames формата : 4 кадра Идентификатор кодека : V_MPEG4/ISO/AVC Продолжительность : 1 ч. 23 м. Вид битрейта : Переменный Максимальный битрейт : 35,0 Мбит/сек Ширина : 1920 пикселей Высота : 1080 пикселей Соотношение сторон : 16:9 Режим частоты кадров : Постоянный Частота кадров : 24,000 кадра/сек Стандарт вещания : NTSC Цветовое пространство : YUV Субдискретизация насыщенности : 4:2:0 Битовая глубина : 8 бит Тип развёртки : Прогрессивная Заголовок : BuR Язык : French Default : Да Forced : Нет Основные цвета : BT.709 Характеристики трансфера : BT.709 Коэффициенты матрицы : BT.709 Аудио #1: Идентификатор : 2 Формат : AC-3 Формат/Информация : Audio Coding 3 Расширение режима : CM (complete main) Параметр Endianness формата : Big Идентификатор кодека : A_AC3 Продолжительность : 1 ч. 23 м. Вид битрейта : Постоянный Битрейт : 448 Кбит/сек Каналы : 6 каналов Расположение каналов : Front: L C R, Side: L R, LFE Частота : 48,0 КГц Битовая глубина : 16 бит Метод сжатия : С потерями Размер потока : 269 Мбайт (1%) Заголовок : P | Paradox Язык : Russian Default : Да Forced : Нет Аудио #2: Идентификатор : 3 Формат : DTS Формат/Информация : Digital Theater Systems Профиль формата : MA / Core Режим : 16 Параметр Endianness формата : Big Идентификатор кодека : A_DTS Продолжительность : 1 ч. 23 м. Вид битрейта : Переменный Битрейт : Неизвестно / 1509 Кбит/сек Каналы : 6 каналов Расположение каналов : Front: L C R, Side: L R, LFE Частота : 48,0 КГц Битовая глубина : 24 бит Метод сжатия : Без потерь / Lossy Заголовок : Original Язык : French Default : Нет Forced : Нет 19,29 Gb 3 3 25 июля 2016 10:58 Кольт 45 / Colt 45 (2014) BDRip 1080p | Paradox .torrent   [Информация о файле (нажмите для просмотра)] Перевод: Любительский многоголосый, закадровый [Студия "Paradox"]Кодек: H.264Качество: BDRip 1080pВидео: MPEG-4 / AVC, 1920x800 (2.40:1), 24 fps ~ 9500 KbpsЗвук: Аудио #1: AC3, 48 KHz 6 ch ~ 448 Kb/s (русский) Аудио #2: DTS, 48 KHz 6 ch ~ 1510 Kb/s (французский)Субтитры: французские (UTF-8) 6,7 Gb 3 4 25 июля 2016 10:58 Кольт 45 / Colt 45 (2014) BDRip 720p | Paradox .torrent   [Информация о файле (нажмите для просмотра)] Перевод: Любительский многоголосый, закадровый [Студия "Paradox"]Кодек: H.264Качество: BDRip 720pВидео: MPEG-4 / AVC, 1280x544 (2.35:1), 24 fps ~ 4080 KbpsЗвук: Аудио #1: AC3, 48 KHz 6 ch ~ 448 Kb/s (русский) Аудио #2: DTS, 48 KHz 6 ch ~ 1510 Kb/s (французский)Субтитры: французские (UTF-8) 3,54 Gb 5 1 25 июля 2016 10:58 Кольт 45 / Colt 45 (2014) HDRip | Paradox .torrent   [Информация о файле (нажмите для просмотра)] Формат: AVI (XviD)Качество: HDRipВидео: 1877 kb/s, 720x304Аудио: AC3, 448 kb/s (6 ch) 1,37 Gb 8 1

gig-torrent.net

Скачать фильм Кольт 45 через торрент в хорошем качестве бесплатно HDRip-AVC

Формат : MatroskaВерсия формата : Version 2Размер файла : 1,45 ГбайтПродолжительность : 1 ч. 23 м.Общий поток : 2470 Кбит/секДата кодирования : UTC 2015-01-27 15:08:52Программа кодирования : mkvmerge v5.3.0 ('I could have danced') built on Feb 9 2012 10:38:07Библиотека кодирования : libebml v1.2.3 + libmatroska v1.3.0Attachment : Yes

ВидеоИдентификатор : 1Формат : AVCФормат/Информация : Advanced Video CodecПрофиль формата : [email protected]Параметр CABAC формата : ДаПараметр ReFrames формата : 10 кадровИдентификатор кодека : V_MPEG4/ISO/AVCПродолжительность : 1 ч. 23 м.Битрейт : 2025 Кбит/секШирина : 1024 пикселяВысота : 426 пикселейСоотношение сторон : 2,40:1Режим частоты кадров : ПостоянныйЧастота кадров : 24,000 кадра/секЦветовое пространство : YUVСубдискретизация насыщенности : 4:2:0Битовая глубина : 8 битТип развёртки : ПрогрессивнаяБит/(Пиксели*Кадры) : 0.193Размер потока : 1,16 Гбайт (80%)Библиотека кодирования : x264 core 142 r2431 ac76440Настройки программы : cabac=1 / ref=10 / deblock=1:-3:-3 / analyse=0x3:0x133 / me=umh / subme=10 / psy=1 / psy_rd=1.00:0.05 / mixed_ref=1 / me_range=32 / chroma_me=1 / trellis=2 / 8x8dct=1 / cqm=0 / deadzone=21,11 / fast_pskip=1 / chroma_qp_offset=-3 / threads=12 / lookahead_threads=1 / sliced_threads=0 / nr=0 / decimate=0 / interlaced=0 / bluray_compat=0 / constrained_intra=0 / bframes=6 / b_pyramid=2 / b_adapt=2 / b_bias=0 / direct=3 / weightb=1 / open_gop=0 / weightp=2 / keyint=240 / keyint_min=24 / scenecut=40 / intra_refresh=0 / rc=2pass / mbtree=0 / bitrate=2025 / ratetol=1.0 / qcomp=0.60 / qpmin=0 / qpmax=69 / qpstep=4 / cplxblur=20.0 / qblur=0.5 / ip_ratio=1.40 / pb_ratio=1.30 / aq=1:1.00Язык : EnglishDefault : ДаForced : Нет

АудиоИдентификатор : 2Формат : AC-3Формат/Информация : Audio Coding 3Расширение режима : CM (complete main)Параметр Endianness формата : BigИдентификатор кодека : A_AC3Продолжительность : 1 ч. 23 м.Вид битрейта : ПостоянныйБитрейт : 448 Кбит/секКаналы : 6 каналовРасположение каналов : Front: L C R, Side: L R, LFEЧастота : 48,0 КГцБитовая глубина : 16 битМетод сжатия : С потерямиРазмер потока : 269 Мбайт (18%)Заголовок : ParadoxЯзык : RussianDefault : ДаForced : Нет

ТекстИдентификатор : 3Формат : UTF-8Идентификатор кодека : S_TEXT/UTF8Идентификатор кодека/Информация : UTF-8 Plain TextЗаголовок : FR forced subsЯзык : FrenchDefault : ДаForced : Нет

Меню00:00:00.000 : en:00:00:00.00000:06:49.208 : en:00:06:49.20800:15:34.333 : en:00:15:34.33300:22:36.458 : en:00:22:36.45800:30:00.125 : en:00:30:00.12500:37:18.708 : en:00:37:18.70800:45:33.667 : en:00:45:33.66700:52:20.542 : en:00:52:20.54200:59:26.792 : en:00:59:26.79201:04:43.625 : en:01:04:43.62501:10:33.500 : en:01:10:33.50001:14:52.500 : en:01:14:52.500

piratbit.ru

Скачать фильм Кольт 45 через торрент в хорошем качестве бесплатно 720p

GeneralUnique ID                                : 217501884668114713093482443189319150972 (0xA3A156DA06691B589F75C3A938A0AD7C)Complete name                            : D:\Торенты\C0lt.45.2014.P.BDRip.720p.mkvFormat                                   : MatroskaFormat version                           : Version 2File size                                : 3.54 GiBDuration                                 : 1h 23mnOverall bit rate                         : 6 041 KbpsEncoded date                             : UTC 2015-01-26 03:37:43Writing application                      : mkvmerge v7.4.0 ('Circles') 64bit built on Dec 12 2014 12:19:56Writing library                          : libebml v1.3.0 + libmatroska v1.4.1

VideoID                                       : 1Format                                   : AVCFormat/Info                              : Advanced Video CodecFormat profile                           : [email protected] settings, CABAC                   : YesFormat settings, ReFrames                : 5 framesCodec ID                                 : V_MPEG4/ISO/AVCDuration                                 : 1h 23mnBit rate                                 : 4 083 KbpsWidth                                    : 1 280 pixelsHeight                                   : 544 pixelsDisplay aspect ratio                     : 2.35:1Frame rate                               : 24.000 fpsColor space                              : YUVChroma subsampling                       : 4:2:0Bit depth                                : 8 bitsScan type                                : ProgressiveBits/(Pixel*Frame)                       : 0.244Stream size                              : 2.32 GiB (66%)Title                                    : ZEST - Colt 45 - 720pWriting library                          : x264 core 144 r2525 40bb568Encoding settings                        : cabac=1 / ref=5 / deblock=1:0:0 / analyse=0x3:0x133 / me=umh / subme=7 / psy=1 / psy_rd=1.00:0.00 / mixed_ref=1 / me_range=16 / chroma_me=1 / trellis=1 / 8x8dct=1 / cqm=0 / deadzone=21,11 / fast_pskip=0 / chroma_qp_offset=-2 / threads=8 / lookahead_threads=1 / sliced_threads=0 / nr=0 / decimate=1 / interlaced=0 / bluray_compat=0 / constrained_intra=0 / bframes=3 / b_pyramid=2 / b_adapt=1 / b_bias=0 / direct=1 / weightb=1 / open_gop=0 / weightp=2 / keyint=240 / keyint_min=24 / scenecut=40 / intra_refresh=0 / rc_lookahead=40 / rc=2pass / mbtree=1 / bitrate=4083 / ratetol=1.0 / qcomp=0.60 / qpmin=0 / qpmax=69 / qpstep=4 / cplxblur=20.0 / qblur=0.5 / ip_ratio=1.40 / aq=1:1.00Language                                 : EnglishDefault                                  : YesForced                                   : No

Audio #1ID                                       : 2Format                                   : AC-3Format/Info                              : Audio Coding 3Mode extension                           : CM (complete main)Codec ID                                 : A_AC3Duration                                 : 1h 23mnBit rate mode                            : ConstantBit rate                                 : 448 KbpsChannel(s)                               : 6 channelsChannel positions                        : Front: L C R, Side: L R, LFESampling rate                            : 48.0 KHzBit depth                                : 16 bitsCompression mode                         : LossyStream size                              : 269 MiB (7%)Language                                 : RussianDefault                                  : YesForced                                   : No

Audio #2ID                                       : 3Format                                   : DTSFormat/Info                              : Digital Theater SystemsCodec ID                                 : A_DTSDuration                                 : 1h 23mnBit rate mode                            : ConstantBit rate                                 : 1 510 KbpsChannel(s)                               : 6 channelsChannel positions                        : Front: L C R, Side: L R, LFESampling rate                            : 48.0 KHzBit depth                                : 24 bitsCompression mode                         : LossyStream size                              : 906 MiB (25%)Title                                    : FR-DTSLanguage                                 : FrenchDefault                                  : NoForced                                   : No

TextID                                       : 4Format                                   : UTF-8Codec ID                                 : S_TEXT/UTF8Codec ID/Info                            : UTF-8 Plain TextTitle                                    : FR forced subsLanguage                                 : FrenchDefault                                  : YesForced                                   : No

Menu00:00:00.000                             : en:00:00:00.00000:06:49.208                             : en:00:06:49.20800:15:34.333                             : en:00:15:34.33300:22:36.458                             : en:00:22:36.45800:30:00.125                             : en:00:30:00.12500:37:18.708                             : en:00:37:18.70800:45:33.667                             : en:00:45:33.66700:52:20.542                             : en:00:52:20.54200:59:26.792                             : en:00:59:26.79201:04:43.625                             : en:01:04:43.62501:10:33.500                             : en:01:10:33.50001:14:52.500                             : en:01:14:52.500

piratbit.ru

Скачать фильм Кольт 45 через торрент в хорошем качестве бесплатно BDRemux

Общее

Уникальный идентификатор : 239469361965128955090887728691340297311 (0xB4281F1A70AE1380A1BFF9D6384AC45F)

Полное имя : Colt 45. (2014) BDRemux 1080p.mkv

Формат : Matroska

Версия формата : Version 2

Размер файла : 19,3 Гбайт

Продолжительность : 1 ч. 23 м.

Режим общего битрейта : Переменный

Общий поток : 32,9 Мбит/сек

Название фильма : Colt 45. 2014

Дата кодирования : UTC 2015-01-27 13:13:40

Программа кодирования : mkvmerge v5.8.0 ('No Sleep / Pillow') built on Sep 2 2012 15:37:04

Библиотека кодирования : libebml v1.2.3 + libmatroska v1.3.0

Видео

Идентификатор : 1

Формат : AVC

Формат/Информация : Advanced Video Codec

Профиль формата : [email protected]

Параметр CABAC формата : Да

Параметр ReFrames формата : 4 кадра

Идентификатор кодека : V_MPEG4/ISO/AVC

Продолжительность : 1 ч. 23 м.

Вид битрейта : Переменный

Максимальный битрейт : 35,0 Мбит/сек

Ширина : 1920 пикселей

Высота : 1080 пикселей

Соотношение сторон : 16:9

Режим частоты кадров : Постоянный

Частота кадров : 24,000 кадра/сек

Стандарт вещания : NTSC

Цветовое пространство : YUV

Субдискретизация насыщенности : 4:2:0

Битовая глубина : 8 бит

Тип развёртки : Прогрессивная

Заголовок : BuR

Язык : French

Default : Да

Forced : Нет

Основные цвета : BT.709

Характеристики трансфера : BT.709

Коэффициенты матрицы : BT.709

Аудио #1

Идентификатор : 2

Формат : AC-3

Формат/Информация : Audio Coding 3

Расширение режима : CM (complete main)

Параметр Endianness формата : Big

Идентификатор кодека : A_AC3

Продолжительность : 1 ч. 23 м.

Вид битрейта : Постоянный

Битрейт : 448 Кбит/сек

Каналы : 6 каналов

Расположение каналов : Front: L C R, Side: L R, LFE

Частота : 48,0 КГц

Битовая глубина : 16 бит

Метод сжатия : С потерями

Размер потока : 269 Мбайт (1%)

Заголовок : P | Paradox

Язык : Russian

Default : Да

Forced : Нет

Аудио #2

Идентификатор : 3

Формат : DTS

Формат/Информация : Digital Theater Systems

Профиль формата : MA / Core

Режим : 16

Параметр Endianness формата : Big

Идентификатор кодека : A_DTS

Продолжительность : 1 ч. 23 м.

Вид битрейта : Переменный

Битрейт : Неизвестно / 1509 Кбит/сек

Каналы : 6 каналов

Расположение каналов : Front: L C R, Side: L R, LFE

Частота : 48,0 КГц

Битовая глубина : 24 бит

Метод сжатия : Без потерь / Lossy

Заголовок : Original

Язык : French

Default : Нет

Forced : Нет

Текст

Идентификатор : 4

Формат : UTF-8

Идентификатор кодека : S_TEXT/UTF8

Идентификатор кодека/Информация : UTF-8 Plain Text

Заголовок : Forced

Язык : French

Default : Нет

Forced : Нет

Меню

00:00:00.000 : en:00:00:00.000

00:06:49.208 : en:00:06:49.208

00:15:34.333 : en:00:15:34.333

00:22:36.458 : en:00:22:36.458

00:30:00.125 : en:00:30:00.125

00:37:18.708 : en:00:37:18.708

00:45:33.667 : en:00:45:33.667

00:52:20.542 : en:00:52:20.542

00:59:26.792 : en:00:59:26.792

01:04:43.625 : en:01:04:43.625

01:10:33.500 : en:01:10:33.500

01:14:52.500 : en:01:14:52.500

piratbit.ru


Смотрите также