Мальчишник в паттайе фильм 2017 в качестве 1080 скачать торрент


Скачать торрент Мальчишник в Паттайе / Pattaya (2016) BDRip 1080p от ExKinoRay

Информация о фильмеНазвание: Мальчишник в ПаттайеОригинальное название: PattayaГод выхода: 2016Жанр: Комедия, приключенияРежиссер: Франк ГастамбидВ ролях: Франк Гастамбид, Малик Бенталха, Ануар Тубали, Рамзи Бедиа, Гад Эльмале, Сабрина Уазани, Сисси Дюпарк, Саид Богота, Акарадет Родвинит, Дэльфин Бэрил

О фильме:Хорошие парни попадают в рай, плохие парни попадают в Паттайю. Трое абсолютно безбашенных друзей — фанат Вина Дизеля, закомплексованный богач и боец-лилипут — решаются на отчаянное путешествие в курортную Паттайю. Хотели чего-то нового — получили. Причём, по полной! То, что планировалось, как лучший отпуск, превратилось в самое сумасшедшее приключение.

Страна: ФранцияСтудия: Canal+ [fr], Ciné, D8Продолжительность: 01:36:06Перевод: Дублированный | iTunes

ФайлКачество: BDRip 1080pВидео: MPEG-4 AVC, 1920x804, 12.0 Mbit/s, 23.976 fpsЗвук: Аудио #01: 48 kHz, AC3, 5.1, 384 Kbps | Дублированный | iTunes | RUS |Аудио #02: 48 kHz, DTS, 5.1, 1510 Kbps | Оригинал | ENG |Субтитры: Французские

MI

General Unique ID : 217854146210169672395528258275518476440 (0xA3E52EAFC4A1008E95D48110123C7098) Complete name : C:UsersbattiDesktopPattaya.2016.BDRip.1080p.ExKinoRay.mkv Format : Matroska Format version : Version 4 / Version 2 File size : 10.3 GiB Duration : 1 h 36 min Overall bit rate : 15.3 Mb/s Encoded date : UTC 2017-07-03 15:56:54 Writing application : mkvmerge v13.0.0 ('The Juggler') 64bit Writing library : libebml v1.3.4 + libmatroska v1.4.5

Video ID : 1 Format : AVC Format/Info : Advanced Video Codec Format profile : [email protected] Format settings, CABAC : Yes Format settings, ReFrames : 5 frames Codec ID : V_MPEG4/ISO/AVC Duration : 1 h 36 min Bit rate : 13.4 Mb/s Width : 1 920 pixels Height : 804 pixels Display aspect ratio : 2.40:1 Frame rate mode : Constant Frame rate : 24.000 FPS Color space : YUV Chroma subsampling : 4:2:0 Bit depth : 8 bits Scan type : Progressive Bits/(Pixel*Frame) : 0.362 Stream size : 8.99 GiB (88%) Writing library : x264 core 148 r2705 3f5ed56 Encoding settings : cabac=1 / ref=5 / deblock=1:-2:-2 / analyse=0x3:0x133 / me=umh / subme=10 / psy=1 / psy_rd=1.05:0.05 / mixed_ref=1 / me_range=32 / chroma_me=1 / trellis=2 / 8x8dct=1 / cqm=0 / deadzone=21,11 / fast_pskip=0 / chroma_qp_offset=-3 / threads=12 / lookahead_threads=2 / sliced_threads=0 / nr=0 / decimate=0 / interlaced=0 / bluray_compat=0 / constrained_intra=0 / bframes=8 / b_pyramid=2 / b_adapt=2 / b_bias=0 / direct=3 / weightb=1 / open_gop=0 / weightp=2 / keyint=240 / keyint_min=24 / scenecut=40 / intra_refresh=0 / rc_lookahead=50 / rc=2pass / mbtree=0 / bitrate=13400 / ratetol=1.0 / qcomp=0.60 / qpmin=0 / qpmax=69 / qpstep=4 / cplxblur=20.0 / qblur=0.5 / vbv_maxrate=50000 / vbv_bufsize=62500 / nal_hrd=none / filler=0 / ip_ratio=1.40 / pb_ratio=1.30 / aq=3:0.80 Language : French Default : Yes Forced : No

Audio #1 ID : 2 Format : AC-3 Format/Info : Audio Coding 3 Format settings, Endianness : Big Codec ID : A_AC3 Duration : 1 h 36 min Bit rate mode : Constant Bit rate : 384 kb/s Channel(s) : 6 channels Channel positions : Front: L C R, Side: L R, LFE Sampling rate : 48.0 kHz Frame rate : 31.250 FPS (1536 spf) Bit depth : 16 bits Compression mode : Lossy Stream size : 264 MiB (3%) Title : iTunes Language : Russian Service kind : Complete Main Default : Yes Forced : No

Audio #2 ID : 3 Format : DTS Format/Info : Digital Theater Systems Mode : 16 Format settings, Endianness : Big Codec ID : A_DTS Duration : 1 h 36 min Bit rate mode : Constant Bit rate : 1 509 kb/s Channel(s) : 6 channels Channel positions : Front: L C R, Side: L R, LFE Sampling rate : 48.0 kHz Frame rate : 93.750 FPS (512 spf) Bit depth : 24 bits Compression mode : Lossy Stream size : 1.01 GiB (10%) Title : Original Language : French Default : No Forced : No

Text ID : 4 Format : UTF-8 Codec ID : S_TEXT/UTF8 Codec ID/Info : UTF-8 Plain Text Duration : 51 min 8 s Bit rate : 1 b/s Count of elements : 25 Stream size : 636 Bytes (0%) Title : full Language : French Default : No Forced : No

Menu 00:00:00.000 : en:Chapter 1 00:09:13.292 : en:Chapter 2 00:16:19.833 : en:Chapter 3 00:24:08.250 : en:Chapter 4 00:29:06.000 : en:Chapter 5 00:37:59.750 : en:Chapter 6 00:51:30.708 : en:Chapter 7 01:00:55.375 : en:Chapter 8 01:06:40.458 : en:Chapter 9 01:14:31.292 : en:Chapter 10 01:19:53.875 : en:Chapter 11 01:27:58.000 : en:Chapter 12

Релиз от: Автор релиза: Подпишись на меня, кликни по картинке > :

mrutor.org

Скачать торрент Мальчишник в Паттайе / Pattaya (2016) BDRemux 1080p от ExKinoRay

Информация о фильмеНазвание: Мальчишник в ПаттайеОригинальное название: PattayaГод выхода: 2016Жанр: Комедия, приключенияРежиссер: Франк ГастамбидВ ролях: Франк Гастамбид, Малик Бенталха, Ануар Тубали, Рамзи Бедиа, Гад Эльмале, Сабрина Уазани, Сисси Дюпарк, Саид Богота, Акарадет Родвинит, Дэльфин Бэрил

О фильме:Хорошие парни попадают в рай, плохие парни попадают в Паттайю. Трое абсолютно безбашенных друзей — фанат Вина Дизеля, закомплексованный богач и боец-лилипут — решаются на отчаянное путешествие в курортную Паттайю. Хотели чего-то нового — получили. Причём, по полной! То, что планировалось, как лучший отпуск, превратилось в самое сумасшедшее приключение.

Страна: ФранцияСтудия: Canal+ [fr], Ciné, D8Продолжительность: 01:36:06Перевод: Дублированный | iTunes

ФайлКачество: BDRemux 1080pВидео: MPEG-4 AVC, 1920x1080, 31.9 Mbit/s, 23.976 fpsЗвук: Аудио #01: 48 kHz, AC3, 5.1, 384 Kbps | Дублированный | iTunes | RUS |Аудио #02: 48 kHz, DTS-HD MA, 5.1, 3631 Kbps | Оригинал | FRE |Субтитры: Французские

MI

General Unique ID : 199258826068851862070550584675452561378 (0x95E7DA9E7EC6152ABBF07CAE1637A7E2) Complete name : F:VideoPattaya.2016.BDREMUX.1080p.ExKinoRay.mkv Format : Matroska Format version : Version 4 / Version 2 File size : 24.1 GiB Duration : 1 h 36 min Overall bit rate mode : Variable Overall bit rate : 35.9 Mb/s Encoded date : UTC 2017-07-03 16:26:42 Writing application : mkvmerge v13.0.0 ('The Juggler') 64bit Writing library : libebml v1.3.4 + libmatroska v1.4.5

Video ID : 1 Format : AVC Format/Info : Advanced Video Codec Format profile : [email protected] Format settings, CABAC : Yes Format settings, ReFrames : 4 frames Format settings, GOP : M=3, N=24 Codec ID : V_MPEG4/ISO/AVC Duration : 1 h 36 min Bit rate mode : Variable Bit rate : 31.9 Mb/s Maximum bit rate : 35.0 Mb/s Width : 1 920 pixels Height : 1 080 pixels Display aspect ratio : 16:9 Frame rate mode : Constant Frame rate : 24.000 FPS Standard : NTSC Color space : YUV Chroma subsampling : 4:2:0 Bit depth : 8 bits Scan type : Progressive Bits/(Pixel*Frame) : 0.641 Stream size : 21.4 GiB (89%) Language : French Default : Yes Forced : No Color range : Limited Color primaries : BT.709 Transfer characteristics : BT.709 Matrix coefficients : BT.709

Audio #1 ID : 2 Format : AC-3 Format/Info : Audio Coding 3 Format settings, Endianness : Big Codec ID : A_AC3 Duration : 1 h 36 min Bit rate mode : Constant Bit rate : 384 kb/s Channel(s) : 6 channels Channel positions : Front: L C R, Side: L R, LFE Sampling rate : 48.0 kHz Frame rate : 31.250 FPS (1536 spf) Bit depth : 16 bits Compression mode : Lossy Stream size : 264 MiB (1%) Title : iTunes Language : Russian Service kind : Complete Main Default : Yes Forced : No

Audio #2 ID : 3 Format : DTS Format/Info : Digital Theater Systems Format profile : MA / Core Mode : 16 Format settings, Endianness : Big Codec ID : A_DTS Duration : 1 h 36 min Bit rate mode : Variable / Constant Bit rate : 3 631 kb/s / 1 509 kb/s Channel(s) : 6 channels Channel positions : Front: L C R, Side: L R, LFE Sampling rate : 48.0 kHz Frame rate : 93.750 FPS (512 spf) Bit depth : 24 bits Compression mode : Lossless / Lossy Stream size : 2.44 GiB (10%) Title : Original Language : French Default : No Forced : No

Text ID : 4 Format : UTF-8 Codec ID : S_TEXT/UTF8 Codec ID/Info : UTF-8 Plain Text Duration : 51 min 8 s Bit rate : 1 b/s Count of elements : 25 Stream size : 636 Bytes (0%) Title : full Language : French Default : No Forced : No

Menu 00:00:00.000 : en:Chapter 1 00:09:13.292 : en:Chapter 2 00:16:19.833 : en:Chapter 3 00:24:08.250 : en:Chapter 4 00:29:06.000 : en:Chapter 5 00:37:59.750 : en:Chapter 6 00:51:30.708 : en:Chapter 7 01:00:55.375 : en:Chapter 8 01:06:40.458 : en:Chapter 9 01:14:31.292 : en:Chapter 10 01:19:53.875 : en:Chapter 11 01:27:58.000 : en:Chapter 12

Релиз от: Автор релиза: Подпишись на меня, кликни по картинке > :

mrutor.org

Скачать фильм Мальчишник в Паттайе через торрент в хорошем качестве бесплатно 1080p

GeneralUnique ID : 217854146210169672395528258275518476440 (0xA3E52EAFC4A1008E95D48110123C7098)Complete name : E:\Pattaya.2016.BDRip.1080p.ExKinoRay.mkvFormat : MatroskaFormat version : Version 4 / Version 2File size : 10.3 GiBDuration : 1 h 36 minOverall bit rate : 15.3 Mb/sEncoded date : UTC 2017-07-03 15:56:54Writing application : mkvmerge v13.0.0 ('The Juggler') 64bitWriting library : libebml v1.3.4 + libmatroska v1.4.5

VideoID : 1Format : AVCFormat/Info : Advanced Video CodecFormat profile : [email protected] settings, CABAC : YesFormat settings, ReFrames : 5 framesCodec ID : V_MPEG4/ISO/AVCDuration : 1 h 36 minBit rate : 13.4 Mb/sWidth : 1 920 pixelsHeight : 804 pixelsDisplay aspect ratio : 2.40:1Frame rate mode : ConstantFrame rate : 24.000 FPSColor space : YUVChroma subsampling : 4:2:0Bit depth : 8 bitsScan type : ProgressiveBits/(Pixel*Frame) : 0.362Stream size : 8.78 GiB (86%)Writing library : x264 core 148 r2705 3f5ed56Encoding settings : cabac=1 / ref=5 / deblock=1:-2:-2 / analyse=0x3:0x133 / me=umh / subme=10 / psy=1 / psy_rd=1.05:0.05 / mixed_ref=1 / me_range=32 / chroma_me=1 / trellis=2 / 8x8dct=1 / cqm=0 / deadzone=21,11 / fast_pskip=0 / chroma_qp_offset=-3 / threads=12 / lookahead_threads=2 / sliced_threads=0 / nr=0 / decimate=0 / interlaced=0 / bluray_compat=0 / constrained_intra=0 / bframes=8 / b_pyramid=2 / b_adapt=2 / b_bias=0 / direct=3 / weightb=1 / open_gop=0 / weightp=2 / keyint=240 / keyint_min=24 / scenecut=40 / intra_refresh=0 / rc_lookahead=50 / rc=2pass / mbtree=0 / bitrate=13400 / ratetol=1.0 / qcomp=0.60 / qpmin=0 / qpmax=69 / qpstep=4 / cplxblur=20.0 / qblur=0.5 / vbv_maxrate=50000 / vbv_bufsize=62500 / nal_hrd=none / filler=0 / ip_ratio=1.40 / pb_ratio=1.30 / aq=3:0.80Language : FrenchDefault : YesForced : No

Audio #1ID : 2Format : AC-3Format/Info : Audio Coding 3Mode extension : CM (complete main)Format settings, Endianness : BigCodec ID : A_AC3Duration : 1 h 36 minBit rate mode : ConstantBit rate : 384 kb/sChannel(s) : 6 channelsChannel positions : Front: L C R, Side: L R, LFESampling rate : 48.0 kHzFrame rate : 31.250 FPS (1536 spf)Compression mode : LossyStream size : 264 MiB (3%)Title : iTunesLanguage : RussianDefault : YesForced : No

Audio #2ID : 3Format : DTSFormat/Info : Digital Theater SystemsMode : 16Format settings, Endianness : BigCodec ID : A_DTSDuration : 1 h 36 minBit rate mode : ConstantBit rate : 1 509 kb/sChannel(s) : 6 channelsChannel positions : Front: L C R, Side: L R, LFESampling rate : 48.0 kHzFrame rate : 93.750 FPS (512 spf)Bit depth : 24 bitsCompression mode : LossyStream size : 1.01 GiB (10%)Title : OriginalLanguage : FrenchDefault : NoForced : No

TextID : 4Format : UTF-8Codec ID : S_TEXT/UTF8Codec ID/Info : UTF-8 Plain TextTitle : fullLanguage : FrenchDefault : NoForced : No

Menu00:00:00.000 : en:Chapter 100:09:13.292 : en:Chapter 200:16:19.833 : en:Chapter 300:24:08.250 : en:Chapter 400:29:06.000 : en:Chapter 500:37:59.750 : en:Chapter 600:51:30.708 : en:Chapter 701:00:55.375 : en:Chapter 801:06:40.458 : en:Chapter 901:14:31.292 : en:Chapter 1001:19:53.875 : en:Chapter 1101:27:58.000 : en:Chapter 12

piratbit.ru

Скачать торрент Мальчишник в Паттайе / Pattaya (2016) HDRip-AVC

Информация о фильмеНазвание: Мальчишник в ПаттайеОригинальное название: PattayaГод выхода: 2016Жанр: Комедия, приключенияРежиссер: Франк ГастамбидВ ролях: Франк Гастамбид, Малик Бенталха, Ануар Тубали, Рамзи Бедиа, Гад Эльмале, Сабрина Уазани, Сисси Дюпарк, Саид Богота, Акарадет Родвинит, Дэльфин БэрилО фильме: Хорошие парни попадают в рай, плохие парни попадают в Паттайю. Трое абсолютно безбашенных друзей — фанат Вина Дизеля, закомплексованный богач и боец-лилипут — решаются на отчаянное путешествие в курортную Паттайю. Хотели чего-то нового — получили. Причём, по полной! То, что планировалось, как лучший отпуск, превратилось в самое сумасшедшее приключение.

Страна: Франция Студия: Canal+ [fr], Ciné, D8Продолжительность: 01:36:06Перевод: Дублированный | iTunes

ФайлКачество: HDRip-AVCВидео: [email protected], 960x402, ~1020 Kbit/s, 23.976 fpsАудио: AAC, 2.0, ~64 KbpsСубтитры: Французские

M/I

General Unique ID : 80935857828233259206914399488265714055 (0x3CE3ADE123B6BF5C076B623A80387987) Complete name : F:Мальчишник в Паттайе.(2016).HDRIP-AVC.[-=DoMiNo=-].mkv Format : Matroska Format version : Version 4 / Version 2 File size : 746 MiB Duration : 1 h 36 min Overall bit rate : 1 085 kb/s Movie name : Мальчишник в Паттайе Deion : Хорошие парни попадают в рай, плохие парни попадают в Паттайю. Трое абсолютно безбашенных друзей — фанат Вина Дизеля, закомплексованный богач и боец-лилипут — решаются на отчаянное путешествие в курортную Паттайю. Хотели чего-то нового — получили. Причём, по полной! То, что планировалось, как лучший отпуск, превратилось в самое сумасшедшее приключение. Writing application : XviD4PSP 7.0.392 DAILY Writing library : Lavf57.71.100 ErrorDetectionType : Per level 1 Attachments : poster.jpg ACTORS : Франк Гастамбид, Малик Бенталха, Ануар Тубали, Рамзи Бедиа, Гад Эльмалех, Сабрина Уазани, Сисси Дюпарк, Саид Богота, Акарадет Родвинит, Дэльфин Бэрил, Утай Чаенчампа, Вораван Канчон, Патрис Квартерон, Криангсак Минг-оло, Грегори Фроментин, Сет Геко, Абделькрим Брахми, Мельха Бедиа, Будэр, Сириль Дьябат, Ивик Летексье, Исмаэль Си Саване, Хеди Бушенафа, Надья Нуи, Сами Буажила, Сирил Хануна, Фред Тесто, Дония Иден, Джонатан Самсон, Мэйтави Уайсс COMPOSER : DJ Kore, Эрик Невё COUNTRY : Франция DATE : 2016 DIRECTOR : Франк Гастамбид ENCODING_INFO : MATROSKA,WEBM > MKV Произвольный / h364 > X264 VBR-2P 1020kbps Произвольный / AC3 > AAC CBR 64kbps HE GENRE : комедия, приключения HD_VIDEO : 1 IMDB_RATING : 5.00 ITUNEXTC : ru-movie|18+|400| Language : und MEDIA_TYPE : 9 ORIGINAL_TITLE : Pattaya PRODUCER : Эрик Альтмайер, Николас Альтмайер RATING : 4.855 WRITER : Франк Гастамбид, Стефан Казанджян

Video ID : 1 Format : AVC Format/Info : Advanced Video Codec Format profile : [email protected] Format settings, CABAC : Yes Format settings, ReFrames : 11 frames Codec ID : V_MPEG4/ISO/AVC Duration : 1 h 36 min Nominal bit rate : 1 020 kb/s Width : 960 pixels Height : 402 pixels Display aspect ratio : 2.40:1 Frame rate mode : Constant Frame rate : 24.000 FPS Color space : YUV Chroma subsampling : 4:2:0 Bit depth : 8 bits Scan type : Progressive Bits/(Pixel*Frame) : 0.110 Title : RIP_BY_-=DoMiNo=- Writing library : x264 core 152 r2851M ba24899 Encoding settings : cabac=1 / ref=11 / deblock=1:-3:-3 / analyse=0x3:0x133 / me=umh / subme=11 / psy=1 / psy_rd=1.00:0.05 / mixed_ref=1 / me_range=32 / chroma_me=1 / trellis=2 / 8x8dct=1 / cqm=0 / deadzone=21,11 / fast_pskip=1 / chroma_qp_offset=-3 / threads=6 / lookahead_threads=1 / sliced_threads=0 / nr=0 / decimate=1 / interlaced=0 / bluray_compat=0 / constrained_intra=0 / bframes=12 / b_pyramid=2 / b_adapt=2 / b_bias=0 / direct=3 / weightb=1 / open_gop=0 / weightp=2 / keyint=240 / keyint_min=24 / scenecut=40 / intra_refresh=0 / rc_lookahead=60 / rc=2pass / mbtree=1 / bitrate=1020 / ratetol=1.0 / qcomp=0.65 / qpmin=0 / qpmax=69 / qpstep=4 / cplxblur=20.0 / qblur=0.5 / ip_ratio=1.40 / aq=1:1.00 Default : Yes Forced : No DURATION : 01:36:05.958000000

Audio ID : 2 Format : AAC Format/Info : Advanced Audio Codec Format profile : HE-AAC / LC Codec ID : A_AAC Duration : 1 h 36 min Channel(s) : 2 channels Channel positions : Front: L R Sampling rate : 48.0 kHz / 24.0 kHz Frame rate : 23.438 FPS (1024 spf) Compression mode : Lossy Title : iTunes Language : Russian Default : Yes Forced : No DURATION : 01:36:06.070000000

Text ID : 3 Format : UTF-8 Codec ID : S_TEXT/UTF8 Codec ID/Info : UTF-8 Plain Text Title : full Language : French Default : Yes Forced : No DURATION : 00:59:24.332000000

Menu 00:00:00.000 : :Chapter 1 00:09:13.292 : :Chapter 2 00:16:19.833 : :Chapter 3 00:24:08.250 : :Chapter 4 00:29:06.000 : :Chapter 5 00:37:59.750 : :Chapter 6 00:51:30.708 : :Chapter 7 01:00:55.375 : :Chapter 8 01:06:40.458 : :Chapter 9 01:14:31.292 : :Chapter 10 01:19:53.875 : :Chapter 11 01:27:58.000 : :Chapter 12

mrutor.org


Смотрите также