Мстители скачать торрент в хорошем качестве hd 1080 полный фильм торрент


Скачать фильм Мстители через торрент в хорошем качестве бесплатно 1080p

GeneralUnique ID                                : 177746047202290526889117487918466694692 (0x85B8A4BB20960C8D9C5C3188969F7E24)Complete name                            : E:\Мстители (2012) BDRip 1080p.mkvFormat                                   : MatroskaFormat version                           : Version 4 / Version 2File size                                : 12.5 GiBDuration                                 : 2h 22mnOverall bit rate                         : 12.5 MbpsEncoded date                             : UTC 2014-09-11 04:52:59Writing application                      : mkvmerge v6.9.1 ('Blue Panther') 64bit built on Apr 18 2014 18:23:38Writing library                          : libebml v1.3.0 + libmatroska v1.4.1Attachment                               : Yes

VideoID                                       : 1Format                                   : AVCFormat/Info                              : Advanced Video CodecFormat profile                           : [email protected] settings, CABAC                   : YesFormat settings, ReFrames                : 4 framesCodec ID                                 : V_MPEG4/ISO/AVCDuration                                 : 2h 22mnBit rate                                 : 10.1 MbpsWidth                                    : 1 920 pixelsHeight                                   : 1 080 pixelsDisplay aspect ratio                     : 16:9Frame rate                               : 23.976 fpsColor space                              : YUVChroma subsampling                       : 4:2:0Bit depth                                : 8 bitsScan type                                : ProgressiveBits/(Pixel*Frame)                       : 0.204Stream size                              : 10.1 GiB (81%)Writing library                          : x264 core 125 r2200 999b753Encoding settings                        : cabac=1 / ref=4 / deblock=1:-3:-3 / analyse=0x3:0x113 / me=umh / subme=10 / psy=1 / psy_rd=1.00:0.00 / mixed_ref=1 / me_range=32 / chroma_me=1 / trellis=2 / 8x8dct=1 / cqm=0 / deadzone=21,11 / fast_pskip=0 / chroma_qp_offset=-2 / threads=18 / lookahead_threads=3 / sliced_threads=0 / nr=0 / decimate=0 / interlaced=0 / bluray_compat=0 / constrained_intra=0 / bframes=8 / b_pyramid=2 / b_adapt=2 / b_bias=0 / direct=3 / weightb=1 / open_gop=0 / weightp=2 / keyint=240 / keyint_min=22 / scenecut=40 / intra_refresh=0 / rc_lookahead=60 / rc=crf / mbtree=0 / crf=18.0 / qcomp=0.60 / qpmin=10 / qpmax=51 / qpstep=4 / vbv_maxrate=50000 / vbv_bufsize=62500 / crf_max=0.0 / nal_hrd=none / ip_ratio=1.40 / pb_ratio=1.30 / aq=1:0.80Language                                 : EnglishDefault                                  : YesForced                                   : NoMatrix coefficients                      : BT.709-5, BT.1361, IEC 61966-2-4 709, SMPTE RP177

Audio #1ID                                       : 2Format                                   : AC-3Format/Info                              : Audio Coding 3Mode extension                           : CM (complete main)Codec ID                                 : A_AC3Duration                                 : 2h 22mnBit rate mode                            : ConstantBit rate                                 : 640 KbpsChannel(s)                               : 6 channelsChannel positions                        : Front: L C R, Side: L R, LFESampling rate                            : 48.0 KHzBit depth                                : 16 bitsCompression mode                         : LossyStream size                              : 654 MiB (5%)Language                                 : RussianDefault                                  : YesForced                                   : Yes

Audio #2ID                                       : 3Format                                   : DTSFormat/Info                              : Digital Theater SystemsCodec ID                                 : A_DTSDuration                                 : 2h 22mnBit rate mode                            : ConstantBit rate                                 : 1 510 KbpsChannel(s)                               : 6 channelsChannel positions                        : Front: L C R, Side: L R, LFESampling rate                            : 48.0 KHzBit depth                                : 24 bitsCompression mode                         : LossyStream size                              : 1.51 GiB (12%)Language                                 : EnglishDefault                                  : NoForced                                   : No

Text #1ID                                       : 4Format                                   : UTF-8Codec ID                                 : S_TEXT/UTF8Codec ID/Info                            : UTF-8 Plain TextTitle                                    : ФорсированныеLanguage                                 : RussianDefault                                  : YesForced                                   : Yes

Text #2ID                                       : 5Format                                   : UTF-8Codec ID                                 : S_TEXT/UTF8Codec ID/Info                            : UTF-8 Plain TextTitle                                    : ПолныеLanguage                                 : RussianDefault                                  : NoForced                                   : No

Menu00:00:00.000                             : en:00:00:00.00000:08:02.315                             : en:00:08:02.31500:11:49.167                             : en:00:11:49.16700:15:18.751                             : en:00:15:18.75100:20:33.482                             : en:00:20:33.48200:23:04.258                             : en:00:23:04.25800:29:39.444                             : en:00:29:39.44400:37:23.992                             : en:00:37:23.99200:42:47.982                             : en:00:42:47.98200:50:22.269                             : en:00:50:22.26901:01:04.661                             : en:01:01:04.66101:14:05.107                             : en:01:14:05.10701:28:01.234                             : en:01:28:01.23401:38:20.561                             : en:01:38:20.56101:45:40.167                             : en:01:45:40.16701:51:15.085                             : en:01:51:15.08501:57:47.769                             : en:01:57:47.76902:04:38.680                             : en:02:04:38.68002:09:39.397                             : en:02:09:39.39702:13:10.691                             : en:02:13:10.691

piratbit.ru

Скачать фильм Мстители через торрент в хорошем качестве бесплатно 1080p (Джосс Уидон) (фантастика

Раздают: 1 [ 0 KB/s ]
Размер: 12.93 GB | Добавлен: 5 лет 2 мес. назад | Торрент скачан:2836 раз
Реклама Дарим 3000 рублей за регистрацию, не упусти свой шанс получить шикарный бонус!!!

21-08-2012 12:16 Мстители Скачать торрент  

Мстители / The Avengers

Год выпуска: 2012Страна: США, Marvel Enterprises / Marvel Studios Inc.Жанр: фантастика, боевик, приключенияПродолжительность: 02:22:54Перевод: Дубляж + ОригиналТип релиза: Лицензия

Режиссер: Джосс Уидон

В ролях: Роберт Дауни мл., Крис Эванс, Марк Руффало, Крис Хемсворт, Скарлетт Йоханссон, ДжеремиРеннер, Том Хиддлстон, Сэмюэл Л. Джексон

Описание: Локи, сводный брат Тора, возвращается, и в этот раз он не один. Земля на грани порабощения, и только лучшие из лучших могут спасти человечество. Ник Фьюри, глава международной организации Щ. И. Т., собирает выдающихся поборников справедливости и добра, чтобы отразить атаку. Под предводительством Капитана Америки Железный Человек, Тор, Невероятный Халк, Соколиный глаз и Чёрная Вдова вступают в войну с захватчиком.

Качество: BDRip 1080pФормат: MKVВидео кодек: MPEG-4 AVC/H.264Аудио кодек: AC3 5.1Видео: AVC, 1920x1080 (16:9), 23.976 fps, 11.7 MbpsАудио#1: AC-3, 48.0 KHz, 6 ch, 640 Kbps, CBR Rus Аудио#2: AC-3, 48.0 KHz, 6 ch, 320 Kbps, CBR EngЯзык субтитров: Русские, АнглийскиеРелиз от:

ОбщееУникальный идентификатор : 213582227270732767915909507011096452758 (0xA0AE70D24D74B4048E745F3BE4ED9E96)Полное имя : D:\Downloads\The Avengers.mkvФормат : MatroskaВерсия формата : Version 2Размер файла : 12,9 ГбайтПродолжительность : 2 ч. 22 м.Режим общего битрейта : ПеременныйОбщий поток : 13,0 Мбит/секДата кодирования : UTC 2012-08-21 04:39:41Программа кодирования : mkvmerge v5.6.0 ('Kenya Kane') built on Jun 29 2012 15:01:44Библиотека кодирования : libebml v1.2.3 + libmatroska v1.3.0

ВидеоИдентификатор : 1Формат : AVCФормат/Информация : Advanced Video CodecПрофиль формата : [email protected]Параметр CABAC формата : ДаПараметр ReFrames формата : 2 кадраРежим смешивания : Header strippingИдентификатор кодека : V_MPEG4/ISO/AVCПродолжительность : 2 ч. 22 м.Вид битрейта : ПеременныйБитрейт : 11,7 Мбит/секМаксимальный битрейт : 17,5 Мбит/секШирина : 1920 пикселейВысота : 1080 пикселейСоотношение сторон : 16:9Частота кадров : 23,976 кадра/секЦветовое пространство : YUVСубдискретизация насыщенности : 4:2:0Битовая глубина : 8 битТип развёртки : ПрогрессивнаяБит/(Пиксели*Кадры) : 0.236Размер потока : 11,7 Гбайт (91%)Default : ДаForced : Нет

Аудио #1Идентификатор : 2Формат : AC-3Формат/Информация : Audio Coding 3Расширение режима : CM (complete main)Параметр Endianness формата : BigРежим смешивания : Header strippingИдентификатор кодека : A_AC3Продолжительность : 2 ч. 22 м.Вид битрейта : ПостоянныйБитрейт : 640 Кбит/секКаналы : 6 каналовРасположение каналов : Front: L C R, Side: L R, LFEЧастота : 48,0 КГцБитовая глубина : 16 битМетод сжатия : С потерямиЗадержка видео : -42 мс.Размер потока : 654 Мбайт (5%)Default : НетForced : Нет

Аудио #2Идентификатор : 3Формат : AC-3Формат/Информация : Audio Coding 3Расширение режима : CM (complete main)Параметр Endianness формата : BigРежим смешивания : Header strippingИдентификатор кодека : A_AC3Продолжительность : 2 ч. 22 м.Вид битрейта : ПостоянныйБитрейт : 320 Кбит/секКаналы : 6 каналовРасположение каналов : Front: L C R, Side: L R, LFEЧастота : 48,0 КГцБитовая глубина : 16 битМетод сжатия : С потерямиЗадержка видео : -42 мс.Размер потока : 327 Мбайт (2%)Default : ДаForced : Нет

Текст #1Идентификатор : 4Формат : PGSРежим смешивания : zlibИдентификатор кодека : S_HDMV/PGSИдентификатор кодека/Информация : The same subtitle format used on BDs/HD-DVDsDefault : ДаForced : Нет

Текст #2Идентификатор : 5Формат : PGSРежим смешивания : zlibИдентификатор кодека : S_HDMV/PGSИдентификатор кодека/Информация : The same subtitle format used on BDs/HD-DVDsDefault : НетForced : Нет

Не задаем глупых вопросов чем отличия BDRip 1080p от Remux все написанно тут Тык Скачать Мстители через торрент http://pic.lg.ua/x/13/99e8f7/cced5b2e.jpg Скачать фильм Мстители через торрент бесплантно в хорошем качестве Описание: Локи, сводный брат Тора, возвращается, и в этот раз он не один. Земля на грани порабощения, и только лучшие из лучших могут ... 2012-08-21 12:16 9.8 10 32

Loading...

Loading...

Последний раз редактировалось: AlexKa (2012-08-21 12:33), всего редактировалось 3 раз(а)

Рекламный пират

21-08-2012 12:24 Мстители Скачать торрент  

А чем эта отличается от релиза в 24 г?

21-08-2012 12:26 Мстители Скачать торрент  

то ремюкс (Автор ошибся) а это BDrip1080

21-08-2012 12:27 Мстители Скачать торрент  

AlexKaА что лучше,в качестве потери есть?Или какие отличия?

21-08-2012 12:28 Мстители Скачать торрент  

Vii25 писал(а):

AlexKaА что лучше,в качестве потери есть?Или какие отличия?

для меня на данный мамонет все фильмы смотрю BDRip 1080p но а кто любит по более то ремюкс у каждого свои вкусы)

21-08-2012 12:30 Мстители Скачать торрент  

AlexKaНу ,а смысл ту качать есть??

21-08-2012 12:31 Мстители Скачать торрент  

Demonessa можете провирять на раздачи буду через 4 минуты

21-08-2012 12:57 Мстители Скачать торрент  

Раздайте плиз!

21-08-2012 12:58 Мстители Скачать торрент  

Спасибо большое. Давно ждал

Pекламный агент PB

21-08-2012 15:08 Мстители Скачать торрент  

На ХД клуб нету этого релиза почему обманываем????

21-08-2012 16:31 Мстители Скачать торрент  

Заранее благодарю и за скорость!

21-08-2012 16:35 Мстители Скачать торрент  

Vii25 писал(а):

AlexKaА что лучше,в качестве потери есть?Или какие отличия?

в ремюкс видео не пережато :) сам только сегодня узнал :)

21-08-2012 17:44 Мстители Скачать торрент  

Да расслабтесь, этот релиз отлично "выглядит". Картинка супер, по крайней мере, на моём монике (1920х1080,21,5") всё выглядит отлично. Звук тоже не подкачал. Качайте и наслаждайтесь просмотром. Кстати, не вижу никакой разницы между этим и всякими там ремуксами, шмуксами, и всякой остальной дряни. Автору раздачи зачёт.

21-08-2012 19:12 Мстители Скачать торрент  

qwerty121212 писал(а):

На ХД клуб нету этого релиза почему обманываем????

закрытый источиник не известно)

21-08-2012 20:12 Мстители Скачать торрент  

а почему говорят на английском?

22-08-2012 08:37 Мстители Скачать торрент  

sNoock писал(а):

а почему говорят на английском?

дорожку переключи)

24-08-2012 16:16 Мстители Скачать торрент  

что то я не нашел Русскую звуковую дорожку, в переключателе она только одна

Pекламный агент PB

25-08-2012 14:18 Мстители Скачать торрент  

как язык поменять??у меня на анг)

25-08-2012 17:55 Мстители Скачать торрент  

cerzh35 писал(а):

как язык поменять??у меня на анг)

через какой плеер смотриш? в media player classic в фильтрах переключается язык

03-09-2012 13:22 Мстители Скачать торрент  

Люди добрые, как быть? На встроенным плеере телевизора LG LW4500 не показывает.

26-09-2012 22:40 Мстители Скачать торрент  

а 60 фпс и 1080р есть?

07-07-2013 10:35 Мстители Скачать торрент  

Автору спасибо!:)

27-12-2013 20:28 Мстители Скачать торрент  

Vii25 писал(а):

Раздайте плиз!

19-04-2014 08:29 Мстители Скачать торрент  

я зажерался что то скорость 5 и менее mb/ больше нельзя?? спс за качество

04-04-2015 02:16 Мстители Скачать торрент  

дайти скорости пож

Pекламный агент PB

Дорогой пользователь! Огромная просьба, поблагодарите релизера, оцените раздачу и оставьте свои комментарий, если Вы скачали Мстители через торрент бесплатно! Внесите свою лепту в развитие PiratBit!

Комментировать посты могут только пользователи прошедшие не сложную регистрацию

Мстители через торрент Скачать бесплатно Мстители Мстители скачать торрент Мстители смотреть онлайн Cкачать фильм Мстители бесплатно Мстители скачать торрент в хорошем качестве Мстители смотреть онлайн бесплатно в хорошем качестве

Вы не можете начинать темыВы не можете отвечать на сообщенияВы не можете редактировать свои сообщенияВы не можете удалять свои сообщенияВы не можете голосовать в опросахВы не можете прикреплять файлы к сообщениямВы можете скачивать файлы

piratbit.ru

rutor.org :: Мстители / The Avengers (2012) BDRip 1080p

Информация о фильме Название: МстителиОригинальное название: The AvengersЖанр: боевик, фантастикаСтрана: СШАГод выпуска: 2012Продолжительность: 02:22:55

Режиссер: Джосс Уидон

В ролях: Роберт Дауни мл., Крис Эванс, Марк Руффало, Крис Хемсворт, Скарлетт Йоханссон, Джереми Реннер, Том Хиддлстон, Сэмюэл Л. Джексон, Кларк Грегг, Коби Смолдерс, Стеллан Скарсгард, Гвинет Пэлтроу

О фильме: Локи, сводный брат Тора, возвращается, и в этот раз он не один. Земля на грани порабощения, и только лучшие из лучших могут спасти человечество. Ник Фьюри, глава международной организации Щ. И. Т., собирает выдающихся поборников справедливости и добра, чтобы отразить атаку. Под предводительством Капитана Америки Железный Человек, Тор, Невероятный Халк, Соколиный глаз и Чёрная Вдова вступают в войну с захватчиком.

Офиц. сайт

Качество: BDRip 1080pВидео: AVC/H.264, [email protected], 1920x1080, 23.0 Mbps, 59.94 fpsАудио №1: AC3 5.1, 640 kbps - Дублированный(дубляж) | Лицензия (Русский )Аудио №2: AC3 5.1, 640 kbps - Дублированный(дубляж) | Лицензия (Украинский) Субтитры: Русские, УкраинскиеАвтор: izomsk

Знаете ли вы, что...

• Эдвард Нортон был первоначально утвержден на роль Халка, но переговоры между ним и Marvel Studios не увенчались успехом. В итоге Нортон был заменен Марком Руффало. • Первый фильм Marvel, дистрибьютором которого стала Walt Disney Pictures. • Прежде чем Марк Руффало снялся в роли Халка, ходили слухи о возможном претенденте на эту роль - Хоакине Фениксе. • Морена Баккарин, Джессика Лукас, Мэри Элизабет Уинстэд и Коби Смолдерс проходили кастинг на роль агента Марии Хилл. В итоге роль досталась Коби Смолдерс. • Лу Ферриньо озвучивает Халка в этом фильме. Он играл Халка практически во всех экранизациях с 1978 года: Халка в сериале «Невероятный Халк» (1978-1982) и в трёх последующих за ним телевизионных программах, и так же он озвучивал Халка в фильме «Невероятный Халк» (2008). В фильме «Халк» (2003) он снялся в эпизодической роли охранника, и в этой же роли он снялся в «Невероятном Халке» (2008). Помимо этого он озвучивал Халка в различных анимационных экранизациях. • Крису Хемсворту пришлось расширить свой диетический рацион, чтобы сохранить телосложение для роли Тора. • Марк Руффало описывает Брюса Баннера как «парня, который борется с двумя различными сторонами себя, темной и светлой, и все что он делает в своей жизни проходит через фильтр самоконтроля». Кроме того он описывает альтер эго Баннера – Халка как «неуправляемого - ни один из их команды не уверен в том, что хочет иметь такого соратника. Это как бросить гранату в центр группы людей и надеяться, что всё будет хорошо». • Марк Руффало лично изображал Халка при помощи виртуальных камер захвата движения. В предыдущих экранизациях Баннера и Халка играли разные люди (Билл Биксби и бодибилдер Лу Ферриньо), либо Халка добавляли в фильм при помощи компьютерной графики. • Режиссер фильма Джосс Уидон в 90-х рассматривался на место режиссера «Люди Икс» (2000). Будучи большим фанатом «Людей Икс» он даже написал сценарий, из которого только две сюжетных линии попали в фильм. • Продюсер Кевин Файги сравнивает фильм с «Трансформеры 3: Тёмная сторона Луны» (2011): «Он установил стандарт для уровня сногсшибательности и масштабности. Мы работаем, чтобы попытаться превзойти это». • Для Марка Руффало было большой честью то, что он перенял роль Брюса Баннера от его друга Эдварда Нортона: «Эд передал мне эту роль, и я отношусь к ней, как к Гамлету моего поколения». • Организация по Науке и Развлечениям (The Science and Entertainment Exchange) давала консультации для этого фильма. • По словам Джосса Уидона фильм подвергся большому влиянию комиксов «Мстители» 1960-ых годов, фанатом которых был и он сам пока рос: «В тех комиксах эти люди не должны быть даже в одной комнате, не говоря уже об одной команде – и это и есть определение семьи». • Том Хиддлстон в одном интервью сказал по поводу своей роли Локи: «Я могу вам сказать, что это они все против меня. Я – супер злодей. И Железный Человек, Невероятный Халк, Капитан Америка, Тор, Соколиный Глаз, Черная Вдова и Ник Фьюри сформировали команду, потому что иначе им было не справиться со мной». После того как Локи доставили на борт корабля, Тони Старк носит футболку «Black Sabbath». Эта группа хорошо известна благодаря их песне «Iron Man». И хотя изначально песня никак не была связана с героем комиксов Marvel, она ещё с тех пор упоминается в комиксах и так же в конце фильма «Железный человек» (2008), когда Тони цитирует текст песни фразой «Я Железный Человек». • Команда людей, задействованных в «Мстителях», включает в себя необычайно высокое число номинированных на премию «Оскар» для фильма снятого по комиксам: Роберт Дауни мл., Гвинет Пэлтроу, Сэмюэл Л. Джексон, Джереми Реннер, Марк Руффало, режиссер Джосс Уидон, оператор Шеймас МакГарви, и многие другие. Это превосходит фильмы «Железный Человек 2» (2010) и «Железный Человек» (2008), каждый из которых имеют по четыре номинанта. • Несмотря на то, что студия Paramount Pictures не имела участия ни в производстве фильма, ни в области маркетинга или распространения, их логотип все еще появляется в рекламе. И, несмотря на то, что Disney выкупила права на распространение фильмов Marvel у Paramount (с тех пор как Marvel стала частью компании Disney), последняя все еще получает часть гонораров за эти проекты. Никакого упоминания о Disney нет вплоть до окончания финальных титров, где «Walt Disney Studios Motion Pictures» отмечается как дистрибьютор фильма. • Для показа в кинотеатрах фильм после съемок был конвертирован в 3D. • Тони Старк описывает свою группу как «Могучие герои Земли». Подобные фразы появлялись в комиксах «Мстители» с момента публикации в 1963 году. Также эта фраза была использована в качестве подзаголовка к сериалу «Мстители: Могучие герои Земли» (2010). Это самый последний мультсериал, выпущенный до появления фильма. • Это второй раз, когда Брюс Баннер/Халк и Тор появились вместе в одном фильме. Впервые это произошло в фильме «Невероятный Халк: Возращение» (1988). • По словам режиссера Джосса Уидона оригинальная версия фильма имела продолжительность более трех часов. Около 30 вырезанных минут будут включены в релиз на DVD, большинство из них о Стиве Роджерсе (Капитан Америка). Уидон рассказал, что в одной из таких сцен показывается, как Роджерс пытается приспособиться к современному миру в своих апартаментах в Бруклине, а в другой демонстрируется воссоединение Стива Роджерса с Пегги Картер, его возлюбленной из фильма «Первый мститель» (2011). • Том Хиддлстон в интервью газете «The Guardian» рассказал, что кодовое название фильма на начальной стадии его создания было «Group Hug». • Самюэл Л. Джексон в роли Ника Фьюри в этом фильме стал вторым актером после Хью Джекмана (который появлялся во всех фильмах о Людях Икс), кто сыграл одного и того же супергероя комиксов в пяти различных фильмах. • Читаури появляются в первой сюжетной линии «The Ultimates», альтернативный пересказ вселенной супергероев Marvel. В комиксах Читаури так же упоминаются как Скруллы. Использование названия Читаури вместо более популярного Скруллы вызвано юридическими сложностями с Fox Studios, которой принадлежат права на «Фантастическую четверку» (2005) (где и возникли Скруллы). На момент съемок, Fox владела правами на все версии фильма «Фантастическая четверка» и связанных с ним персонажей, таким образом, Marvel/Disney пришлось назвать пришельцев Читаури, чтобы не нарушать соглашение с Fox. • Тор проводит большую часть фильма в броне Асгарда, но с голыми руками - это дань его ранним появлениям в комиксах. • Ник Фьюри Самюэля Л. Джексона из вселенной Ultimate Marvel, созданной в 2000 году, чтобы повторно представить и обновить героев Marvel в 21-ом веке. Образ Фьюри был фактически взят с Джексона, который дал разрешение Marvel на это. Впоследствии, это привело к тому, что Джексон играл Фьюри во всех фильмах Marvel . • Хотя Марк Руффало единственный актер, который не появлялся в предыдущих фильмах Marvel в роли своего героя, Лу Ферриньо озвучивал Халка так же как и в фильме 2008 года с Эдвардом Нортоном. Ферриньо озвучивал Халка в любой экранизации, начиная с телешоу «Невероятный Халк» с Биллом Биксби в 1977 году. Исключением является лишь версия Халка 2003 года от Энга Ли, где Ферриньо играл охранника. • Комплекс правовых вопросов не позволил некоторым персонажам из «Мстителей» попасть в фильм. В частности, Ртуть и Алая Ведьма, дети-близнецы из «Люди Икс», злодей Магнето, Доктор Дум (заклятый враг Фантастической Четверки) и Норман Осброн/Зеленый Гоблин (главный противник Человека-паука). Хотя все персонажи принадлежат Marvel/Disney, герои из «Люди Икс» (2000) и «Фантастическая Четверка» (2005) принадлежат Fox Studios, а из «Человека-паука» (2002) - компании Sony. Marvel заявила, что в будущем они надеются вернуть себе все права, потому как вышеупомянутые персонажи вероятно будут играть определенную роль в последующих фильмах. • Капитан Америка в фильме является одним из основателей. В комиксах он был разморожен в №4 «Мстителей», когда его случайно нашли во время поисков Нэмора (Namor the Sub Mariner). • Чтобы подготовиться к роли агента Клинта Бартона (Соколиный глаз), Джереми Реннер обучался у Олимпийских лучников. • Чтобы добавить реализма сражению в сцене нападения на Нью-Йорк, были наняты 25 человек из 391-го батальона военной полиции Огайо. • Боевой клич Мстителей - «Avengers Assemble» так и не был произнесен на протяжении всего фильма. Однако Крис Эванс использовал его в текстовых сообщениях, чтобы собрать актерскую команду для совместного отдыха после съемок. • Финальная сцена была добавлена после того, как Роберт Дауни мл. поспособствовал изменению предыдущей сцены. В оригинале, после того как Тор срывает маску Железного человека с лежащего без сознания Тони Старка, только что упавшего обратно на Землю, Тони приходит в себя и спрашивает: «Что дальше?». Роберт Дауни мл. посчитал, что этот момент может быть более интересным, и так родилась идея похода в местный ресторан с шаурмой. Сцена была добавлена через два дня после премьеры в Голливуде. • Сцены на открытом воздухе, которые должны были сниматься в Германии, но были сняты в центре Кливленда, показывают многочисленные исторические достопримечательности Кливленда, в частности: Tower City, Higbee Building & Casino, Renaissance Building и the Soldiers & Sailors Monument. • Уже после премьеры, когда снимали дополнительные сцены, Крису Эвансу пришлось носить специальную накладку, чтобы скрыть волосы на лице которые он отрастил для фильма, в котором снимался в тот момент. Его даже заставили частично закрыть лицо руками. • Место на корабле, где находится лаборатория Баннера, упоминается в военно-морской архитектуре, как колодезная палуба, защищенное место стыковки, которое обычно используется для запуска небольших лодок или катеров на воздушной подушке для перевозки войск на берег. • Все сцены снятые в штате Огайо изначально планировали снимать в штате Мичиган. Съемки были перенесены в Огайо, когда выяснилось, что в Мичигане собрались отменить возврат налогов за киносъемки. • Первый фильм, получивший прибыль в 200 млн. долларов, за первые три дня показа в США. • Локи описывается как король в мире, из которого он пришел. Вскоре после этого показывается, как он появляется в Штутгарте, чтобы получить доступ к запасам иридия в лаборатории, в сопровождении одурманенного Соколиного Глаза. Когда Мстители спрашивают о местонахождении Локи, он говорит, что находится на «22 Кёнигштрассе». Кёниг по-немецки означает «король». • После того как Тор забирает Локи с Квинджета (Quinjet) вниз на склон горы, два больших ворона пролетают мимо них, пока они говорят. В скандинавской мифологии, у их отца, Одина, было два ворона, Думающий (Huginn) и Помнящий (Muninn), которые приносили Одину информацию из Мидгарда (Земля). • Элисон Хэннигэн, партнер Коби Смолдерс по сериалу «Как я встретил вашу маму» (2005), предложила режиссеру Джоссу Уидону, чтобы он взял Смолдерс на роль Марии Хилл. Хэннигэн так же работала с Уидоном в сериале «Баффи – истребительница вампиров» (1997-2003). • Футболка Тони Старка с тура Black Sabbath 1978 года. Это был последний тур группы с Оззи Осборном в качестве вокалиста, с многообещающей в то время группой Van Halen на разогреве. • Одномоторные истребители являются компьютерной визуализацией моделей F-35 корпорации Локхид Мартин. F-35 появляются в нескольких сценах, включая момент, где самолет переходит от горизонтального полета к режиму висения с поворотом вектора тяги, для стрельбы 25-мм орудием. F-35 все еще находятся в разработке и не будут иметь даже базовой боеспособности до конца 2015 года. • Родстер Acura Тони Старка не является ни концепт-спорткаром автосалона 2012, ни прототипом гибрида следующего поколения спорткара Acura 2015 года. Она была разработана специально для фильма главным конструктором Honda North America Дейвом Мареком. Основой для машины послужил спорткар 1991 года из Аризоны с 252000 миль пробега. Интерьер машины в фильме практически шаблонный, и имеет оригинальный кассетный плеер на панели. • В конце фильма, когда ролик новостей с официанткой появляется на экране компьютера Ника Фьюри, запись помечена как ЩИТ, файл А113. «А113» - ссылка на номер комнаты графического дизайна Калифорнийского института искусств. • Официантку, спасенную Капитаном Америкой, и которая позже дает интервью о Мстителях, зовут «Бет» (имя можно увидеть на ее футболке во время интервью). • Для того, чтобы создать абсолютно внеземной вид Читаури, им сделали четыре больших пальца, по два на каждой руке. Это видно, когда Локи ведет переговоры с одним из них. • Марк Руффало является единственным актером на 2012 год, кто играл как Халка, так и Брюса Баннера в одном фильме. Технически, оба – Эрик Бана и Эдвард Нортон проделали работу по захвату движений для соответствующих им Халков. Но Руффало первый актер, играющий Халка в живую на съемочной площадке, с использованием метода захвата движения. • «Мстители» стал одним из одиннадцати фильмов собравшим более 1 миллиарда долларов по всему миру. • Первый фильм Marvel собравший 1 миллиард долларов. • Аманда Пит рассматривалась на роль Агента Марии Хилл. • В финальных титрах фильмов «Тор» (2011) и «Мстители» (2012) можно увидеть «спасибо» Ральфу Маччио. Эта благодарность не для актера из фильма «Парень-каратист» (1984), а для человека с таким же именем, который был писателем Marvel в 1980-х. • По общему мнению была снята сцена, где во время финальной битвы Капитан Америка спасает старика, пытающегося защитить своего внука. Он говорит ему «идите в укрытие», но как только собирается уйти старик спрашивает его «Капитан, это действительно вы?». Он поворачивается и видит ветерана Второй Мировой войны приветствующего его. После того как Капитан уходит, ребенок спрашивает старика «Ты знаешь его?» и он отвечает «Мы все его знаем». • Эпизодическая роль Стэна Ли: старик дающий интервью в конце Нью-Йоркского сражения. • Том Хиддлстон рассказывает, что Локи вырос с момента событий в «Торе»: «Как приятен должен быть такой опыт, как исчезнуть во временном тоннеле, который был создан при помощи некого ядерного взрыва сделанного собственноручно? Я думаю, что к тому времени, когда Локи появляется, он повидал многое и думает уже о более важных вещах, чем просто о брате и Асгарде…». • Локи приводит Читаури на Землю, чтобы помочь ему захватить ее, это заставляет сформироваться отряд Мстителей для предотвращения этого. Это полностью соответствует комиксам, где Локи был виновником ряда катастроф, которые собрали вместе Мстителей (кстати, это произошло в самом первом выпуске серии одноименных комиксов). • Халк произносит всего одну реплику: «Мелковат». • Читаури, злодейская инопланетная раса этого фильма, были главными злодеями первой части комиксов «The Ultimates». Впоследствии Локи был одним из главных злодеев во второй части тех же комиксов, хотя его появление не имеет ничего общего с Читаури. • Во время финальной битвы разрушается практически весь логотип компании с башни Старка, остается только освещенная буква «А» в конце фильма. Это тонкий намек (на возможный сиквел) на комикс, где штаб-квартирой Мстителей стало гигантское строение, изображаемое как здание в форме буквы «А» или, как небоскреб с гигантской буквой «А» на его вершине. • Персонаж, с которым Читаури разговаривает в сцене после титров, это Танос - Безумный Титан, главный суперзлодей во вселенной Marvel. Он – убийца космических масштабов, который буквально влюблен в воплощение Смерти, которая и является причиной его улыбки на фразе «судиться со смертью». • Во время сцены в Штутгарте показаны несколько зеленых полицейских машин. Однако, в Баден-Вюртемберге (столицей которого является Штутгарт) полицейские машины окрашены в синий цвет. Кроме того, мигалки на немецких полицейских машинах синие, а не желто-оранжевые. • Когда доктор Баннер впервые встречается с Агентом Романофф в сарае, есть кадр, где она говорит, а ее отражение в небольшом зеркале позади Баннера нет. • Когда один из операторов возобновляет игру в Galaga, использован звук характерный для вражеского корабля, пытающегося захватить корабль игрока. А в фильме этот звук использован во время обычной игры. • В нескольких кадрах, где Железный Человек летит по городу, у него видны порезы на лбу. Тем не менее, после того как Тор срывает маску с лежащего на земле Тони Старка, этих порезов уже нет. • Почти в конце сцены драки Железного Человека с Тором, когда появляется Капитан Америка и пытается убедить Тора остановиться, ясно видно, что, когда Железный Человек попал под молот Тора, он падает на землю в 10 или 20 метрах от Тора. Затем, когда Тор атакует Капитана Америку, Капитан блокирует удар своим щитом, и мы видим, как Тор отлетает метров на 5 от него. После этого, наши три героя встают, но теперь они гораздо ближе друг к другу, чем можно было ожидать. Это особенно заметно по Железному Человеку, который стоит прямо рядом с Капитаном Америкой. • После того, как капитан Америка берет очередную боксерскую грушу с пола, видно, что она новая и не обмотана лентой. Однако, в следующем кадре снизу, эта лента уже есть. На всех остальных кадрах она так же без ленты, как и в начале. • Когда Капитан Америка и Агент Колсон прилетают на корабль, на общем плане, во время посадки видно как крылья их транспорта складываются. В следующем кадре, когда Капитан Америка высаживается, крылья вытянуты. • Когда Локи только прибыл, показывается, как Ник Фьюри стоит рядом с Соколиным Глазом, женщина (Соколиного Глаза нигде не было видно), а затем и Соколиный Глаз возвращается в течение трех выстрелов. • Агент Хилл преследует Соколиного Глаза и стреляет в него через лобовое стекло со своей стороны водителя, оставляя отверстие размером с грейпфрут, а секундами позже отверстие со стороны пассажирского кресла. • В кадре, где Тони Старк на борту корабля в конференц-зале с Ником Фьюри и Стивом Роджерсом (и еще раз, когда он стоит в баре в башне Старка и разговаривает с Локи), свечение от дуги реактора в его груди не видно через футболку Black Sabbath. Но оно заметно, когда он в той же футболке находится в лаборатории с доктором Баннером. • Когда Брюс Баннер впервые появляется на мостике корабля, он снимает пиджак, складывает и прижимает его рукой, а в следующем кадре пиджак накинут на руку. • Во время нападения на Нью-Йорк, когда только начинают взрывать машины, можно видеть приводящий их в движение кабель, прикреплённый к одной из машин, в момент, когда она переворачивается. • Полицейская машина в Штутгарте показана моделью BMW 3-серии. Полиция в Баден-Вюртемберге ездит только на Mercedes Benz или Porsche. Полиции разрешается водить машины только этих компаний, с того момента, как их головные офисы расположились на этой земле Германии. • В самом начале фильма, когда допрашивают Черную Вдову, показывают рекламный щит с предполагаемыми надписями на русском. На самом деле написанное не имеет смысла и представляет собой просто набор случайных букв кириллицы. Кроме того, локомотивы поездов, которые можно видеть в кадре, все новые американские магистральные товарные поезда, и никогда не использовались ни в России, ни в Восточной Европе в целом. • В титрах название компании NAMCO Bandai написано с ошибкой - NAMECO Bandai. • Когда самолет с Локи вот-вот должен приземлиться на корабль видно управляющего диспетчера. В следующем общем плане сверху его уже нет. • Логотипы Marvel Studios и Paramount Pictures показываются внутри тессеракта. • Во время титров есть сцена, где герой Marvel Танос появляется рядом с Читаури. Они оба смотрят вниз на планету Земля, и Танос улыбается, говоря, что они недооценили Землю. • В самом конце титров в американском релизе есть финальная сцена. Ранее в фильме Тони Старк шутит, что он хочет попробовать шаурму, даже, несмотря на то, что он не знает что это такое. И в финальной сцене они сидят в ресторане, где около 30 секунд молча едят шаурму, поглядывая друг на друга.

MediaInfo:

General Unique ID : 177679506151544793421196855027987377597 (0x85ABD400FDAA456891B1ED773C83EDBD) Complete name : Format : Matroska Format version : Version 2 File size : 24.1 GiB Duration : 2h 22mn Overall bit rate : 24.2 Mbps Encoded date : UTC 2012-10-25 13:05:18 Writing application : mkvmerge v5.8.0 ('No Sleep / Pillow') built on Sep 2 2012 15:37:04 Writing library : libebml v1.2.3 + libmatroska v1.3.0 Video #1 ID : 1 Format : AVC Format/Info : Advanced Video Codec Format profile : [email protected] Format settings, CABAC : Yes Format settings, ReFrames : 4 frames Muxing mode : Header stripping Codec ID : V_MPEG4/ISO/AVC Duration : 2h 22mn Bit rate : 23.0 Mbps Width : 1 920 pixels Height : 1 080 pixels Display aspect ratio : 16:9 Frame rate mode : Constant Frame rate : 59.880 fps Original frame rate : 59.940 fps Color space : YUV Chroma subsampling : 4:2:0 Bit depth : 8 bits Scan type : Progressive Bits/(Pixel*Frame) : 0.185 Stream size : 22.4 GiB (93%) Writing library : x264 core 120 r2120kMod 0c7dab9 Encoding settings : cabac=1 / ref=4 / deblock=1:0:0 / analyse=0x3:0x13 / me=umh / subme=7 / psy=1 / fade_compensate=0.00 / psy_rd=1.00:0.00 / mixed_ref=1 / me_range=10 / chroma_me=1 / trellis=1 / 8x8dct=1 / cqm=0 / deadzone=21,11 / fast_pskip=1 / chroma_qp_offset=-2 / threads=2 / sliced_threads=1 / slices=2 / nr=0 / decimate=1 / interlaced=0 / bluray_compat=0 / constrained_intra=0 / bframes=0 / weightp=2 / keyint=300 / keyint_min=30 / scenecut=40 / intra_refresh=0 / rc=abr / mbtree=0 / bitrate=23000 / ratetol=1.0 / qcomp=0.60 / qpmin=10 / qpmax=51 / qpstep=4 / ip_ratio=1.40 / aq=1:1.00 Default : Yes Forced : No Audio #2 ID : 2 Format : AC-3 Format/Info : Audio Coding 3 Mode extension : CM (complete main) Format settings, Endianness : Big Muxing mode : Header stripping Codec ID : A_AC3 Duration : 2h 22mn Bit rate mode : Constant Bit rate : 640 Kbps Channel(s) : 6 channels Channel positions : Front: L C R, Side: L R, LFE Sampling rate : 48.0 KHz Bit depth : 16 bits Compression mode : Lossy Stream size : 654 MiB (3%) Language : Russian Default : Yes Forced : No Audio #3 ID : 3 Format : AC-3 Format/Info : Audio Coding 3 Mode extension : CM (complete main) Format settings, Endianness : Big Muxing mode : Header stripping Codec ID : A_AC3 Duration : 2h 22mn Bit rate mode : Constant Bit rate : 640 Kbps Channel(s) : 6 channels Channel positions : Front: L C R, Side: L R, LFE Sampling rate : 48.0 KHz Bit depth : 16 bits Compression mode : Lossy Stream size : 654 MiB (3%) Language : Ukrainian Default : No Forced : No Text #4 ID : 4 Format : PGS Muxing mode : zlib Codec ID : S_HDMV/PGS Codec ID/Info : The same subtitle format used on BDs/HD-DVDs Language : Russian Default : No Forced : No Text #5 ID : 5 Format : PGS Muxing mode : zlib Codec ID : S_HDMV/PGS Codec ID/Info : The same subtitle format used on BDs/HD-DVDs Language : Ukrainian Default : No

main-rutor.org

Эра Альтрона через торрент в хорошем качестве бесплатно 1080p

GeneralUnique ID : 251852065493386835386218508886941823289 (0xBD78F185DECCF775A55DE1FE1D16F139)Complete name : D:\Торенты\Avengers.Age.Of.Ultron.2015.x264.BDRip.(1080p).ExKinoRay.mkvFormat : MatroskaFormat version : Version 2File size : 12.8 GiBDuration : 2h 21mnOverall bit rate : 12.9 MbpsMovie name : Мстители: Эра Альтрона.2015.Rip by: ollanEncoded date : UTC 2015-09-09 06:24:20Writing application : mkvmerge v5.6.0 ('Kenya Kane') built on May 27 2012 16:44:04Writing library : libebml v1.2.3 + libmatroska v1.3.0

VideoID : 1Format : AVCFormat/Info : Advanced Video CodecFormat profile : [email protected] settings, CABAC : YesFormat settings, ReFrames : 5 framesCodec ID : V_MPEG4/ISO/AVCDuration : 2h 21mnBit rate : 8 888 KbpsWidth : 1 920 pixelsHeight : 800 pixelsDisplay aspect ratio : 2.40:1Frame rate : 23.976 fpsColor space : YUVChroma subsampling : 4:2:0Bit depth : 8 bitsScan type : ProgressiveBits/(Pixel*Frame) : 0.241Stream size : 8.51 GiB (67%)Writing library : x264 core 125 r2200 999b753Encoding settings : cabac=1 / ref=5 / deblock=1:-3:-3 / analyse=0x3:0x133 / me=umh / subme=11 / psy=1 / psy_rd=1.00:0.10 / mixed_ref=1 / me_range=32 / chroma_me=1 / trellis=2 / 8x8dct=1 / cqm=0 / deadzone=21,11 / fast_pskip=0 / chroma_qp_offset=-3 / threads=12 / lookahead_threads=2 / sliced_threads=0 / nr=0 / decimate=0 / interlaced=0 / bluray_compat=0 / constrained_intra=0 / bframes=9 / b_pyramid=2 / b_adapt=2 / b_bias=0 / direct=3 / weightb=1 / open_gop=0 / weightp=2 / keyint=240 / keyint_min=23 / scenecut=40 / intra_refresh=0 / rc=2pass / mbtree=0 / bitrate=8888 / ratetol=1.0 / qcomp=0.60 / qpmin=0 / qpmax=69 / qpstep=4 / cplxblur=20.0 / qblur=0.5 / ip_ratio=1.40 / pb_ratio=1.30 / aq=1:1.00Language : EnglishDefault : YesForced : No

Audio #1ID : 2Format : AC-3Format/Info : Audio Coding 3Mode extension : CM (complete main)Codec ID : A_AC3Duration : 2h 21mnBit rate mode : ConstantBit rate : 384 KbpsChannel(s) : 6 channelsChannel positions : Front: L C R, Side: L R, LFESampling rate : 48.0 KHzBit depth : 16 bitsCompression mode : LossyStream size : 389 MiB (3%)Title : Дублированный (iTunes Russia)Language : RussianDefault : YesForced : No

Audio #2ID : 3Format : AC-3Format/Info : Audio Coding 3Mode extension : CM (complete main)Codec ID : A_AC3Duration : 2h 21mnBit rate mode : ConstantBit rate : 640 KbpsChannel(s) : 6 channelsChannel positions : Front: L C R, Side: L R, LFESampling rate : 48.0 KHzBit depth : 16 bitsCompression mode : LossyStream size : 649 MiB (5%)Title : ДублированныйLanguage : UkrainianDefault : NoForced : No

Audio #3ID : 4Format : DTSFormat/Info : Digital Theater SystemsCodec ID : A_DTSDuration : 2h 21mnBit rate mode : ConstantBit rate : 1 510 KbpsChannel(s) : 6 channelsChannel positions : Front: L C R, Side: L R, LFESampling rate : 48.0 KHzBit depth : 24 bitsCompression mode : LossyStream size : 1.49 GiB (12%)Title : ДублированныйLanguage : UkrainianDefault : NoForced : No

Audio #4ID : 5Format : DTSFormat/Info : Digital Theater SystemsCodec ID : A_DTSDuration : 2h 21mnBit rate mode : ConstantBit rate : 1 510 KbpsChannel(s) : 6 channelsChannel positions : Front: L C R, Side: L R, LFESampling rate : 48.0 KHzBit depth : 24 bitsCompression mode : LossyStream size : 1.49 GiB (12%)Language : EnglishDefault : NoForced : No

Text #1ID : 6Format : UTF-8Codec ID : S_TEXT/UTF8Codec ID/Info : UTF-8 Plain TextTitle : ForcedLanguage : RussianDefault : YesForced : No

Text #2ID : 7Format : UTF-8Codec ID : S_TEXT/UTF8Codec ID/Info : UTF-8 Plain TextTitle : FullLanguage : RussianDefault : NoForced : No

Text #3ID : 8Format : UTF-8Codec ID : S_TEXT/UTF8Codec ID/Info : UTF-8 Plain TextTitle : FullLanguage : EnglishDefault : NoForced : No

MenuDefault : YesForced : No00:00:00.000 : en:Chapter 0100:12:15.192 : en:Chapter 0200:21:23.949 : en:Chapter 0300:33:01.770 : en:Chapter 0400:36:07.622 : en:Chapter 0500:42:00.768 : en:Chapter 0600:52:44.743 : en:Chapter 0700:59:01.871 : en:Chapter 0801:15:51.087 : en:Chapter 0901:27:08.597 : en:Chapter 1001:36:44.756 : en:Chapter 1101:54:35.326 : en:Chapter 1202:06:27.578 : en:Chapter 1302:11:08.025 : en:Chapter 1402:21:18.511 : en:Chapter 15

piratbit.ru

Скачать фильм Первый мститель через торрент в хорошем качестве бесплатно 1080p

Раздают: 1 [ 0 KB/s ]
Размер: 9.13 GB | Добавлен: 6 лет назад | Торрент скачан:1898 раз
Реклама Дарим 3000 рублей за регистрацию, не упусти свой шанс получить шикарный бонус!!!

15-10-2011 23:17 Первый мститель Скачать торрент  

Первый мститель / Captain America: The First AvengerГод выпуска: 2011Страна: США Жанр: фантастика, боевик, триллер, приключенияПродолжительность: 02:04:09Перевод: Профессиональный (полное дублирование)Тип релиза: ЛицензияСубтитры: Russian

Режиссер: Джо Джонстон

В ролях: Крис Эванс, Хейли Этвелл, Себастиан Стэн, Томми Ли Джонс, Хьюго Уивинг, Доминик Купер, Ричард Армитэдж, Стенли Туччи, Сэмюэл Л. Джексон, Тоби Джонс

Описание: Стив Роджерс добровольно соглашается принять участие в эксперименте, который превратит его в супер солдата, известного как Первый мститель. Роджерс вступает в вооруженные силы США вместе с Баки Барнсом и Пегги Картер, чтобы бороться с враждебной организацией ГИДРА, которой управляет безжалостный Красный Череп.

Качество: BDRip 1080pФормат: MKVАудио кодек: AC3, DTSВидео: ~8569 kbps, 23.976 fps, 1920x816Аудио: Russian: AC3, 448 Kbps (6 ch) English: DTS, 1510 Kbps (6 ch)

Скачать Первый мститель через торрент http://i29.fastpic.ru/big/2011/1015/b1/d344409d222e38ce39b30c08ed111fb1.png Скачать фильм Первый мститель через торрент бесплантно в хорошем качестве Описание: Стив Роджерс добровольно соглашается принять участие в эксперименте, который превратит его в супер солдата, известного как Первый ... 2011-10-15 23:17 8.9 10 16

Loading...

Loading...

Рекламный пират

16-10-2011 03:00 Первый мститель Скачать торрент  

поддайте газу ребята

16-10-2011 06:50 Первый мститель Скачать торрент  

Блин, парни, накиньте скорости, серьезно. 300-500кб/с...

16-10-2011 11:16 Первый мститель Скачать торрент  

Ну так себе кинцо.... На разик, второй раз смотреть не буду...

16-10-2011 13:51 Первый мститель Скачать торрент  

Народ смотрю на флэшке через телевизор почему звука нет?, а на компьютере есть

16-10-2011 17:25 Первый мститель Скачать торрент  

Ну и барахло , до конца не досмотрел , фильм для 13 летних...

16-10-2011 20:02 Первый мститель Скачать торрент  

спасибо за раздачу....P.S. фильм не для 13-тилетних, а просто для другого типа культуры(западной)....

17-10-2011 07:25 Первый мститель Скачать торрент  

как скорость ?

19-10-2011 17:23 Первый мститель Скачать торрент  

По мне так отличный семейный фильмец =) Да и для просмотра в компании друзей кул =) Спасибо! =)

Pекламный агент PB

24-10-2011 11:36 Первый мститель Скачать торрент  

Ребят, кто смотрел этот фильм скажите здесь в фильме есть некая организация "ЩИТ" ?

30-10-2011 12:26 Первый мститель Скачать торрент  

Нету организации "Щит", есть организация "Гидра", и фильм довольно не плох можно так сказать)

31-10-2011 07:52 Первый мститель Скачать торрент  

777AssAssIn777 писал(а):

Народ смотрю на флэшке через телевизор почему звука нет?, а на компьютере есть

у фильма звук ДТС, телек не проигрывает такое..

21-11-2011 18:36 Первый мститель Скачать торрент  

народ а какой прогой mkv смотреть?

26-11-2011 17:58 Первый мститель Скачать торрент  

И где 1080 если 1920x816

08-01-2012 06:38 Первый мститель Скачать торрент  

n-aleks писал(а):

И где 1080 если 1920x816

BDRip

19-03-2014 09:50 Первый мститель Скачать торрент  

IskluchiteL писал(а):

Ребят, кто смотрел этот фильм скажите здесь в фильме есть некая организация "ЩИТ" ?

есть

Дорогой пользователь! Огромная просьба, поблагодарите релизера, оцените раздачу и оставьте свои комментарий, если Вы скачали Первый мститель через торрент бесплатно! Внесите свою лепту в развитие PiratBit!

Комментировать посты могут только пользователи прошедшие не сложную регистрацию

Первый мститель через торрент Скачать бесплатно Первый мститель Первый мститель скачать торрент Первый мститель смотреть онлайн Cкачать фильм Первый мститель бесплатно Первый мститель скачать торрент в хорошем качестве Первый мститель смотреть онлайн бесплатно в хорошем качестве

Вы не можете начинать темыВы не можете отвечать на сообщенияВы не можете редактировать свои сообщенияВы не можете удалять свои сообщенияВы не можете голосовать в опросахВы не можете прикреплять файлы к сообщениямВы можете скачивать файлы

piratbit.ru

Противостояние (2016) HD 1080p скачать торрент в хорошем качестве

Информация о фильме Год выхода: 2016Название: Первый мститель: ПротивостояниеЖанр: Фантастика, боевик, приключенияОригинальное название: Captain America: Civil WarРежиссер: Энтони Руссо, Джо РуссоВ ролях: Крис Эванс, Роберт Дауни мл., Скарлетт Йоханссон, Себастьян Стэн, Энтони Маки, Дон Чидл, Джереми Реннер, Чэдвик Боузмэн, Пол Беттани, Элизабет Олсен

Описание фильма Мстители под руководством Капитана Америки оказываются участниками разрушительного инцидента, имеющего международный масштаб. Эти события заставляют правительство задуматься над тем, чтобы начать регулировать действия всех людей с особыми способностями, введя «Акт о регистрации супергероев», вынуждая их раскрыть свои личности и работать на правительственные службы.

Страна: СШАПродолжительность: 02:27:41Перевод: дублированный - iTunes

Информация о файле Формат:| MKV | x264 |Качество: BDRip 1080pВидео: X264/MPEG4-AVC | 1920x804 (2.40:1) | ~6176 kbps | 23.976 fpsАудио Rus: AC3 | 48 KHz | 5.1 (Front: L С R Side: L R) + LFE | ~384 kbpsАудио Eng: AC3 | 48 KHz | 5.1 (Front: L С R Side: L R) + LFE | ~640 kbpsСубтитры: | Русские (Forced, Full) | английские (Full) |

x264 [info]: frame I:1747 Avg QP:14.76 size:175315x264 [info]: frame P:62256 Avg QP:18.22 size: 56406x264 [info]: frame B:148471 Avg QP:18.99 size: 20367

ОбщееУникальный идентификатор : 232920987614159991916568916091107721218 (0xAF3AF352260108C0936810379BAAC002)Полное имя : X:ATorrentCaptain.America.Civil.War.(2016).BDRip.1080p.(qqss44).mkvФормат : MatroskaВерсия формата : Version 2Размер файла : 7,43 ГбайтПродолжительность : 2 ч. 27 м.Общий поток : 7203 Кбит/секНазвание фильма : Captain.America.Civil.War.(2016).BDRip.1080p.(qqss44)Дата кодирования : UTC 2016-09-20 15:56:02Программа кодирования : mkvmerge v7.9.0 ('Birds') 64bitБиблиотека кодирования : libebml v1.3.1 + libmatroska v1.4.2

ВидеоИдентификатор : 1Формат : AVCФормат/Информация : Advanced Video CodecПрофиль формата : [email protected]Параметр CABAC формата : ДаПараметр ReFrames формата : 5 кадровИдентификатор кодека : V_MPEG4/ISO/AVCПродолжительность : 2 ч. 27 м.Битрейт : 6176 Кбит/секШирина : 1920 пикселейВысота : 804 пикселяСоотношение сторон : 2,40:1Режим частоты кадров : ПостоянныйЧастота кадров : 23,976 (24000/1001) кадра/секЦветовое пространство : YUVСубдискретизация насыщенности : 4:2:0Битовая глубина : 8 битТип развёртки : ПрогрессивнаяБит/(Пиксели*Кадры) : 0.167Размер потока : 6,37 Гбайт (86%)Заголовок : Captain.America.Civil.War.(2016).BDRip.1080p.(qqss44)Библиотека кодирования : x264 core 146 r2538 121396cНастройки программы : cabac=1 / ref=5 / deblock=1:-3:-3 / analyse=0x3:0x133 / me=umh / subme=11 / psy=1 / psy_rd=1.00:0.00 / mixed_ref=1 / me_range=32 / chroma_me=1 / trellis=2 / 8x8dct=1 / cqm=0 / deadzone=21,11 / fast_pskip=0 / chroma_qp_offset=-2 / threads=12 / lookahead_threads=2 / sliced_threads=0 / nr=0 / decimate=0 / interlaced=0 / bluray_compat=0 / constrained_intra=0 / bframes=8 / b_pyramid=2 / b_adapt=2 / b_bias=0 / direct=3 / weightb=1 / open_gop=0 / weightp=2 / keyint=240 / keyint_min=23 / scenecut=40 / intra_refresh=0 / rc=2pass / mbtree=0 / bitrate=6176 / ratetol=1.0 / qcomp=0.60 / qpmin=0 / qpmax=69 / qpstep=4 / cplxblur=20.0 / qblur=0.5 / ip_ratio=1.40 / pb_ratio=1.30 / aq=1:1.00Язык : EnglishDefault : ДаForced : Нет

Аудио #1Идентификатор : 2Формат : AC-3Формат/Информация : Audio Coding 3Расширение режима : CM (complete main)Параметр Endianness формата : BigИдентификатор кодека : A_AC3Продолжительность : 2 ч. 27 м.Вид битрейта : ПостоянныйБитрейт : 384 Кбит/секКаналы : 6 каналовРасположение каналов : Front: L C R, Side: L R, LFEЧастота : 48,0 КГцЧастота кадров : 31,250 кадров/сек (1536 spf)Метод сжатия : С потерямиЗадержка видео : 800 мс.Размер потока : 406 Мбайт (5%)Заголовок : DUB | DD5.1 @ 384 kbpsЯзык : RussianDefault : ДаForced : Нет

Аудио #2Идентификатор : 3Формат : AC-3Формат/Информация : Audio Coding 3Расширение режима : CM (complete main)Параметр Endianness формата : BigИдентификатор кодека : A_AC3Продолжительность : 2 ч. 27 м.Вид битрейта : ПостоянныйБитрейт : 640 Кбит/секКаналы : 6 каналовРасположение каналов : Front: L C R, Side: L R, LFEЧастота : 48,0 КГцЧастота кадров : 31,250 кадров/сек (1536 spf)Метод сжатия : С потерямиРазмер потока : 676 Мбайт (9%)Заголовок : Original | DD5.1 @ 640 kbpsЯзык : EnglishDefault : НетForced : Нет

Текст #1Идентификатор : 4Формат : UTF-8Идентификатор кодека : S_TEXT/UTF8Идентификатор кодека/Информация : UTF-8 Plain TextПродолжительность : 2 ч. 24 м.Битрейт : 2 бит/секCount of elements : 57Размер потока : 2,85 Кбайт (0%)Заголовок : ForcedЯзык : RussianDefault : ДаForced : Нет

Текст #2Идентификатор : 5Формат : UTF-8Идентификатор кодека : S_TEXT/UTF8Идентификатор кодека/Информация : UTF-8 Plain TextПродолжительность : 2 ч. 25 м.Битрейт : 74 бит/секCount of elements : 1722Размер потока : 80,1 Кбайт (0%)Заголовок : FullЯзык : RussianDefault : НетForced : Нет

Текст #3Идентификатор : 6Формат : UTF-8Идентификатор кодека : S_TEXT/UTF8Идентификатор кодека/Информация : UTF-8 Plain TextПродолжительность : 2 ч. 25 м.Битрейт : 50 бит/секCount of elements : 1865Размер потока : 54,2 Кбайт (0%)Заголовок : FullЯзык : EnglishDefault : НетForced : Нет

Меню00:00:00.000 : en:Chapter 100:09:01.958 : en:Chapter 200:13:04.993 : en:Chapter 300:21:03.345 : en:Chapter 400:27:53.380 : en:Chapter 500:31:57.290 : en:Chapter 600:35:08.398 : en:Chapter 700:42:58.451 : en:Chapter 800:52:04.621 : en:Chapter 901:05:39.102 : en:Chapter 1001:16:41.639 : en:Chapter 1101:22:28.777 : en:Chapter 1201:29:29.489 : en:Chapter 1301:34:09.769 : en:Chapter 1401:45:38.582 : en:Chapter 1501:55:54.322 : en:Chapter 1602:02:35.056 : en:Chapter 1702:12:14.176 : en:Chapter 1802:18:29.384 : en:Chapter 19

rutorg2.ru

Эра Альтрона 2015 смотреть онлайн полностью в хорошем HD 720, 1080 качестве и скачать бесплатно

КачествоПереводРазмер файлаДата добавленияСкачано (раз)Сидеры / ЛичерыКак скачать?BDRemux ПодробнееПроф. (полное дублирование)42.07 GB11 Дек 151

▲ 4▼ 3

Файл: Мстители: Эра Альтрона - Avengers: Age of Ultron (2015) BDRemux 1080p | D, A | Лицензия.torrentПродолжительность: 02:21Видео: MPEG-4 AVC/H.264, 1920x1080 (16:9), ~23741 Кбит/секЗвук:Аудио 1: DTS-HD MA 5.1 4089 Кбит/сек [Русский - дублированный Blu-ray CEE]Аудио 2: DTS-HD MA 5.1 4206 Кбит/сек [Русский - Авторский А.Гаврилов]Аудио 3: DTS-HD MA 5.1 3704 Кбит/сек [Украинский дублированный]Аудио 4: DTS-HD MA 5.1, 4229 Кбит/сек [Английский - оригинал]Аудио 5:AC3 2.0, 320 Кбит/сек [Английский - описательный]Аудио 6: AC3 2.0, 192 Кбит/сек [Английский - комментарий]Перевод: Дублированный, Авторский (одноголосый)Субтитры: Русские, английскиеBDRip ПодробнееПроф. (одноголосный)1.46 GB07 Ноя 154

▲ 40▼ 3

BDRip ПодробнееПроф. (полное дублирование)12.76 GB04 Ноя 152

▲ 19▼ 4

Файл: Мстители: Эра Альтрона - Avengers: Age of Ultron (2015) BDRip 1080p от NNNB | D,A.torrentПродолжительность: 02:21Видео: 1920x804, 11020 Кбит/сек, 23,976 кадр/сек, 0,298 Бит/[Пиксели*Кадры]Звук:Аудио №1: русский / AC3 / 5.1 / 48 kHz / 640 kbps / |Дублированный|Аудио №2: русский / AC3 / 5.1 / 48 kHz / 640 kbps / |Авторский, Андрей Гаврилов|Аудио №3: английский / AC3 / 5.1 / 48 kHz / 640 kbps /Перевод: Дублированный, Авторский (одноголосый)Субтитры: русские (Forced), русские (Full), английские (Full), английские (SDH), английские (SDH-Colored)BDRip ПодробнееПроф. (полное дублирование)3.88 GB20 Окт 1518

▲ 29▼ 4

DVD5 ПодробнееПроф. (полное дублирование)4.37 GB08 Окт 150

▲ 7▼ 3

BDRemux ПодробнееПроф. (полное дублирование)28.52 GB28 Сен 150

▲ 8▼ 4

Файл: Мстители: Эра Альтрона - Avengers: Age of Ultron (2015) BDRemux 1080p.torrentПродолжительность: 02:21Видео: MPEG-4 AVC/H.264, 1920x1080 (16:9), ~23741 Кбит/секЗвук:Аудио 1: AC3 5.1, 640 Кбит/сек [Русский - дублированный]Аудио 2: DTS-HD MA 7.1, 4229 Кбит/сек [Английский - оригинал]Аудио 3: AC3 2.0, 320 Кбит/сек [Английский - описательный]Аудио 4: AC3 2.0, 192 Кбит/сек [Английский - комментарий]Перевод: Дублированный [лицензия]Субтитры: Русские, английскиеBlu-Ray ПодробнееПроф. (полное дублирование)42.42 GB27 Сен 151

▲ 5▼ 3

Файл: Мстители: Эра Альтрона - Avengers: Age of Ultron (2015) Blu-Ray от HDClub | 3D-Video | Лицензия.torrentПродолжительность: 02:21Видео: 23698 Кbps, 1920x1080, 23.976 fpsЗвук:Аудио 1: DTS-HD MA 8 ch, 48.0 KHz, 4229 Kbps (английский)Аудио 2: DTS-HD HR 6 ch, 48.0 KHz, 2046 Kbps (французский)Аудио 3: Dolby Digital 6 ch, 48.0 KHz, 640 Кbps (русский)Аудио 4: Dolby Digital 6 ch, 48.0 KHz, 640 Кbps (казахский)Перевод: полное дублированиеСубтитры: русские, английские, арабские, голландские, французскиеBDRip ПодробнееПроф. (полное дублирование)7.77 GB24 Сен 152

▲ 10▼ 3

Файл: Мстители: Эра Альтрона - Avengers: Age of Ultron (2015) BDRip 720p от HQCLUB | Лицензия.torrentПродолжительность: 02:21Видео: 1280x536 (0% AR dist.) 2,40:1 at 23.976, MPEG-4 AVC ~ 5946 kbps avg, 0.361 bit/pixelЗвук:Аудио#1: 48 kHz/16-bit, AC3 Dolby Digital, 3/2 (L,C,R,l,r) + LFE ch, ~ 640 kbps avg | RUS, Blu-ray CEEАудио#2: 48 kHz/16-bit, AC3 Dolby Digital, 3/2 (L,C,R,l,r) + LFE ch, ~ 640 kbps avg | UKR, Disney / Buena VistaАудио#3: 48 kHz/16-bit, AC3 Dolby Digital, 3/2 (L,C,R,l,r) + LFE ch, ~ 640 kbps avg | ENGПеревод: Профессиональный (полное дублирование) BD CEE, Профессиональный (полное дублирование) «Украинский»Субтитры: Русские (форсированные, полные х 2 (BD + от Анастасии Кисиленко)), Украинские (полные, форсированные), Английские (полные, SDH, SDH цветные)BDRip ПодробнееПроф. (полное дублирование)3.77 GB20 Сен 151

▲ 13▼ 4

Файл: Мстители: Эра Альтрона - Avengers: Age of Ultron (2015) BDRip-AVC от ExKinoRay | Лицензия.torrentПродолжительность: 02:21Видео: MPEG-4 AVC, 2472 Кбит/с, 1024x428Звук: Русский (AC3, 6 ch, 448 Кбит/с), украинский (AC3, 6 ch, 448 Кбит/с), английский (AC3, 6 ch, 448 Кбит/с)Перевод: Дублированный (Лицензия)Субтитры: Русские, украинские, английскиеBDRip ПодробнееПроф. (полное дублирование)745.51 MB18 Сен 153

▲ 20▼ 4

BDRip ПодробнееПроф. (полное дублирование)2.18 GB18 Сен 150

▲ 4▼ 3

Файл: Мстители: Эра Альтрона - Avengers: Age of Ultron (2015) BDRip от Scarabey | Лицензия.torrentПродолжительность: 02:21Видео: 720x304 (2.37:1), 23.976 fps, XviD build 73 ~1750 kbps avg, 0.33 bit/pixelЗвук:Аудио: 48 kHz, AC3 Dolby Digital, 3/2 (L,C,R,l,r) + LFE ch, ~448 kbpsПеревод: Профессиональный (полное дублирование) [Лицензия]BDRip ПодробнееПроф. (полное дублирование)2.91 GB18 Сен 150

▲ 14▼ 3

BDRip ПодробнееПроф. (полное дублирование)1.46 GB17 Сен 150

▲ 463▼ 8

Blu-Ray ПодробнееПроф. (полное дублирование)39.22 GB17 Сен 150

▲ 4▼ 3

Файл: Мстители: Эра Альтрона - Avengers: Age of Ultron (2015) Blu-Ray CEE.torrentПродолжительность: 02:21Видео: MPEG-4 AVC, 23741 Кбит/с, 1920x1080Звук:Аудио: Русский, чешский, польский (AC3, 6 ch, 640 Кбит/с), казахский (AC3, 2 ch, 320 Кбит/с), английский (DTS-HD MA, 6 ch, 3545 Кбит/с), (AC3, 2 ch, 192 Кбит/с)Перевод: Дублированное [Лицензия]Субтитры: Русские, английские, португальские, датские, финские, норвежскиеBDRip ПодробнееПроф. (полное дублирование)2.91 GB17 Сен 150

▲ 97▼ 3

Файл: Мстители: Эра Альтрона - Avengers: Age of Ultron (2015) BDRip от HQCLUB | Лицензия.torrentПродолжительность: 02:21Видео: 720x304 (2.37:1), 23.976 fps, XviD build 66 ~2045 kbps avg, 0. bit/pixelЗвук:Аудио #1: 48 kHz, AC3 Dolby Digital, 3/2 (L,C,R,l,r) + LFE ch, ~448.00 kbps avgАудио #2: 48 kHz, AC3 Dolby Digital, 3/2 (L,C,R,l,r) + LFE ch, ~448.00 kbps avgАудио #3: 48 kHz, AC3 Dolby Digital, 3/2 (L,C,R,l,r) + LFE ch, ~448.00 kbps avg (отдельно, http)Перевод: Профессиональный (полное дублирование) CEE + Оригинальная звуковая дорожка + Украинская дублированная звуковая дорожка (отдельно, http)Субтитры: Русские (полные, форсированные), английские (полные, SDH, SDH Colored), украинские (полные, форсированные) (внешние srt*) (спасибо Elheym)BDRip ПодробнееПроф. (полное дублирование)4.04 GB17 Сен 150

▲ 5▼ 4

Файл: Мстители: Эра Альтрона - Avengers: Age of Ultron (2015) BDRip-AVC от HQCLUB | D | Лицензия.torrentПродолжительность: 02:21Видео: 1146x480 (2.40:1), 23.976 fps, MPEG-4 AVC, ~3200 kbps avg, 0.243 bit/pixelЗвук:Аудио #1: 48 kHz, AC3 Dolby Digital, 3/2 (L,C,R,l,r) + LFE ch, ~448 kbps avg (DUB)Аудио #2: 48 kHz, AC3 Dolby Digital, 3/2 (L,C,R,l,r) + LFE ch, ~448 kbps avg (ENG)Аудио #3: 48 kHz, AC3 Dolby Digital, 3/2 (L,C,R,l,r) + LFE ch, ~448 kbps avg (UKR) (отдельно)Перевод: Профессиональный (полное дублирование) BD EURСубтитры: русские (полные: BD, iTunes, Анастасии Кисиленко aka Medveditsa; форсированные: BD, iTunes), украинские (полные, форсированные), английские (полные, SDH, SDH цветные)BDRip ПодробнееПроф. (полное дублирование)15.43 GB17 Сен 150

▲ 45▼ 5

Файл: Мстители: Эра Альтрона - Avengers: Age of Ultron (2015) BDRip 1080p | Лицензия.torrentПродолжительность: 02:21Видео: 1920x804 at 23.976 fps, [email protected], ~11.1 Mbps avgЗвук:Аудио#1: Russian: 48 kHz, AC3, 3/2 (L,C,R,l,r) + LFE ch, ~640 kbps avg |Дубляж, Blu-ray CEE|Аудио#2: Ukrainian: 48 kHz, DTS, 3/2 (L,C,R,l,r) + LFE ch, ~1509 kbps avg |Дубляж|Аудио#3: English: 48 kHz, DTS, 3/2 (L,C,R,l,r) + LFE ch, ~1509 kbps avgАудио#4: English: 48 kHz, AC3, 2/0 (L,R) ch, ~320.00 kbps avg |Descrіptіve|Аудио#5: English: 48 kHz, AC3, 2/0 (L,R) ch, ~192.00 kbps avg |Commentary With Director Joss Whedon|Перевод: Профессиональный (дублированный) Blu-ray CEEСубтитры: Russian, Ukrainian, EnglishBDRip ПодробнееПроф. (полное дублирование)13.42 GB10 Сен 150

▲ 1▼ 0

Файл: Мстители: Эра Альтрона - Avengers: Age of Ultron (2015) BDRip 1080p от ExKinoRay | D.torrentПродолжительность: 02:21Видео: MPEG-4 AVC, 7777 Кбит/с, 1920x804, 23.976 кадр/сЗвук:Аудио: Русский, украинский (AC3, 6 ch, 640 Кбит/с), (DTS, 6 ch, 1509 Кбит/с), английский (DTS, 6 ch, 1509 Кбит/с)Перевод: ДублированныйСубтитры: Русские, английскиеWEB-DLRip ПодробнееПроф. (полное дублирование)805.92 MB23 Авг 150

▲ 6▼ 3

BDRip ПодробнееПроф. (полное дублирование)823.55 MB08 Ноя 150

▲ 24▼ 0

BDRip ПодробнееПроф. (одноголосный)3.32 GB06 Ноя 150

▲ 9▼ 3

BDRip ПодробнееПроф. (полное дублирование)5.77 GB04 Ноя 150

▲ 31▼ 4

Файл: Мстители: Эра Альтрона - Avengers: Age of Ultron (2015) BDRip 720p от NNNB | D, A.torrentПродолжительность: 02:21Видео: 1280x536, 3927 Кбит/сек, 23,976 кадр/сек, 0,232 Бит/[Пиксели*Кадры]Звук:Аудио №1: русский / AC3 / 5.1 / 48 kHz / 640 kbps / |Дублированный|Аудио №2: русский / AC3 / 5.1 / 48 kHz / 640 kbps / |Авторский, Андрей Гаврилов|Аудио №3: английский / AC3 / 5.1 / 48 kHz / 640 kbps /Перевод: Дублированный, Авторский (одноголосый)Субтитры: русские (Forced), русские (Full), английские (Full), английские (SDH), английские (SDH-Colored)DVD9 ПодробнееПроф. (полное дублирование)7.37 GB10 Окт 150

▲ 4▼ 1

Файл: Мстители: Эра Альтрона - Avengers: Age of Ultron (2015) DVD9 | Лицензия.torrentПродолжительность: 02:21Видео: PAL 16:9 ([email protected]) VBR 5499 Kbps, 25.000 fpsЗвук:Аудио 1: Dolby AC3, 6 ch, 48.0 KHz, 384 Kbps (русский, английский, французский)Аудио 2: Dolby AC3, 2 ch, 48.0 KHz, 192 Kbps (казахский)Перевод: полное дублированиеСубтитры: русские, английские, французские, арабские, голландскиеDVD9 ПодробнееПроф. (полное дублирование)6.71 GB29 Сен 150

▲ 1▼ 3

Файл: Мстители: Эра Альтрона - Avengers: Age of Ultron (2015) DVD9 | Custom.torrentПродолжительность: 02:21Видео: MPEG-2, [email protected] (NTSC 16:9), ~5200 Кбит/секЗвук:Аудио 1: AC3 5.1, 384 Кбит/сек [Английский - оригинал]Аудио 2: AC3 5.1, 448 Кбит/сек [Русский - дублированный]Перевод: ДублированныйСубтитры: Английские, русскиеBDRip ПодробнееПроф. (полное дублирование)9.61 GB27 Сен 150

▲ 14▼ 4

Файл: Мстители: Эра Альтрона - Avengers: Age of Ultron (2015) BDRip 1080p от NNNB | 60 fps.torrentПродолжительность: 02:21Видео: 1920x804, 8431 Кбит/сек, 59.940 кадр/сек, AVC, x264, [email protected], 2.40:1, 0.091 Бит/[Пиксели*Кадры]Звук:Аудио 1: AC-3, 640 Кбит/сек, 6 канала(ов), 48,0 КГц - Дублированный / РусскийАудио 2: AC-3, 448 Кбит/сек, 6 канала(ов), 48,0 КГц - Оригинал / АнглийскийПеревод: ДублированныйСубтитры: Русские | Полные, Английские | ПолныеHDRip ПодробнееПроф. (полное дублирование)586.52 MB26 Сен 150

▲ 15▼ 4

BDRip ПодробнееПроф. (полное дублирование)2.18 GB20 Сен 150

▲ 119▼ 3

BDRip ПодробнееПроф. (полное дублирование)7.76 GB19 Сен 150

▲ 56▼ 5

BDRip ПодробнееПроф. (полное дублирование)3.40 GB18 Сен 150

▲ 6▼ 4

Файл: Мстители: Эра Альтрона - Avengers: Age of Ultron (2015) BDRip-AVC от Scarabey | Лицензия.torrentПродолжительность: 02:21Видео: 1024х428, 23.976 fps, AVC, ~2798 kbps avg, 0.266 bit/pixelЗвук:Аудио: 48 kHz, AC3 Dolby Digital, 3/2 (L,C,R,l,r) + LFE ch, ~640.00 kbps avgПеревод: Профессиональный (полное дублирование) [Лицензия]BDRip ПодробнееПроф. (полное дублирование)6.31 GB18 Сен 150

▲ 13▼ 3

Файл: Мстители: Эра Альтрона - Avengers: Age of Ultron (2015) BDRip 720p от HELLYWOOD | Лицензия.torrentПродолжительность: 02:21Видео: AVC, 1280x536 (2.40:1), 4468 kbps, 23,976 fps, 0.272 bit/pixelЗвук:Аудио#1: AC3 / 5.1 / 48 kHz / 640 kbps / 16 bit | RUSАудио#2: AC3 / 5.1 / 48 kHz / 640 kbps / 16 bit | UKRАудио#3: AC3 / 5.1 / 48 kHz / 640 kbps / 16 bit | ENGПеревод: Дубляж [лицензия BD CEE]Субтитры: русские (полные + форс.), украинские (полные + форс.), английские (Full + SDH + SDH-Colored)BDRip ПодробнееПроф. (полное дублирование)1.47 GB18 Сен 150

▲ 10▼ 3

BDRip ПодробнееПроф. (полное дублирование)5.17 GB17 Сен 150

▲ 14▼ 3

Файл: Мстители: Эра Альтрона - Avengers: Age of Ultron (2015) BDRip 720p от NNNB | 60 fps.torrentПродолжительность: 02:21Видео: 1280x536, 4032 Кбит/сек, 59.940 кадр/сек, AVC, x264, [email protected], 2.40:1, 0.098 Бит/[Пиксели*Кадры]Звук:Аудио 1: AC-3, 640 Кбит/сек, 6 канала(ов), 48,0 КГц - Дублированный / РусскийАудио 2: AC-3, 448 Кбит/сек, 6 канала(ов), 48,0 КГц - Оригинал / АнглийскийПеревод: ДублированныйСубтитры: Русские | Полные, Английские | ПолныеBDRip ПодробнееПроф. (полное дублирование)12.00 GB17 Сен 150

▲ 35▼ 5

BDRip ПодробнееПроф. (полное дублирование)4.31 GB17 Сен 150

▲ 17▼ 6

BDRip ПодробнееПроф. (полное дублирование)9.73 GB17 Сен 150

▲ 48▼ 4

Файл: Мстители: Эра Альтрона - Avengers: Age of Ultron (2015) BDRip 720p | Лицензия.torrentПродолжительность: 02:21Видео: 1280x536 at 23.976 fps, [email protected], ~5470 kbps avgЗвук:Аудио#1: Russian: 48 kHz, AC3, 3/2 (L,C,R,l,r) + LFE ch, ~640 kbps avg |Дубляж, Blu-ray CEE|Аудио#2: Ukrainian: 48 kHz, DTS, 3/2 (L,C,R,l,r) + LFE ch, ~1509 kbps avg |Дубляж|Аудио#3: English: 48 kHz, DTS, 3/2 (L,C,R,l,r) + LFE ch, ~1509 kbps avgАудио#4: English: 48 kHz, AC3, 2/0 (L,R) ch, ~320.00 kbps avg |Descrіptіve|Аудио#5: English: 48 kHz, AC3, 2/0 (L,R) ch, ~192.00 kbps avg |Commentary With Director Joss Whedon|Перевод: Профессиональный (дублированный) Blu-ray CEEСубтитры: Russian, Ukrainian, EnglishBDRip ПодробнееПроф. (полное дублирование)823.87 MB12 Сен 150

▲ 6▼ 3

WEB-DLRip ПодробнееПроф. (полное дублирование)1.45 GB08 Сен 150

▲ 106▼ 3

WEB-DLRip ПодробнееПроф. (полное дублирование)2.18 GB23 Авг 150

▲ 16▼ 3

vkinoshke.com


Смотрите также