Расплата скачать торрент 2016 фильм в хорошем качестве 720


Скачать фильм Расплата (2016) через торрент

23 января 2017 05:49 Расплата (2016) BDRip-AVC от HELLYWOOD | Лицензия.mkv.torrent   [Информация о файле (нажмите для просмотра)] Продолжительность: 02:07:53Перевод: Дубляж [Blu-ray CEE]Субтитры: русские (полные + форс.), английские (Full + SDH + SDH-Colored)Навигация по главам: есть

Качество: BDRip-AVCФормат: MKVВидео: AVC, 1108x464 (2,40:1), 2361 kbps, 23,976 fps, 0.192 bppАудио#1: AC3 / 5.1 / 48 kHz / 448 kbps / 16 bit | RUSАудио#2: AC3 / 5.1 / 48 kHz / 448 kbps / 16 bit | ENG

2,91 Gb 51 40 22 января 2017 18:04 Расплата (2016) BDRip 720p от ExKinoRay | Лицензия.mkv.torrent   [Информация о файле (нажмите для просмотра)] Продолжительность: 02:07:54Перевод: Дублированный | Лицензия

ФайлКачество: BDRip 720pВидео: MPEG-4 AVC, 1280x536, 6800 Kbit/s, 23.976 fpsЗвук: Аудио #01: 48 kHz, AC3, 5.1, 640 Kbps | Дублированный |Аудио #02: 48 kHz, AC3, 5.1, 640 kbps | Оригинал |Субтитры: Русские (full, forced), английские

7,22 Gb 52 29 22 января 2017 17:41 Расплата (2016) BDRip | Лицензия.torrent   [Информация о файле (нажмите для просмотра)] Качество: BDRipВидео: XviD, 1140 Кбит/с, 720x304Аудио: Русский (AC3, 6 ch, 448 Кбит/с)Размер: 1.42 ГБПродолжительность: 02:07:54Перевод: ДублированныйСубтитры: Русские (форсированные) 1,42 Gb 2 6 22 января 2017 17:40 Расплата (2016) BDRip 1080p от New-Team & qqss44 | Лицензия.mkv.torrent   [Информация о файле (нажмите для просмотра)] ✦ Продолжительность: 02:07:54✦ Перевод: дублированный - || Лицензия ||

═ Информация о файле ═✦ Формат:| MKV | x264 |✦ Качество: BDRip 1080p✦ Видео: X264/MPEG4-AVC | 1912x800 (2.40:1) | ~9909 kbps | 23,976 fps✦ Аудио Rus: AC3 | 48 KHz | 5.1 (Front: L С R Side: L R) + LFE | ~640 kbps✦ Аудио Eng: AC3 | 48 KHz | 5.1 (Front: L С R Side: L R) + LFE | ~640 kbps✦ Субтитры: || русские форс. и полные (два вида) || английские (полные) ||

9,99 Gb 599 62 22 января 2017 17:39 Расплата (2016) BDRip 720p | Лицензия.mkv.torrent   [Информация о файле (нажмите для просмотра)] Продолжительность: 02:07:54Перевод: Профессиональный (дублированный) Blu-ray EUR

Релиз:

ФайлКачество: BDRip 720pФормат: MatroskaВидео: 1280x536 at 23.976 fps, [email protected], ~8866 kbps avgAудио#1: Russian: 48 kHz, AC3, 3/2 (L,C,R,l,r) + LFE ch, ~640 kbps |Дубляж, Blu-ray EUR|Аудио#2: English: 48 kHz, DTS, 3/2 (L,C,R,l,r) + LFE ch, ~1509 kbpsСубтитры: Russian (Forced, iTunes), Russian (iTunes), English, English (SDH)

***Сохранены оригинальные главы как на Blu-ray.***Видеоряд - IDE!

10,04 Gb 46 29 22 января 2017 17:38 Расплата (2016) BDRip 1080p | Лицензия.mkv.torrent   [Информация о файле (нажмите для просмотра)] Продолжительность: 02:07:54Перевод: Профессиональный (дублированный) Blu-ray EUR

Релиз:

ФайлКачество: BDRip 1080pФормат: MatroskaВидео: 1920x800 at 23.976 fps, [email protected], ~15000 kbps avgAудио#1: Russian: 48 kHz, AC3, 3/2 (L,C,R,l,r) + LFE ch, ~640 kbps |Дубляж, Blu-ray EUR|Аудио#2: English: 48 kHz, DTS, 3/2 (L,C,R,l,r) + LFE ch, ~1509 kbpsСубтитры: Russian (Forced, iTunes), Russian (iTunes), English, English (SDH)

***Сохранены оригинальные главы как на Blu-ray.***Видеоряд - DON! ***Dirty lines in intro cleaned with bb. 27 scenes deblocked / debanded + zones.

15,65 Gb 46 37

gig-torrent.net

Скачать фильм Расплата через торрент в хорошем качестве бесплатно 720p

Раздают: 4 [ 0 KB/s ]
Размер: 6.99 GB | Добавлен: 9 мес. назад | Торрент скачан:756 раз
Реклама Дарим 3000 рублей за регистрацию, не упусти свой шанс получить шикарный бонус!!!

28-12-2016 05:39 Расплата Скачать торрент  

РасплатаThe Accountant«Рассчитайте свой выбор» Год выпуска: 2016Страна: СШАЖанр: боевик, триллер, драма, криминалПродолжительность: 02:07:54Перевод: Дубляж - [Лицензия / iTunes]Субтитры: русские (Forced), русские (Full), английские (Full), английские (SDH)Режиссер: Гэвин О’КоннорВ ролях: Бен Аффлек (Christian Wolff), Анна Кендрик (Dana Cummings), Дж.К. Симмонс (Ray King), Джон Бернтал (Brax), Джеффри Тэмбор (Francis Silverberg), Синтия Аддай-Робинсон (Marybeth Medina), Джон Литгоу (Lamar Black), Джин Смарт (Rita Blackburn), Энди Умбергер (Ed Chilton), Элисон Райт (Justine), Джейсон Дэвис (Neurologist), Роберт С. Тревилер (Young Chris's Father)Описание: Лента расскажет историю математического гения Кристиана Вульфа, который подрабатывает аудитором для самых опасных преступных организаций. Когда ему на хвост садится отдел по борьбе с преступностью Министерства финансов во главе с Рэем Кингом, Кристиан решает найти себе законопослушного клиента и проводит аудит в компании по производству новейшей робототехники, где сотрудница финансового отдела обнаружила «нестыковочку» в миллионы долларов. Но стоит Кристиану взяться за счета и выйти на след, как в деле начинают появляться жертвы.Рейтинг: MPAA: R - Лицам до 17 лет обязательно присутствие взрослогоКачество: BDRip 720pФормат: MKVВидео: AVC, 1280x536 (2.40:1), 6800 kbps, 23,976 fps, 0,413 bppАудио №1: русский / AC3 / 5.1 / 48 kHz / 384 kbps / || Аудио №2: английский / AC3 / 5.1 / 48 kHz / 640 kbps /Навигация по главам: есть

Релиз от: Автор релиза:

GeneralUnique ID : 211897105593763413963231155404831569221 (0x9F69E5E884BECEC99C015B470931B545)Complete name : The.Accountant.2016.D.BDRip.720p.ExKinoRay.mkvFormat : MatroskaFormat version : Version 4 / Version 2File size : 6.99 GiBDuration : 2 h 7 minOverall bit rate : 7 821 kb/sMovie name : ***селезень*** The.Accountant.2016Encoded date : UTC 2016-12-27 22:39:55Writing application : mkvmerge v8.3.0 ('Over the Horizon') 64bitWriting library : libebml v1.3.1 + libmatroska v1.4.2

VideoID : 1Format : AVCFormat/Info : Advanced Video CodecFormat profile : [email protected] settings, CABAC : YesFormat settings, ReFrames : 12 framesCodec ID : V_MPEG4/ISO/AVCDuration : 2 h 7 minBit rate : 6 800 kb/sWidth : 1 280 pixelsHeight : 536 pixelsDisplay aspect ratio : 2.40:1Frame rate mode : ConstantFrame rate : 23.976 (24000/1001) FPSColor space : YUVChroma subsampling : 4:2:0Bit depth : 8 bitsScan type : ProgressiveBits/(Pixel*Frame) : 0.413Stream size : 6.07 GiB (87%)Title : ***селезень*** The.Accountant.2016Writing library : x264 core 148 r2744kMod b97ae06Encoding settings : cabac=1 / ref=12 / deblock=1:-3:-3 / analyse=0x3:0x133 / me=tesa / subme=11 / psy=1 / fade_compensate=0.00 / psy_rd=1.10:0.00 / mixed_ref=1 / me_range=32 / chroma_me=1 / trellis=2 / 8x8dct=1 / cqm=0 / deadzone=21,11 / fast_pskip=0 / chroma_qp_offset=-2 / threads=12 / lookahead_threads=2 / sliced_threads=0 / nr=0 / decimate=0 / interlaced=0 / bluray_compat=0 / constrained_intra=0 / bframes=8 / b_pyramid=2 / b_adapt=2 / b_bias=0 / direct=3 / weightb=1 / open_gop=0 / weightp=2 / keyint=240 / keyint_min=24 / scenecut=40 / intra_refresh=0 / rc_lookahead=0 / rc=2pass / mbtree=0 / bitrate=6800 / ratetol=1.0 / qcomp=0.70 / qpmin=0 / qpmax=69 / qpstep=4 / cplxblur=20.0 / qblur=0.5 / vbv_maxrate=50000 / vbv_bufsize=30000 / nal_hrd=none / filler=0 / ip_ratio=1.25 / pb_ratio=1.20 / aq=3:0.80 / zones=1119,1360,psy_rd=1.15:0.0/20479,21250,b=1.3,aq-strength=1.1/22897,23426,b=1.3,aq-strength=1.1/25303,25472,b=1.3,aq-strength=1.1/27695,29640,b=1.4,aq-strength=1.1/38186,38304,b=1.3,aq-strength=1.1/38613,42446,b=1.3,aq-strength=1.1/46963,48711,b=1.3,aq-strength=1.1/55583,55735,b=1.4,aq-strength=1.1/62314,65483,b=1.3,aq-strength=1.1/69383,71296,b=1.3,aq-strength=1.1/90258,93866,b=1.2,aq-strength=1.0/94603,96412,b=1.3,aq-strength=1.1/105967,109817,b=1.4,aq-strength=1.1/132348,133213,b=1.4,aq-strength=1.1/142793,164742,b=1.4,aq-strength=1.1Language : EnglishDefault : YesForced : No

Audio #1ID : 2Format : AC-3Format/Info : Audio Coding 3Mode extension : CM (complete main)Format settings, Endianness : BigCodec ID : A_AC3Duration : 2 h 7 minBit rate mode : ConstantBit rate : 384 kb/sChannel(s) : 6 channelsChannel positions : Front: L C R, Side: L R, LFESampling rate : 48.0 kHzFrame rate : 31.250 FPS (1536 spf)Compression mode : LossyStream size : 351 MiB (5%)Title : Dub [iTunes]Language : RussianDefault : YesForced : No

Audio #2ID : 3Format : AC-3Format/Info : Audio Coding 3Mode extension : CM (complete main)Format settings, Endianness : BigCodec ID : A_AC3Duration : 2 h 7 minBit rate mode : ConstantBit rate : 640 kb/sChannel(s) : 6 channelsChannel positions : Front: L C R, Side: L R, LFESampling rate : 48.0 kHzFrame rate : 31.250 FPS (1536 spf)Compression mode : LossyStream size : 585 MiB (8%)Title : OriginalLanguage : EnglishDefault : NoForced : No

Text #1ID : 4Format : UTF-8Codec ID : S_TEXT/UTF8Codec ID/Info : UTF-8 Plain TextDuration : 1 h 53 minBit rate : 2 b/sCount of elements : 39Stream size : 2.04 KiB (0%)Title : ForcedLanguage : RussianDefault : YesForced : No

Text #2ID : 5Format : UTF-8Codec ID : S_TEXT/UTF8Codec ID/Info : UTF-8 Plain TextDuration : 2 h 7 minBit rate : 94 b/sCount of elements : 1546Stream size : 88.1 KiB (0%)Title : FullLanguage : RussianDefault : NoForced : No

Text #3ID : 6Format : UTF-8Codec ID : S_TEXT/UTF8Codec ID/Info : UTF-8 Plain TextDuration : 1 h 58 minBit rate : 54 b/sCount of elements : 1495Stream size : 47.5 KiB (0%)Title : FullLanguage : EnglishDefault : NoForced : No

Text #4ID : 7Format : UTF-8Codec ID : S_TEXT/UTF8Codec ID/Info : UTF-8 Plain TextDuration : 1 h 59 minBit rate : 59 b/sCount of elements : 1700Stream size : 52.3 KiB (0%)Title : SDHLanguage : EnglishDefault : NoForced : No

Menu00:00:00.000 : en:Chapter 0100:13:01.447 : en:Chapter 0200:20:36.276 : en:Chapter 0300:29:30.393 : en:Chapter 0400:38:44.655 : en:Chapter 0500:49:33.679 : en:Chapter 0601:00:05.435 : en:Chapter 0701:13:39.706 : en:Chapter 0801:25:57.068 : en:Chapter 0901:39:15.658 : en:Chapter 1001:54:31.155 : en:Chapter 1102:01:40.251 : en:Chapter 12

Скриншоты                  Скачать Расплата через торрент http://i88.fastpic.ru/big/2016/1228/32/429b2f23bf6cb1d5509466da20abce32.png Скачать фильм Расплата через торрент бесплантно в хорошем качестве Описание: Лента расскажет историю математического гения Кристиана Вульфа, который подрабатывает аудитором для самых опасных преступных ... 2016-12-28 05:39 10 10 22

Loading...

Loading...

% Раздел Тема Автор DL S | L
Фильмы (Blu-ray, BD-Remux, HDDVD) [ 37.76 GB ] Расплата / The Accountant [2016 Blu-Ray CEE 1080p] DUB [] bober100 Скачать
Фильмы [HD 720p, 1080p] (Хороший звук DUB, MVO) [ 7.95 GB ] Расплата / The Accountant [2016 BDRip 720p от _denis_100 | NNNB] DUB + 3xAVO + VO + Original + Sub _denis_100 Скачать
Фильмы 2016 [DVDrip, WEB-DLRip, HDrip] (DUB, MVO) [ 1.46 GB ] Расплата / The Accountant [2016 BDRip] - [] Twi7ter Скачать
Фильмы 2016 [DVDrip, WEB-DLRip, HDrip] (DUB, MVO) [ 2.18 GB ] Расплата / The Accountant [2016 BDRip] - [] Twi7ter Скачать
Фильмы 2016 [DVDrip, WEB-DLRip, HDrip] (DUB, MVO) [ 2.13 GB ] Расплата / The Accountant [2016 BDRip] - Twi7ter Скачать
Фильмы [HD 720p, 1080p] (Хороший звук DUB, MVO) [ 6.33 GB ] Расплата / The Accountant [2016 BDRip 720p] DUB AVO potroks Скачать
Фильмы [HD 720p, 1080p] (Хороший звук DUB, MVO) [ 9.85 GB ] Расплата / The Accountant [2016 BDRip 1080p] - sheker187 Скачать

Рекламный пират

Дорогой пользователь! Огромная просьба, поблагодарите релизера, оцените раздачу и оставьте свои комментарий, если Вы скачали Расплата через торрент бесплатно! Внесите свою лепту в развитие PiratBit!

Комментировать посты могут только пользователи прошедшие не сложную регистрацию

Расплата через торрент Скачать бесплатно Расплата Расплата скачать торрент Расплата смотреть онлайн Cкачать фильм Расплата бесплатно Расплата скачать торрент в хорошем качестве Расплата смотреть онлайн бесплатно в хорошем качестве

Вы можете начинать темыВы можете отвечать на сообщенияВы не можете редактировать свои сообщенияВы не можете удалять свои сообщенияВы не можете голосовать в опросахВы не можете прикреплять файлы к сообщениямВы можете скачивать файлы

piratbit.ru

Скачать фильм Расплата через торрент в хорошем качестве бесплатно HDTV 1080p

Размер: 4.84 GB | Добавлен: 10 мес. назад | Торрент скачан:800 раз
Реклама Дарим 3000 рублей за регистрацию, не упусти свой шанс получить шикарный бонус!!!

11-12-2016 01:25 Расплата Скачать торрент  

Расплата / The Accountant«Сделайте свой выбор»
  • Год выпуска: 2016
  • Страна: США
  • Жанр: боевик, триллер, драма, криминал
  • Продолжительность: 02:08:11
  • Перевод: Дубляж - [Чистый звук]
  • Примечание: Присутствует реклама!
  • Субтитры: Корейские (хадрсаб)
  • Режиссер: Гэвин О’Коннор / Gavin O'Connor
  • В ролях: Бен Аффлек (Christian Wolff), Анна Кендрик (Dana Cummings), Дж.К. Симмонс (Ray King), Джон Бернтал (Brax), Джеффри Тэмбор (Francis Silverberg), Синтия Аддай-Робинсон (Marybeth Medina), Джон Литгоу (Lamar Black), Джин Смарт (Rita Blackburn), Энди Умбергер (Ed Chilton), Элисон Райт (Justine), Джейсон Дэвис (Neurologist), Роберт С. Тревилер (Young Chris's Father)
  • Лента расскажет историю математического гения Кристиана Вульфа, который подрабатывает аудитором для самых опасных преступных организаций. Когда ему «на хвост» садится отдел по борьбе с преступностью Министерства финансов во главе с Рэем Кингом Кристиан решает найти себе законопослушного клиента и проводит аудит в компании по производству новейшей робототехники, где сотрудница финансового отдела обнаружила «нестыковочку» в миллионы долларов. Но стоит Кристиану взяться за счета и выйти на след, как в деле начинают появляться жертвы.
  • Рейтинг:
  • Качество: HDTV 1080p
  • Формат: :MKV
  • Видео кодек: AVC
  • Аудио кодек: AC3
  • Видео: 1916x800 (2.40:1), 5022 kbps, 29,970 fps, 0,109 bpp
  • Аудио: 2.0 / 48 kHz / 384 kbps
  • Релиз от: KOSHARA GeneralUnique ID : 241727180629481638317381066493294746734 (0xB5DAF6287242FCCBAD86D1D88B371C6E)Complete name : G:\The.Accountant.2016.D.HDTV.1O8Op_KOSHARA.mkvFormat : MatroskaFormat version : Version 2File size : 4.84 GiBDuration : 2 h 8 minOverall bit rate mode : VariableOverall bit rate : 5 409 kb/sEncoded date : UTC 2016-12-10 21:12:53Writing application : mkvmerge v8.3.0 ('Over the Horizon') 64bitWriting library : libebml v1.3.1 + libmatroska v1.4.2

    VideoID : 1Format : AVCFormat/Info : Advanced Video CodecFormat profile : [email protected] settings, CABAC : YesFormat settings, ReFrames : 5 framesCodec ID : V_MPEG4/ISO/AVCDuration : 2 h 8 minBit rate mode : VariableBit rate : 5 022 kb/sMaximum bit rate : 5 500 kb/sWidth : 1 916 pixelsHeight : 800 pixelsDisplay aspect ratio : 2.40:1Frame rate mode : ConstantFrame rate : 29.970 (30000/1001) FPSStandard : ComponentColor space : YUVChroma subsampling : 4:2:0Bit depth : 8 bitsScan type : ProgressiveBits/(Pixel*Frame) : 0.109Stream size : 4.50 GiB (93%)Default : YesForced : NoColor range : LimitedColor primaries : BT.709Transfer characteristics : BT.709Matrix coefficients : BT.709

    AudioID : 2Format : AC-3Format/Info : Audio Coding 3Mode extension : CM (complete main)Format settings, Endianness : BigCodec ID : A_AC3Duration : 2 h 8 minBit rate mode : ConstantBit rate : 384 kb/sChannel(s) : 2 channelsChannel positions : Front: L RSampling rate : 48.0 kHzFrame rate : 31.250 FPS (1536 spf)Compression mode : LossyStream size : 352 MiB (7%)Default : YesForced : No

    Скриншоты:
  • Скачать Расплата через торрент http://i83.fastpic.ru/big/2016/1211/59/211332e018c939fd094c98b267dc2859.jpg Скачать фильм Расплата через торрент бесплантно в хорошем качестве qw.png Лента расскажет историю математического гения Кристиана Вульфа, который подрабатывает аудитором для самых опасных преступных ... 2016-12-11 01:25 9.3 10 17

    Loading...

    Loading...

    % Раздел Тема Автор DL S | L
    Фильмы (Blu-ray, BD-Remux, HDDVD) [ 37.76 GB ] Расплата / The Accountant [2016 Blu-Ray CEE 1080p] DUB [] bober100 Скачать
    Фильмы [HD 720p, 1080p] (Хороший звук DUB, MVO) [ 7.95 GB ] Расплата / The Accountant [2016 BDRip 720p от _denis_100 | NNNB] DUB + 3xAVO + VO + Original + Sub _denis_100 Скачать
    Фильмы 2016 [DVDrip, WEB-DLRip, HDrip] (DUB, MVO) [ 1.46 GB ] Расплата / The Accountant [2016 BDRip] - [] Twi7ter Скачать
    Фильмы 2016 [DVDrip, WEB-DLRip, HDrip] (DUB, MVO) [ 2.18 GB ] Расплата / The Accountant [2016 BDRip] - [] Twi7ter Скачать
    Фильмы 2016 [DVDrip, WEB-DLRip, HDrip] (DUB, MVO) [ 2.13 GB ] Расплата / The Accountant [2016 BDRip] - Twi7ter Скачать
    Фильмы [HD 720p, 1080p] (Хороший звук DUB, MVO) [ 6.33 GB ] Расплата / The Accountant [2016 BDRip 720p] DUB AVO potroks Скачать
    Фильмы [HD 720p, 1080p] (Хороший звук DUB, MVO) [ 9.85 GB ] Расплата / The Accountant [2016 BDRip 1080p] - sheker187 Скачать

    Рекламный пират

    11-12-2016 07:56 Расплата Скачать торрент  

    звук как в ведро орут а видео типо WEB

    12-12-2016 11:47 Расплата Скачать торрент  

    Когда будет itunes? кто знает

    Юный Чикатилла

    14-12-2016 13:58 Расплата Скачать торрент  

    Думал зря на др. трекерах пишут, чуть-ли не лучший фильм 2016.Посмотрел полфильма пока на диване, пока согласен..

    Пох на перевод как выше пишут незнающие про то что диск не вышел и страдающие с этого, что на халяву скачали и надо требования предъявлятьЛично я скачал "дубляж" 720Р и заодно от Седакова в 720Р перевод., Сравнил оба перевода, второй вариант без шумов в колонках на полу через ресивер, лежу смотрю его..

    14-12-2016 14:22 Расплата Скачать торрент  

    Блин! Думал фигня! Посмотрел сбегал за пивом и еще раз посмотрел! Фильм прям хороший не злой интересный . Всем рекомендую !

    21-12-2016 10:47 Расплата Скачать торрент  

    Тогда надо подождать нормального качества.

    Дорогой пользователь! Огромная просьба, поблагодарите релизера, оцените раздачу и оставьте свои комментарий, если Вы скачали Расплата через торрент бесплатно! Внесите свою лепту в развитие PiratBit!

    Комментировать посты могут только пользователи прошедшие не сложную регистрацию

    Расплата через торрент Скачать бесплатно Расплата Расплата скачать торрент Расплата смотреть онлайн Cкачать фильм Расплата бесплатно Расплата скачать торрент в хорошем качестве Расплата смотреть онлайн бесплатно в хорошем качестве

    Вы можете начинать темыВы можете отвечать на сообщенияВы не можете редактировать свои сообщенияВы не можете удалять свои сообщенияВы не можете голосовать в опросахВы не можете прикреплять файлы к сообщениямВы можете скачивать файлы

    piratbit.ru

    Скачать фильм Расплата через торрент в хорошем качестве бесплатно 720p

    Раздают: 5 [ 0 KB/s ]
    Размер: 5.81 GB | Добавлен: 10 мес. назад | Торрент скачан:1981 раз
    Реклама Дарим 3000 рублей за регистрацию, не упусти свой шанс получить шикарный бонус!!!

    24-12-2016 14:37 Расплата Скачать торрент  

    Расплата / The Accountant Год выпуска: 2016Страна: СШАЖанр: боевик, триллер, драма, криминал

    Продолжительность: 02:07:54Перевод: Дубляж - [Чистый звук] (Официальный)Примечание: Релиз без рекламыСубтитры: русские (Full), русские (SDH), английские (Full), английские (SDH)

    Режиссер: Гэвин О’КоннорВ ролях: Бен Аффлек (Christian Wolff), Анна Кендрик (Dana Cummings), Дж.К. Симмонс (Ray King), Джон Бернтал (Brax), Джеффри Тэмбор (Francis Silverberg), Синтия Аддай-Робинсон (Marybeth Medina), Джон Литгоу (Lamar Black), Джин Смарт (Rita Blackburn), Энди Умбергер (Ed Chilton), Элисон Райт (Justine), Джейсон Дэвис (Neurologist), Роберт С. Тревилер (Young Chris's Father)Описание: Лента расскажет историю математического гения Кристиана Вульфа, который подрабатывает аудитором для самых опасных преступных организаций. Когда ему «на хвост» садится отдел по борьбе с преступностью Министерства финансов во главе с Рэем Кингом Кристиан решает найти себе законопослушного клиента и проводит аудит в компании по производству новейшей робототехники, где сотрудница финансового отдела обнаружила «нестыковочку» в миллионы долларов. Но стоит Кристиану взяться за счета и выйти на след, как в деле начинают появляться жертвы.Рейтинг: MPAA: R - Лицам до 17 лет обязательно присутствие взрослогоКачество: BDRip 720pФормат: MKVВидео: AVC, 1280x536 (2.40:1), 4606 kbps, 23,976 fps, 0,280 bppАудио №1: русский / AC3 / 2.0 / 48 kHz / 384 kbps / |Дубляж, Чистый звук| Аудио №2: английский / DTS / 5.1 / 48 kHz / 1509 kbps / 24 bitНавигация по главам: есть GeneralUnique ID : 171700954472642110932763229448744669992 (0x812C66A5F62B9E42965A806AE15B1328)Complete name : E:\The.Accountant.2016.BDRip.720p.mkvFormat : MatroskaFormat version : Version 4 / Version 2File size : 5.81 GiBDuration : 2 h 7 minOverall bit rate : 6 501 kb/sEncoded date : UTC 2016-12-24 01:36:56Writing application : mkvmerge v8.3.0 ('Over the Horizon') 64bitWriting library : libebml v1.3.1 + libmatroska v1.4.2

    VideoID : 1Format : AVCFormat/Info : Advanced Video CodecFormat profile : [email protected] settings, CABAC : YesFormat settings, ReFrames : 5 framesCodec ID : V_MPEG4/ISO/AVCDuration : 2 h 7 minBit rate : 4 606 kb/sWidth : 1 280 pixelsHeight : 536 pixelsDisplay aspect ratio : 2.40:1Frame rate mode : ConstantFrame rate : 23.976 FPSColor space : YUVChroma subsampling : 4:2:0Bit depth : 8 bitsScan type : ProgressiveBits/(Pixel*Frame) : 0.280Stream size : 4.00 GiB (69%)Writing library : x264 core 148 r2705 3f5ed56Encoding settings : cabac=1 / ref=5 / deblock=1:0:0 / analyse=0x3:0x133 / me=umh / subme=7 / psy=1 / psy_rd=1.00:0.00 / mixed_ref=1 / me_range=16 / chroma_me=1 / trellis=1 / 8x8dct=1 / cqm=0 / deadzone=21,11 / fast_pskip=0 / chroma_qp_offset=-2 / threads=17 / lookahead_threads=2 / sliced_threads=0 / nr=0 / decimate=1 / interlaced=0 / bluray_compat=0 / constrained_intra=0 / bframes=3 / b_pyramid=2 / b_adapt=1 / b_bias=0 / direct=1 / weightb=1 / open_gop=0 / weightp=2 / keyint=250 / keyint_min=23 / scenecut=40 / intra_refresh=0 / rc_lookahead=40 / rc=2pass / mbtree=1 / bitrate=4606 / ratetol=1.0 / qcomp=0.60 / qpmin=0 / qpmax=69 / qpstep=4 / cplxblur=20.0 / qblur=0.5 / ip_ratio=1.40 / aq=1:1.00Language : EnglishDefault : YesForced : No

    Audio #1ID : 2Format : AC-3Format/Info : Audio Coding 3Mode extension : CM (complete main)Format settings, Endianness : BigCodec ID : A_AC3Duration : 2 h 7 minBit rate mode : ConstantBit rate : 384 kb/sChannel(s) : 2 channelsChannel positions : Front: L RSampling rate : 48.0 kHzFrame rate : 31.250 FPS (1536 spf)Compression mode : LossyStream size : 351 MiB (6%)Title : DubLanguage : RussianDefault : YesForced : No

    Audio #2ID : 3Format : DTSFormat/Info : Digital Theater SystemsMode : 16Format settings, Endianness : BigCodec ID : A_DTSDuration : 2 h 7 minBit rate mode : ConstantBit rate : 1 509 kb/sChannel(s) : 6 channelsChannel positions : Front: L C R, Side: L R, LFESampling rate : 48.0 kHzFrame rate : 93.750 FPS (512 spf)Bit depth : 24 bitsCompression mode : LossyStream size : 1.35 GiB (23%)Title : OriginalLanguage : EnglishDefault : NoForced : No

    Text #1ID : 4Format : UTF-8Codec ID : S_TEXT/UTF8Codec ID/Info : UTF-8 Plain TextTitle : FullLanguage : RussianDefault : NoForced : No

    Text #2ID : 5Format : UTF-8Codec ID : S_TEXT/UTF8Codec ID/Info : UTF-8 Plain TextTitle : SDHLanguage : RussianDefault : NoForced : No

    Text #3ID : 6Format : UTF-8Codec ID : S_TEXT/UTF8Codec ID/Info : UTF-8 Plain TextTitle : FullLanguage : EnglishDefault : NoForced : No

    Text #4ID : 7Format : UTF-8Codec ID : S_TEXT/UTF8Codec ID/Info : UTF-8 Plain TextTitle : SDHLanguage : EnglishDefault : NoForced : No

    Menu00:00:00.000 : en:00:00:00.00000:13:01.447 : en:00:13:01.44700:20:36.277 : en:00:20:36.27700:29:30.394 : en:00:29:30.39400:38:44.656 : en:00:38:44.65600:49:33.679 : en:00:49:33.67901:00:05.435 : en:01:00:05.43501:13:39.707 : en:01:13:39.70701:25:57.069 : en:01:25:57.06901:39:15.658 : en:01:39:15.65801:54:31.156 : en:01:54:31.15602:01:40.251 : en:02:01:40.251

    Скачать Расплата через торрент http://i1.imageban.ru/out/2016/12/24/3baf3d7998085d98d37562dbe46fbe34.jpg Скачать фильм Расплата через торрент бесплантно в хорошем качестве Описание: Лента расскажет историю математического гения Кристиана Вульфа, который подрабатывает аудитором для самых опасных преступных ... 2016-12-24 14:37 9.6 10 45

    Loading...

    Loading...

    % Раздел Тема Автор DL S | L
    Фильмы (Blu-ray, BD-Remux, HDDVD) [ 37.76 GB ] Расплата / The Accountant [2016 Blu-Ray CEE 1080p] DUB [] bober100 Скачать
    Фильмы [HD 720p, 1080p] (Хороший звук DUB, MVO) [ 7.95 GB ] Расплата / The Accountant [2016 BDRip 720p от _denis_100 | NNNB] DUB + 3xAVO + VO + Original + Sub _denis_100 Скачать
    Фильмы 2016 [DVDrip, WEB-DLRip, HDrip] (DUB, MVO) [ 1.46 GB ] Расплата / The Accountant [2016 BDRip] - [] Twi7ter Скачать
    Фильмы 2016 [DVDrip, WEB-DLRip, HDrip] (DUB, MVO) [ 2.18 GB ] Расплата / The Accountant [2016 BDRip] - [] Twi7ter Скачать
    Фильмы 2016 [DVDrip, WEB-DLRip, HDrip] (DUB, MVO) [ 2.13 GB ] Расплата / The Accountant [2016 BDRip] - Twi7ter Скачать
    Фильмы [HD 720p, 1080p] (Хороший звук DUB, MVO) [ 6.33 GB ] Расплата / The Accountant [2016 BDRip 720p] DUB AVO potroks Скачать
    Фильмы [HD 720p, 1080p] (Хороший звук DUB, MVO) [ 9.85 GB ] Расплата / The Accountant [2016 BDRip 1080p] - sheker187 Скачать

    Рекламный пират

    25-12-2016 06:51 Расплата Скачать торрент  

    Спасибо, ждал хорошего качества )

    25-12-2016 13:17 Расплата Скачать торрент  

    В процессе просмотра фильма все время проводил аналогию главных героев из этого фильма и из фильма Эквилибриум (один из лучших боевиков по моему мнению), в котором людям «выжигали» эмоции с помощью мед. препаратов. В Эквилибриуме персонажу веришь. Здесь же, видна попытка сыграть роль, но попытка эта очень слабая.Бен Аффлек очень неумело показывает аутиста.

    Анна Кендрик вообще не понятно что здесь делает. Это явно не ее роль, не ее амплуа, ей нужно играть в различных придурковатых комедиях, там она вероятно лучше раскроет свой потенциал.

    Под конец фильма появилась просто неимоверная тонна «соплей», от вначале привлекательных по характеру персонажей, смотреть на которую не возможно — спасает перемотка.

    Не жалею, что не пошел в кинотеатр, фильм того не стоит.

    Последний раз редактировалось: PiratMan (2016-12-25 13:25), всего редактировалось 3 раз(а)

    25-12-2016 13:23 Расплата Скачать торрент  

    но рейтинг его будь здоров

    26-12-2016 06:29 Расплата Скачать торрент  

    PiratMan писал(а):

    В процессе просмотра фильма все время проводил аналогию главных героев из этого фильма и из фильма Эквилибриум (один из лучших боевиков по моему мнению), в котором людям «выжигали» эмоции с помощью мед. препаратов. В Эквилибриуме персонажу веришь. Здесь же, видна попытка сыграть роль, но попытка эта очень слабая.Бен Аффлек очень неумело показывает аутиста.

    Анна Кендрик вообще не понятно что здесь делает. Это явно не ее роль, не ее амплуа, ей нужно играть в различных придурковатых комедиях, там она вероятно лучше раскроет свой потенциал.

    Под конец фильма появилась просто неимоверная тонна «соплей», от вначале привлекательных по характеру персонажей, смотреть на которую не возможно — спасает перемотка.

    Не жалею, что не пошел в кинотеатр, фильм того не стоит.

    По поводу эквилибриума поддерживаю - фильм агонь.

    27-12-2016 05:03 Расплата Скачать торрент  

    просто супер фильм

    27-12-2016 14:30 Расплата Скачать торрент  

    PiratMan писал(а):

    Бен Аффлек очень неумело показывает аутиста.

    В БПС он сыграл такого же, безэмоционального, ходячего камня...Сам же БПС понравился тем, что очень уж мрачный получился.Здесь и фильм и сценарий на высоте...А главная роль, как нельзя кстати подошла Аффлеку потому, как засосало его Бетменом(отличие только в том, что он обдувает кончики пальцев и без костюма носится)...И вообще, PiratMan, объясни как "показать" какую-то серьезную болезнь человеку, который ей не болеет?

    27-12-2016 19:41 Расплата Скачать торрент  

    J.Logan писал(а):

    PiratMan писал(а):

    Бен Аффлек очень неумело показывает аутиста.

    В БПС он сыграл такого же, безэмоционального, ходячего камня...Сам же БПС понравился тем, что очень уж мрачный получился.Здесь и фильм и сценарий на высоте...А главная роль, как нельзя кстати подошла Аффлеку потому, как засосало его Бетменом(отличие только в том, что он обдувает кончики пальцев и без костюма носится)...И вообще, PiratMan, объясни как "показать" какую-то серьезную болезнь человеку, который ей не болеет?полностью с тобой солидарен

    Дорогой пользователь! Огромная просьба, поблагодарите релизера, оцените раздачу и оставьте свои комментарий, если Вы скачали Расплата через торрент бесплатно! Внесите свою лепту в развитие PiratBit!

    Комментировать посты могут только пользователи прошедшие не сложную регистрацию

    Расплата через торрент Скачать бесплатно Расплата Расплата скачать торрент Расплата смотреть онлайн Cкачать фильм Расплата бесплатно Расплата скачать торрент в хорошем качестве Расплата смотреть онлайн бесплатно в хорошем качестве

    Вы можете начинать темыВы можете отвечать на сообщенияВы не можете редактировать свои сообщенияВы не можете удалять свои сообщенияВы не можете голосовать в опросахВы не можете прикреплять файлы к сообщениямВы можете скачивать файлы

    piratbit.ru


    Смотрите также