Счастливчик фильм 2012 скачать торрент в хорошем качестве бесплатно


Скачать фильм Счастливчик через торрент в хорошем качестве бесплатно HDRip

Размер: 1.45 GB | Добавлен: 5 лет 1 мес. назад | Торрент скачан:1639 раз
Реклама Дарим 3000 рублей за регистрацию, не упусти свой шанс получить шикарный бонус!!!

27-08-2012 11:50 Счастливчик Скачать торрент  

Счастливчик / The Lucky One

Год выпуска: 2012Страна: США / Warner Bros. Pictures, Village Roadshow Pictures, DiNovi PicturesЖанр: драма, мелодрамаПродолжительность: 01:40:53Перевод: Дублированный [лицензия]

Режиссер: Скотт Хикс

В ролях: Зак Эфрон, Тейлор Шиллинг, Блайт Даннер, Райли Стюарт, Джей Р. Фергюсон, Адам ЛеФевр, Роберт Хэйес, Джо Крест, Расселл Дархэм Комегис, Шарон Моррис

Описание: Морской пехотинец Логан Тибо сумел остаться в живых после трех военных миссий в Ираке. Своим талисманом он считает фото, которое всегда носит с собой — на нем совершенно незнакомая ему женщина. По возвращении в Северную Каролину Тибо решает разыскать ее.

Качество: HDRipФормат: AVIВидео кодек: XviDАудио кодек: AC3Видео: 720x304 (2.37:1), 23.976 fps, XviD MPEG-4 ~1599 kbps avg, 0.30 bit/pixelАудио: 48 kHz, AC3 Dolby Digital, 3/2 (L,C,R,l,r) + LFE ch, ~448 kbps

GeneralComplete name : F: Chastl1v4ik.2012.D.HDRip.1400MB.aviFormat : AVIFormat/Info : Audio Video InterleaveFile size : 1.45 GiBDuration : 1h 40mnOverall bit rate : 2 057 KbpsWriting application : VirtualDubMod 1.5.10.2 (build 2540/release)Writing library : VirtualDubMod build 2540/releaseVideo #0ID : 0Format : MPEG-4 VisualFormat profile : Advanced [email protected] settings, BVOP : 1Format settings, QPel : NoFormat settings, GMC : No warppointsFormat settings, Matrix : Default (H.263)Muxing mode : Packed bitstreamCodec ID : XVIDCodec ID/Hint : XviDDuration : 1h 40mnBit rate : 1 599 KbpsWidth : 720 pixelsHeight : 304 pixelsDisplay aspect ratio : 2.35:1Frame rate : 23.976 fpsColor space : YUVChroma subsampling : 4:2:0Bit depth : 8 bitsScan type : ProgressiveCompression mode : LossyBits/(Pixel*Frame) : 0.305Stream size : 1.13 GiB (78%)Writing library : XviD 1.2.1 (UTC 2008-12-04)Audio #1ID : 1Format : AC-3Format/Info : Audio Coding 3Mode extension : CM (complete main)Format settings, Endianness : BigCodec ID : 2000Duration : 1h 40mnBit rate mode : ConstantBit rate : 448 KbpsChannel(s) : 6 channelsChannel positions : Front: L C R, Side: L R, LFESampling rate : 48.0 KHzBit depth : 16 bitsCompression mode : LossyStream size : 323 MiB (22%)Alignment : Split accross interleavesInterleave, duration : 42 ms (1.00 video frame)Interleave, preload duration : 500 ms

Скачать Счастливчик через торрент http://pic.pb.wtf/images/1/li8do82nbj.jpg Скачать фильм Счастливчик через торрент бесплантно в хорошем качестве Описание: Морской пехотинец Логан Тибо сумел остаться в живых после трех военных миссий в Ираке. Своим талисманом он считает фото, которое ... 2012-08-27 11:50 10 10 8

Loading...

Loading...

Рекламный пират

27-08-2012 11:58 Счастливчик Скачать торрент  

27-08-2012 12:43 Счастливчик Скачать торрент  

zraДля чего кнопка сделана?

27-08-2012 14:59 Счастливчик Скачать торрент  

Для тупых идиотов

27-08-2012 17:58 Счастливчик Скачать торрент  

vavanos писал(а):

Для тупых идиотов

Значит по твоему, те 50 человек, которые поблагодарили через http://pb.wtf/images/sps.gif - ТУПЫЕ ИДИОТЫ?!

27-08-2012 18:14 Счастливчик Скачать торрент  

GALANT писал(а):

vavanos писал(а):

Для тупых идиотов

Значит по твоему, те 50 человек, которые поблагодарили через http://pb.wtf/images/sps.gif - ТУПЫЕ ИДИОТЫ?! И автора поблагодарил и качаю! :umnik:

27-08-2012 18:43 Счастливчик Скачать торрент  

Требуем клавиши - "Дай скорости, сволочь!" "Когда норм звук?" "Как фильм?" "Фильм хороший" "Фильм отстой!" "Баян" "Я тупо люблю жать на кнопки" "Хм, скачаю" "Не пашет" "Что за? Это не тот фильм" "Первый нах" "Фууу" "Класс!" "Качество отстой" "Где сэмпл?" "Где скрины?"

А фильм, фильм так себе. Сюжет не плохой, но актеры не сыграли как надо, и куда только смотрит режиссер.

28-08-2012 12:05 Счастливчик Скачать торрент  

Прошу прощения, вырвалось - Хах, а таки кто играет этого самого "Морскго пехотинца сумевшего остаться в живых после трех военных миссий в Ираке" ?! Уж не этот ли смазливый, женоподобный Зак Эфрон?! Ну а почему сразу не в спин-оффе Джона Палыча Рембы? Тц, из этого кумира малолетних гламурных кис, такой же морской пехотинец, как из Денни де Вито гимнаст, чесное слово... :D

Дорогой пользователь! Огромная просьба, поблагодарите релизера, оцените раздачу и оставьте свои комментарий, если Вы скачали Счастливчик через торрент бесплатно! Внесите свою лепту в развитие PiratBit!

Комментировать посты могут только пользователи прошедшие не сложную регистрацию

Счастливчик через торрент Скачать бесплатно Счастливчик Счастливчик скачать торрент Счастливчик смотреть онлайн Cкачать фильм Счастливчик бесплатно Счастливчик скачать торрент в хорошем качестве Счастливчик смотреть онлайн бесплатно в хорошем качестве

Вы не можете начинать темыВы не можете отвечать на сообщенияВы не можете редактировать свои сообщенияВы не можете удалять свои сообщенияВы не можете голосовать в опросахВы не можете прикреплять файлы к сообщениямВы можете скачивать файлы

piratbit.ru

Счастливчик / The Lucky One (фильм, 2012) скачать торрент -

Морской пехотинец Логан Тибо сумел остаться в живых после трех военных миссий в Ираке. Своим талисманом он считает фото, которое всегда носит с собой - на нем совершенно незнакомая ему женщина. По возвращении в Северную Каролину Тибо решает разыскать ее.
Добавлено BDRip, HDRip, лицензия.
Фильм выпущен: 2012
Страна (кинокомпания): США
Режиссер: Скотт Хикс
Сценарий фильма: Уилл Феттерс, Николас Спаркс
Продюсер фильма: Денис Ди Нови, Кевин МакКормик, Брюс Берман
Оператор: Алар Кивило
Композитор: Марк Айшем, Хэл Линдес
Художники: Барбара Линг, Пол Д. Келли, Дэйна Пинк
Монтаж: Скотт Грэй
Жанр фильма: драма, мелодрама
Премьера (мир): 19 апреля 2012
премьера (Pоссия): 17 мая 2012, Каро-Премьер
продолжительность101 мин
В главных ролях:
Джо Крест
Адам ЛеФевр
Роберт Хэйес
Джей Р. Фергюсон
Зак Эфрон
Райли Стюарт
Тейлор Шиллинг
Блайт Даннер
и другие ...

Трейлер фильма:

 

Скачать фильм Счастливчик / The Lucky One- новинка кино 2012

В фильме "Счастливчик" - морской пехотинец, прошедший Ирак, считает своим талисманом фото женщины, и он решает разыскать ее

Параметры: 28-08-2012 BDRip 720p | лицензия, 5,84 Гб

Формат: BDRip 720p от DON, MKV, AVC,AC3, размер файла: 5,84 Гб Видео: 1280x534, AVC - 7200 Кбит/с Аудио: Русский: AC3, 6 каналов, 448 Кбит/с /Английский: AC3, 6 каналов, 640 Кбит/с

Счастливчик / The Lucky One [2012, Драма, Мелодрама, HDRip] Формат: HDRip, XviD, AC3, размер файла: 1,45 Гб Видео: 720x304, XviD - 1885 Кбит/с Аудио: AC3, 6 каналов, 448 Кбит/с Перевод (озвучивание): Полное дублирование [лицензия]

Торрент-раздача от 28 августа 2012 HDRip, 1,45 Гб - скачать фильм

Параметры: 27-08-2012 HDRip от Scarabey | Лицензия, 1,45 Гб

Формат: HDRip, AVI, XviD, AC3, размер файла: 1,45 Гб Видео: 720x304, XviD - build 50 ~1600 Кбит/с Аудио: AC3, 6 каналов, 448 Кбит/с

Параметры: 27-08-2012 BDRip-AVCот potroks | D | Лицензия, 2,18 Гб

Формат: BDRip-AVC [Blu-Ray Remux], MKV, AC3, размер файла: 2,18 Гб Видео: 1056x440, H.264 - 2198 Кбит/с Аудио: Русский: AC3, 6 каналов, 448 Кбит/с / English: AC3, 6 каналов, 448 Кбит/с

Параметры: 27-08-2012 HDRip от Scarabey | Лицензия, 743 Мб

Формат: HDRip, AVI, XviD, AC3, размер файла: 743 Мб Видео: 688x288, XviD - build 50 ~891 Кбит/с Аудио: AC3, 2 канала, 128 Кбит/с

Параметры: 27-08-2012 BDRip от HQCLUB | Лицензия, 2236 Мб

Формат: BDRip (источник: / Blu-Ray Disc / 1080p), AVI, XviD, AC3, размер файла: 2236 Мб Видео: 720x304, XviD - build 65 ~2194 Кбит/с Аудио: Русский: AC3, 6 каналов, 448 Кбит/с

Параметры: 27-08-2012 BDRip 720p | Лицензия, 4,82 Гб

Формат: BDRip 720p, MKV, AC3, размерфайла: 4,82 Гб Видео: 1280x534, - 4 700 Кбит/с Аудио: Русский: AC3, 6 каналов, 640 Кбит/с / English: English: DTS, 6 каналов, 1510 Кбит/с

Смотрите фильм онлайн:

Скачать Счастливчик, The Lucky One, фильм бесплатно скачать торрент, драма, мелодрама, новинка кино

 

hokit.ru

Фильм Счастливчик / The Lucky One (2012) скачать торрент - Фильм Счастливчик

Морской пехотинец Логан Тибо сумел остаться в живых после трех военных миссий в Ираке. Своим талисманом он считает фото, которое всегда носит с собой - на нем совершенно незнакомая ему женщина. По возвращении в Северную Каролину Тибо решает разыскать ее.
Добавлено BDRip, HDRip, лицензия.
Фильм выпущен: 2012
Страна (кинокомпания): США
Pежиссер: Скотт Хикс
Сценарий фильма: Уилл Феттерс, Николас Спаркс
Продюсер фильма: Денис Ди Нови, Кевин МакКормик, Брюс Берман
Оператор: Алар Кивило
Композитор: Марк Айшем, Хэл Линдес
Художники: Барбара Линг, Пол Д. Келли, Дэйна Пинк
Монтаж: Скотт Грэй
Жанр фильма: драма, мелодрама
Премьера (мир): 19 апреля 2012
премьера (Pоссия): 17 мая 2012, Каро-Премьер
продолжительность101 мин
В главных ролях:
Джо Крест
Адам ЛеФевр
Роберт Хэйес
Джей Р. Фергюсон
Зак Эфрон
Райли Стюарт
Тейлор Шиллинг
Блайт Даннер
и другие ...

Трейлер фильма:

 

Скачать фильм Счастливчик / The Lucky One- новинка кино 2012

В фильме "Счастливчик" - морской пехотинец, прошедший Ирак, считает своим талисманом фото женщины, и он решает разыскать ее

Параметры: 28-08-2012 BDRip 720p | лицензия, 5,84 Гб

Формат: BDRip 720p от DON, MKV, AVC, AC3, размер файла: 5,84 Гб Видео: 1280x534, AVC - 7200 Кбит/с Аудио: Русский: AC3, 6 каналов, 448 Кбит/с / Английский: AC3, 6 каналов, 640 Кбит/с Перевод (озвучивание): Профессиональный (дублированный)

Счастливчик / The Lucky One [2012, Драма, Мелодрама, HDRip] Формат: HDRip, XviD, AC3, размер файла: 1,45 Гб Видео: 720x304, XviD - 1885 Кбит/с Аудио: AC3, 6 каналов, 448 Кбит/с Перевод (озвучивание): Полное дублирование [лицензия]

Торрент-раздача от 28 августа 2012 HDRip, 1,45 Гб - скачать фильм

Параметры: 27-08-2012 HDRip от Scarabey | Лицензия, 1,45 Гб

Формат: HDRip, AVI, XviD, AC3, размер файла: 1,45 Гб Видео: 720x304, XviD - build 50 ~1600 Кбит/с Аудио: AC3, 6 каналов, 448 Кбит/с Перевод (озвучивание): Профессиональный (дублированный) - Лицензия

Параметры: 27-08-2012 BDRip-AVC от potroks | D | Лицензия, 2,18 Гб

Формат: BDRip-AVC [Blu-Ray Remux], MKV, AC3, размер файла: 2,18 Гб Видео: 1056x440, H.264 - 2198 Кбит/с Аудио: Русский: AC3, 6 каналов, 448 Кбит/с / English: AC3, 6 каналов, 448 Кбит/с Перевод (озвучивание): Профессиональный (полное дублирование) лицензия

Параметры: 27-08-2012 HDRip от Scarabey | Лицензия, 743 Мб

Формат: HDRip, AVI, XviD, AC3, размер файла: 743 Мб Видео: 688x288, XviD - build 50 ~891 Кбит/с Аудио: AC3, 2 канала, 128 Кбит/с Перевод (озвучивание): Профессиональный (дублированный) - Лицензия

Параметры: 27-08-2012 BDRip от HQCLUB | Лицензия, 2236 Мб

Формат: BDRip (источник: / Blu-Ray Disc / 1080p), AVI, XviD, AC3, размер файла: 2236 Мб Видео: 720x304, XviD - build 65 ~2194 Кбит/с Аудио: Русский: AC3, 6 каналов, 448 Кбит/с Перевод (озвучивание): Профессиональный (полное дублирование) + Оригинальная звуковая дорожка

Параметры: 27-08-2012 BDRip 720p | Лицензия, 4,82 Гб

Формат: BDRip 720p, MKV, AC3, размер файла: 4,82 Гб Видео: 1280x534, - 4 700 Кбит/с Аудио: Русский: AC3, 6 каналов, 640 Кбит/с / English: English: DTS, 6 каналов, 1510 Кбит/с Перевод (озвучивание): Дублированное [лицензия]

Счастливчик / The Lucky One [2012, Драма, Мелодрама, HDRip] Формат: HDRip, XviD, AC3, размер файла: 1,45 Гб Видео: 720x304, XviD - 1885 Кбит/с Аудио: AC3, 6 каналов, 448 Кбит/с Перевод (озвучивание): Полное дублирование [лицензия]

Торрент-раздача от 28 августа 2012 HDRip, 1,45 Гб - скачать фильм

Смотрите фильм онлайн:

 

hotkit.ru

Скачать фильм Счастливчик (2011) через торрент

23 января 2016 14:58 Счастливчик / The Lucky One (2012) BDRip-AVC от HQCLUB | Лицензия .torrent   [Информация о файле (нажмите для просмотра)] Перевод: Профессиональный (полное дублирование) + Профессиональный (полное дублирование), украинскийСубтитры: русские (полные: BD, Notabenoid; форсированные), украинские (полные), английские (полные, полные SDH)Формат: MKVКачество: BDRip-AVC (источник / Blu-ray Disc / 1080p)Видео: 1152x480 (2.40:1), 23.976 fps, MPEG-4 AVC, ~4173 kbps avg, 0.315 bit/pixelАудио #1: AC3 Dolby Digital, 3/2 (L,C,R,l,r) + LFE ch, ~448 kbps (DUB)Аудио #2: AC3 Dolby Digital, 3/2 (L,C,R,l,r) + LFE ch, ~448 kbps (UKR)Аудио #3: AC3 Dolby Digital, 3/2 (L,C,R,l,r) + LFE ch, ~448 kbps (ENG)Видео: Идентификатор : 1 Формат : AVC Формат/Информация : Advanced Video Codec Профиль формата : [email protected] Параметр CABAC формата : Да Параметр ReFrames формата : 11 кадров Идентификатор кодека : V_MPEG4/ISO/AVC Продолжительность : 1 ч. 40 м. Битрейт : 4173 Кбит/сек Ширина : 1152 пикселя Высота : 480 пикселей Соотношение сторон : 2,40:1 Режим частоты кадров : Постоянный Частота кадров : 23,976 кадра/сек Цветовое пространство : YUV Субдискретизация насыщенности : 4:2:0 Битовая глубина : 8 бит Тип развёртки : Прогрессивная Бит/(Пиксели*Кадры) : 0.315 Размер потока : 2,94 Гбайт (74%) Заголовок : Счастливчик / The Lucky One (2012) BDRip-AVC by HQCLUB [Elheym] Библиотека кодирования : x264 core 142 r2479 dd79a61 Настройки программы : cabac=1 / ref=11 / deblock=1:-3:-2 / analyse=0x3:0x113 / me=umh / subme=11 / psy=1 / psy_rd=1.05:0.00 / mixed_ref=1 / me_range=32 / chroma_me=1 / trellis=2 / 8x8dct=1 / cqm=0 / deadzone=21,11 / fast_pskip=0 / chroma_qp_offset=-4 / threads=6 / lookahead_threads=1 / sliced_threads=0 / nr=0 / decimate=1 / interlaced=0 / bluray_compat=0 / constrained_intra=0 / bframes=10 / b_pyramid=2 / b_adapt=2 / b_bias=0 / direct=1 / weightb=1 / open_gop=0 / weightp=2 / keyint=240 / keyint_min=23 / scenecut=40 / intra_refresh=0 / rc_lookahead=40 / rc=crf / mbtree=1 / crf=17.2 / qcomp=0.60 / qpmin=0 / qpmax=69 / qpstep=4 / vbv_maxrate=50000 / vbv_bufsize=62500 / crf_max=0.0 / nal_hrd=none / filler=0 / ip_ratio=1.40 / aq=1:0.90 Язык : English Default : Да Forced : НетАудио #1: Идентификатор : 2 Формат : AC-3 Формат/Информация : Audio Coding 3 Расширение режима : CM (complete main) Параметр Endianness формата : Big Идентификатор кодека : A_AC3 Продолжительность : 1 ч. 40 м. Вид битрейта : Постоянный Битрейт : 448 Кбит/сек Каналы : 6 каналов Расположение каналов : Front: L C R, Side: L R, LFE Частота : 48,0 КГц Битовая глубина : 16 бит Метод сжатия : С потерями Размер потока : 323 Мбайт (8%) Заголовок : АС3 5.1 @ 448 kbps - Dub Язык : Russian Default : Нет Forced : НетАудио #2: Идентификатор : 3 Формат : AC-3 Формат/Информация : Audio Coding 3 Расширение режима : CM (complete main) Параметр Endianness формата : Big Идентификатор кодека : A_AC3 Продолжительность : 1 ч. 40 м. Вид битрейта : Постоянный Битрейт : 448 Кбит/сек Каналы : 6 каналов Расположение каналов : Front: L C R, Side: L R, LFE Частота : 48,0 КГц Битовая глубина : 16 бит Метод сжатия : С потерями Размер потока : 323 Мбайт (8%) Заголовок : АС3 5.1 @ 448 kbps - Dub Язык : Ukrainian Default : Нет Forced : НетАудио #3: Идентификатор : 4 Формат : AC-3 Формат/Информация : Audio Coding 3 Расширение режима : CM (complete main) Параметр Endianness формата : Big Идентификатор кодека : A_AC3 Продолжительность : 1 ч. 40 м. Вид битрейта : Постоянный Битрейт : 448 Кбит/сек Каналы : 6 каналов Расположение каналов : Front: L C R, Side: L R, LFE Частота : 48,0 КГц Битовая глубина : 16 бит Метод сжатия : С потерями Размер потока : 323 Мбайт (8%) Заголовок : АС3 5.1 @ 448 kbps - Original Язык : English Default : Нет Forced : Нет 3,97 Gb 49 4 23 января 2016 14:58 Счастливчик / The Lucky One (2012) BDRip 720p от Leonardo and Scarabey | Лицензия .torrent   [Информация о файле (нажмите для просмотра)] Перевод: Профессиональный (полное дублирование) ЛицензияСубтитры: Русские, английские, украинскиеФормат: MKVВидео кодек: MPEG-4 AVC Аудио кодек: AC3Видео: AVC, 1280x534 (2.40:1) at 23.976 fps, AVC at 5731 kbps avg, 0.350 bit/pixelАудио: 48 kHz, AC3 Dolby Digital, 3/2 (L,C,R,l,r) + LFE ch, 640.00 kbps - RussianСубтитры: Русские, английские, украинские 4,58 Gb 44 5 23 января 2016 14:58 Счастливчик / The Lucky One (2012) HDRip от Flash | D | Лицензия .torrent   [Информация о файле (нажмите для просмотра)] Перевод: Профессиональный (дублированный) [Лицензия]Видео: 720x304, 23.976 fps, XviD build 73 ~1611 kbps avg, 0.307 bit/pixelАудио: 48 kHz, AC3 Dolby Digital, 3/2 (L,C,R,l,r) + LFE ch, ~448 kbpsВидео: Идентификатор : 0 Формат : MPEG-4 Visual Профиль формата : Advanced [email protected] Параметр BVOP формата : 1 Параметр QPel формата : Нет Параметр GMC формата : Без точки перехода Параметр матрицы формата : Выборочная Идентификатор кодека : XVID Идентификатор кодека/Подсказка : XviD Продолжительность : 1 ч. 40 м. Битрейт : 1611 Кбит/сек Ширина : 720 пикселей Высота : 304 пикселя Соотношение сторон : 2,35:1 Частота кадров : 23,976 кадра/сек Цветовое пространство : YUV Субдискретизация насыщенности : 4:2:0 Битовая глубина : 8 бит Тип развёртки : Прогрессивная Метод сжатия : С потерями Бит/(Пиксели*Кадры) : 0.307 Размер потока : 1,14 Гбайт (78%) Библиотека кодирования : XviD 73 Аудио: Идентификатор : 1 Формат : AC-3 Формат/Информация : Audio Coding 3 Расширение режима : CM (complete main) Параметр Endianness формата : Big Идентификатор кодека : 2000 Продолжительность : 1 ч. 40 м. Вид битрейта : Постоянный Битрейт : 448 Кбит/сек Каналы : 6 каналов Расположение каналов : Front: L C R, Side: L R, LFE Частота : 48,0 КГц Битовая глубина : 16 бит Метод сжатия : С потерями Размер потока : 323 Мбайт (22%) Выравнивание : Разделение по промежуткам Продолжительность промежутка : 42 мс. (1,00 видеокадр) Время предзагрузки промежутка : 500 мс. 1,46 Gb 638 21 23 января 2016 14:58 Счастливчик / The Lucky One (2012) HDRip от Flash | D | Лицензия .torrent   [Информация о файле (нажмите для просмотра)] Перевод: Профессиональный (дублированный) [Лицензия]Видео: 688x288, 23.976 fps, XviD build 73 ~895 kbps avg, 0.190 bit/pixelАудио: 48 kHz, MP3, 2 ch, ~128 kbpsВидео: Идентификатор : 0 Формат : MPEG-4 Visual Профиль формата : Advanced [email protected] Параметр BVOP формата : 1 Параметр QPel формата : Нет Параметр GMC формата : Без точки перехода Параметр матрицы формата : Выборочная Идентификатор кодека : XVID Идентификатор кодека/Подсказка : XviD Продолжительность : 1 ч. 40 м. Битрейт : 895 Кбит/сек Ширина : 688 пикселей Высота : 288 пикселей Соотношение сторон : 2,40:1 Частота кадров : 23,976 кадра/сек Цветовое пространство : YUV Субдискретизация насыщенности : 4:2:0 Битовая глубина : 8 бит Тип развёртки : Прогрессивная Метод сжатия : С потерями Бит/(Пиксели*Кадры) : 0.188 Размер потока : 646 Мбайт (87%) Библиотека кодирования : XviD 73 Аудио: Идентификатор : 1 Формат : MPEG Audio Версия формата : Version 1 Профиль формата : Layer 3 Идентификатор кодека : 55 Идентификатор кодека/Подсказка : MP3 Продолжительность : 1 ч. 40 м. Вид битрейта : Постоянный Битрейт : 128 Кбит/сек Каналы : 2 канала Частота : 48,0 КГц Метод сжатия : С потерями Размер потока : 92,4 Мбайт (12%) Выравнивание : Соединение по промежуткам Продолжительность промежутка : 42 мс. (1,00 видеокадр) Время предзагрузки промежутка : 504 мс. Библиотека кодирования : LAME3.99r Настройки программы : -m s -V 4 -q 2 -lowpass 17 -b 128 744,88 Mb 44 12 23 января 2016 14:58 Счастливчик / The Lucky One (2011) HDRip-AVC | D .torrent   [Информация о файле (нажмите для просмотра)] Перевод: ДублированныйКодек: H.264Качество: HDRip-AVC[BDRip 720p]Видео: 816x336 (2.40:1), 23,976 fps, ~960 kbps avg, 0.146 bit/pixelЗвук: 48 / 24 kHz, AAC-HE, 2 ch, ~72.00 kbps avg 745,8 Mb 36 2 23 января 2016 14:58 Счастливчик / The Lucky One (2012) DVD5 сжатый | Лицензия .torrent   [Информация о файле (нажмите для просмотра)] Перевод: Профессиональный (полное дублирование)Качество: DVD5 (сжатый)Формат: DVD VideoВидео: MPEG2; PAL 16:9 (720x576)Аудио #1: Dolby AC3, 6 ch, 384 KbpsRussianАудио #2: Dolby AC3, 6 ch, 384 KbpsEnglishСубтитры: русские, английские, эстонские, латвийские, литовские, польские, украинскиеВидео: Идентификатор : 224 (0xE0) Формат : MPEG Video Версия формата : Version 2 Профиль формата : [email protected] Параметр BVOP формата : Да Параметр матрицы формата : Выборочная Параметр GOP формата : M=2, N=12 Продолжительность : 22 м. Вид битрейта : Переменный Битрейт : 5464 Кбит/сек Максимальный битрейт : 7500 Кбит/сек Ширина : 720 пикселей Высота : 576 пикселей Соотношение сторон : 16:9 Частота кадров : 25,000 кадров/сек Стандарт вещания : PAL Цветовое пространство : YUV Субдискретизация насыщенности : 4:2:0 Битовая глубина : 8 бит Тип развёртки : Чересстрочная Порядок развёртки : Верхнее поле первое Метод сжатия : С потерями Бит/(Пиксели*Кадры) : 0.527 Размер потока : 880 Мбайт (86%)Аудио #1: Идентификатор : 189 (0xBD)-128 (0x80) Формат : AC-3 Формат/Информация : Audio Coding 3 Расширение режима : CM (complete main) Режим смешивания : DVD-Video Продолжительность : 22 м. Вид битрейта : Постоянный Битрейт : 384 Кбит/сек Каналы : 6 каналов Расположение каналов : Front: L C R, Side: L R, LFE Частота : 48,0 КГц Битовая глубина : 16 бит Метод сжатия : С потерями Размер потока : 61,8 Мбайт (6%)Аудио #2: Идентификатор : 189 (0xBD)-130 (0x82) Формат : AC-3 Формат/Информация : Audio Coding 3 Расширение режима : CM (complete main) Режим смешивания : DVD-Video Продолжительность : 22 м. Вид битрейта : Постоянный Битрейт : 384 Кбит/сек Каналы : 6 каналов Расположение каналов : Front: L C R, Side: L R, LFE Частота : 48,0 КГц Битовая глубина : 16 бит Метод сжатия : С потерями Размер потока : 61,8 Мбайт (6%) 4,35 Gb 1 4 23 января 2016 14:58 Счастливчик / The Lucky One (2012) Blu-Ray от HDClub .torrent   [Информация о файле (нажмите для просмотра)] Перевод: ДублированныйСубтитры: Русские, английские, французские, немецкие, итальянские, испанские, финские, датские, голландские, шведскиеКачество: Blu-Ray (1080p)Видео: MPEG-4 AVC, 17765 Кбит/с, 1920x1080, 23.976 кадр/сАудио 1: Русский (Dolby AC3, 6 ch, 640 Кбит/c)Аудио 2: Английский (Dolby AC3, 6 ch, 640 Кбит/c)Аудио 3: Французский (Dolby AC3, 6 ch, 640 Кбит/c)Аудио 4: Немецкий (Dolby AC3, 6 ch, 640 Кбит/c)Аудио 5: Итальянский (Dolby AC3, 6 ch, 640 Кбит/c)Аудио 6: Испанский (Dolby AC3, 6 ch, 640 Кбит/c)Аудио 7: Английский (DTS-HD МА, 6 ch, 3823 Кбит/c) 23,11 Gb 1 4 23 января 2016 14:58 Счастливчик / The Lucky One (2012) BDRip 1080p | лицензия .torrent   [Информация о файле (нажмите для просмотра)] Перевод: Профессиональный (дублированный)Кодек: Н.264Качество: BDRip 1080p отВидео: AVC, 1920x800 (2.40:1), 10849 kbps, 23,976 fps, 0,295 bppЗвук: русский / AC3 / 5.1 / 48 kHz / 448 kbps / 16 bit английский / AC3 / 5.1 / 48 kHz / 640 kbps / 16 bitСубтитры: русские , английскиеВидео: Идентификатор : 1 Формат : AVC Формат/Информация : Advanced Video Codec Профиль формата : [email protected] Параметр CABAC формата : Да Параметр ReFrames формата : 5 кадров Идентификатор кодека : V_MPEG4/ISO/AVC Продолжительность : 1 ч. 40 м. Битрейт : 10,8 Мбит/сек Ширина : 1920 пикселей Высота : 800 пикселей Соотношение сторон : 2,40:1 Режим частоты кадров : Постоянный Частота кадров : 23,976 кадра/сек Цветовое пространство : YUV Субдискретизация насыщенности : 4:2:0 Битовая глубина : 8 бит Тип развёртки : Прогрессивная Бит/(Пиксели*Кадры) : 0.295 Размер потока : 7,47 Гбайт (89%) Библиотека кодирования : x264 core 120 r2164+656 2ff844c Настройки программы : cabac=1 / ref=5 / deblock=1:-3:-3 / analyse=0x3:0x113 / me=umh / subme=10 / psy=1 / fade_compensate=0.00 / psy_rd=1.05:0.10 / mixed_ref=1 / me_range=48 / chroma_me=1 / trellis=2 / 8x8dct=1 / cqm=0 / deadzone=21,11 / fast_pskip=0 / chroma_qp_offset=-2 / threads=12 / sliced_threads=0 / nr=0 / decimate=1 / interlaced=0 / bluray_compat=0 / constrained_intra=0 / fgo=0 / bframes=6 / b_pyramid=2 / b_adapt=2 / b_bias=0 / direct=3 / weightb=1 / open_gop=0 / weightp=2 / keyint=250 / keyint_min=23 / scenecut=40 / intra_refresh=0 / rc_lookahead=60 / rc=2pass / mbtree=0 / bitrate=10849 / ratetol=2.0 / qcomp=0.70 / qpmin=0 / qpmax=69 / qpstep=4 / cplxblur=20.0 / qblur=0.5 / vbv_maxrate=35000 / vbv_bufsize=30000 / nal_hrd=none / ip_ratio=1.40 / pb_ratio=1.30 / aq=2:1.00 Язык : English Default : Нет Forced : Нет Основные цвета : BT.709 Характеристики трансфера : BT.709 Коэффициенты матрицы : BT.709Аудио #1: Идентификатор : 2 Формат : AC-3 Формат/Информация : Audio Coding 3 Расширение режима : CM (complete main) Параметр Endianness формата : Big Идентификатор кодека : A_AC3 Продолжительность : 1 ч. 40 м. Вид битрейта : Постоянный Битрейт : 448 Кбит/сек Каналы : 6 каналов Расположение каналов : Front: L C R, Side: L R, LFE Частота : 48,0 КГц Битовая глубина : 16 бит Метод сжатия : С потерями Размер потока : 323 Мбайт (4%) Язык : Russian Default : Да Forced : НетАудио #2: Идентификатор : 3 Формат : AC-3 Формат/Информация : Audio Coding 3 Расширение режима : CM (complete main) Параметр Endianness формата : Big Идентификатор кодека : A_AC3 Продолжительность : 1 ч. 40 м. Вид битрейта : Постоянный Битрейт : 640 Кбит/сек Каналы : 6 каналов Расположение каналов : Front: L C R, Side: L R, LFE Частота : 48,0 КГц Битовая глубина : 16 бит Метод сжатия : С потерями Размер потока : 462 Мбайт (5%) Язык : English Default : Нет Forced : Нет 8,4 Gb 24 6 23 января 2016 14:58 Счастливчик / The Lucky One (2012) BDRip 720p | лицензия .torrent   [Информация о файле (нажмите для просмотра)] Перевод: Профессиональный (дублированный)Кодек: Н.264Качество: BDRip 720p отDONВидео: AVC, 1280x534 (2.40:1), 7200 kbps, 23,976 fps, 0,439 bppЗвук: русский / AC3 / 5.1 / 48 kHz / 448 kbps / 16 bit английский / AC3 / 5.1 / 48 kHz / 640 kbps / 16 bitСубтитры: русские , английскиеВидео: Идентификатор : 1 Формат : AVC Формат/Информация : Advanced Video Codec Профиль формата : [email protected] Параметр CABAC формата : Да Параметр ReFrames формата : 11 кадров Идентификатор кодека : V_MPEG4/ISO/AVC Продолжительность : 1 ч. 40 м. Битрейт : 7200 Кбит/сек Ширина : 1280 пикселей Высота : 534 пикселя Соотношение сторон : 2,40:1 Режим частоты кадров : Постоянный Частота кадров : 23,976 кадра/сек Цветовое пространство : YUV Субдискретизация насыщенности : 4:2:0 Битовая глубина : 8 бит Тип развёртки : Прогрессивная Бит/(Пиксели*Кадры) : 0.439 Размер потока : 4,96 Гбайт (85%) Библиотека кодирования : x264 core 116 r2057 0ba8a9c Настройки программы : cabac=1 / ref=11 / deblock=1:-3:-3 / analyse=0x3:0x133 / me=umh / subme=10 / psy=1 / psy_rd=1.00:0.00 / mixed_ref=1 / me_range=32 / chroma_me=1 / trellis=2 / 8x8dct=1 / cqm=0 / deadzone=21,11 / fast_pskip=0 / chroma_qp_offset=-2 / threads=14 / sliced_threads=0 / nr=0 / decimate=0 / interlaced=0 / bluray_compat=0 / constrained_intra=0 / bframes=7 / b_pyramid=2 / b_adapt=2 / b_bias=0 / direct=3 / weightb=1 / open_gop=0 / weightp=2 / keyint=250 / keyint_min=23 / scenecut=40 / intra_refresh=0 / rc_lookahead=40 / rc=2pass / mbtree=0 / bitrate=7200 / ratetol=1.0 / qcomp=0.65 / qpmin=0 / qpmax=40 / qpstep=4 / cplxblur=20.0 / qblur=0.5 / vbv_maxrate=50000 / vbv_bufsize=50000 / nal_hrd=none / ip_ratio=1.25 / pb_ratio=1.25 / aq=1:0.65 Язык : English Default : Да Forced : НетАудио #1: Идентификатор : 2 Формат : AC-3 Формат/Информация : Audio Coding 3 Расширение режима : CM (complete main) Параметр Endianness формата : Big Идентификатор кодека : A_AC3 Продолжительность : 1 ч. 40 м. Вид битрейта : Постоянный Битрейт : 448 Кбит/сек Каналы : 6 каналов Расположение каналов : Front: L C R, Side: L R, LFE Частота : 48,0 КГц Битовая глубина : 16 бит Метод сжатия : С потерями Размер потока : 323 Мбайт (5%) Язык : Russian Default : Да Forced : НетАудио #2: Идентификатор : 3 Формат : AC-3 Формат/Информация : Audio Coding 3 Расширение режима : CM (complete main) Параметр Endianness формата : Big Идентификатор кодека : A_AC3 Продолжительность : 1 ч. 40 м. Вид битрейта : Постоянный Битрейт : 640 Кбит/сек Каналы : 6 каналов Расположение каналов : Front: L C R, Side: L R, LFE Частота : 48,0 КГц Битовая глубина : 16 бит Метод сжатия : С потерями Размер потока : 462 Мбайт (8%) Язык : English Default : Нет Forced : Нет 5,84 Gb 4 1 23 января 2016 14:58 Счастливчик / The Lucky One (2012) HDRip от Scarabey | Лицензия .torrent   [Информация о файле (нажмите для просмотра)] Перевод: Профессиональный (дублированный) - Лицензия Качество: HDRipВидео: 720x304 (2.37:1), 23.976 fps, XviD build 50 ~1600 kbps avg, 0.30 bit/pixelАудио: 48 kHz, AC3 Dolby Digital, 3/2 (L,C,R,l,r) + LFE ch, ~448.00 kbps avg 1,45 Gb 30 4 23 января 2016 14:58 Счастливчик / The Lucky One (2012) BDRip-AVC от potroks | D | Лицензия .torrent   [Информация о файле (нажмите для просмотра)] Перевод: Профессиональный (полное дублирование)Субтитры: Русские, английскиеКачество: BDRip-AVC [Blu-Ray Remux]Формат: MKVВидео: H.264, 1056x440 (2,40:1), 23,976 кадр/сек, 2198 Кбит/сек, 0.197 bit/pixelАудио#1: 48 kHz, AC3 Dolby Digital, 3/2 (L,C,R,l,r) + LFE ch, ~448.00 kbps avg |RUSАудио#2: 48 kHz, AC3 Dolby Digital, 3/2 (L,C,R,l,r) + LFE ch, ~448.00 kbps avg |ENG 2,18 Gb 102 3 23 января 2016 14:58 Счастливчик / The Lucky One (2012) HDRip от Scarabey | Лицензия .torrent   [Информация о файле (нажмите для просмотра)] Перевод: Профессиональный (дублированный) - ЛицензияКачество: HDRipВидео: 688x288 (2.39:1), 23.976 fps, XviD build 50 ~891 kbps avg, 0.19 bit/pixelАудио: 48 kHz, AC3 Dolby Digital, 2/0 (L,R) ch, ~128.00 kbps avg 742,55 Mb 58 2 23 января 2016 14:58 Счастливчик / The Lucky One (2012) BDRip от HQCLUB | Лицензия .torrent   [Информация о файле (нажмите для просмотра)] Перевод: Профессиональный (полное дублирование) + Оригинальная звуковая дорожкаСубтитры: Русские (notabenoid), английские(внешние, srt*)Субтитры: Русские (полные: BD, Notabenoid; форсированные), украинские (полные), английские (полные, полные SDH)Формат: AVIКачество: BDRip (источник:Видео: 720x304 (2.37:1), 23.976 fps, XviD build 65 ~2194 kbps avg, 0.42 bit/pixelЗвук #1: 48 kHz, AC3, 3/2 (L,C,R,l,r) + LFE ch, ~448.00 kbps avg (RUS)Звук #2: 48 kHz, AC3, 3/2 (L,C,R,l,r) + LFE ch, ~448.00 kbps avg (ENG)Звук #3: 48 kHz, AC3, 3/2 (L,C,R,l,r) + LFE ch, ~448.00 kbps avg (UKR)(отдельно, http) 2,18 Gb 34 1 23 января 2016 14:58 Счастливчик / The Lucky One (2012) BDRip 720p | Лицензия .torrent   [Информация о файле (нажмите для просмотра)] Формат: MKVКачество: BDRip 720pВидео: 4 700 kb/s, 1280x534Аудио: Russian: AC3, 640 kb/s (6 ch) / English: DTS, 1510 kb/s (6 ch) 4,82 Gb 109 7 23 января 2016 14:58 Счастливчик / The Lucky One (2012) HDRip | КПК от Generalfilm .torrent   [Информация о файле (нажмите для просмотра)] Качество: HDRip | КПКВидео: кодеккодек: x264,формат: mp4,размер кадра: 480х200, битрейт: 350 кб/сАудио: языкрусский, перевод: Дублированный [чистый звук], 346,81 Mb 12 2

gig-torrent.net


Смотрите также