Скачать бесплатно фильм аэроплан через торрент в хорошем качестве


Скачать фильм Аэроплан (1980) через торрент

15 марта 2016 08:25 Аэроплан / Airplane! (1980) BDRip 1080p от Freeisland .torrent   [Информация о файле (нажмите для просмотра)] Перевод: Профессиональный (многоголосый закадровый)Субтитры: НетКачество: BDRip.1080рФормат: MKVВидео: 1920x1080 (16:9), 23.976 fps, AVC, 10.0 MbpsАудио #1: AC3, 256 Kbps, 48.0 KHz, 2 ch(MVO - R5)Аудио #2: AC3, 448 Kbps, 48.0 KHz, 6 ch (MVO - студия "Акцент-Про")Аудио #3: AC3, 192 Kbps, 48.0 KHz, 2 ch (MVO)Аудио #4: AC3, 448 Kbps, 48.0 KHz, 6 ch (AVO - Гаврилов)Аудио #5: AC3, 448 Kbps, 48.0 KHz, 6 ch (AVO- Горчаков)Аудио #6: AC3, 384 Kbps, 48.0 KHz, 6 ch (AVO - Михалев)Аудио #7: AC3, 320 Kbps, 48.0 KHz, 2 ch (AVO - Л.Володарский)Аудио #8: AC3, 448 Kbps, 48.0 KHz, 6 ch (English) 7,94 Gb 7 2 15 марта 2016 08:25 Аэроплан / Airplane! (1980) BDRip-AVC от olegek70 | P, L, A .torrent   [Информация о файле (нажмите для просмотра)] Перевод: Профессиональный многоголосый, любительский многоголосый, авторский одноголосыйКодек: MKV, H.264Качество: BDRip-AVC (Blu-Ray Remux (1080р))Видео: MPEG-4 AVC, 3200 Кбит/с, 1024х576Звук: Русский (АС3, 2 ch, 256 Кбит/с), (АС3, 2 ch, 192 Кбит/с), (АС3, 6 ch, 384 Кбит/с), (АС3, 6 ch, 448 Кбит/с), английский (АС3, 6 ch, 448 Кбит/с)Перевод: AC3, 2 ch, 256 Кбит/с - 3,57 Gb 10 5 15 марта 2016 08:25 Аэроплан / Airplane! (1980) BDRip от HQCLUB .torrent   [Информация о файле (нажмите для просмотра)] Перевод: Профессиональный (многоголосый, закадровый)R1Субтитры: русские (2 вида), английскиеФормат: AVIКачество: BDRip (источник: HDCLUB / Blu-Ray Disk / 1080p)Видео: 704x400 (1.76:1), 23.976 fps, XviD build 50 ~1974 kbps avg, 0.29 bit/pixelАудио #1: (MVO) 48 kHz, AC3 Dolby Digital, 3/2 (L,C,R,l,r) + LFE ch, 384.00 kbps avgАудио #2: (MVO.R5) 48 kHz, AC3 Dolby Digital, 2/0 (L,R) ch, 192.00 kbps avg (отдельно)Аудио #3: (MVO.AKCENT) 48 kHz, AC3 Dolby Digital, 2/0 (L,R) ch, 192.00 kbps avg (отдельно)Аудио #4: (MVO.ORT) 48 kHz, AC3 Dolby Digital, 2/0 (L,R) ch, 192.00 kbps avg (отдельно)Аудио #5: (MVO.RTR) 48 kHz, AC3 Dolby Digital, 2/0 (L,R) ch, 192.00 kbps avg (отдельно)Аудио #6: (AVO.VOLODARSKIY) 48 kHz, AC3 Dolby Digital, 2/0 (L,R) ch, 192.00 kbps avg (отдельно)Аудио #7: (AVO.GAVRILOV) 48 kHz, AC3 Dolby Digital, 3/2 (L,C,R,l,r) + LFE ch, 384.00 kbps avg (отдельно)Аудио #8: (AVO.GORCHAKOV) 48 kHz, AC3 Dolby Digital, 3/2 (L,C,R,l,r) + LFE ch, 384.00 kbps avg (отдельно)Аудио #9: (AVO.MIHALEV) 48 kHz, AC3 Dolby Digital, 3/2 (L,C,R,l,r) + LFE ch, 384.00 kbps avg (отдельно)Аудио #10: (ENG) 48 kHz, AC3 Dolby Digital, 3/2 (L,C,R,l,r) + LFE ch, 384.00 kbps avg (отдельно) 1,45 Gb 51 2 15 марта 2016 08:25 Аэроплан / Airplane! (1980) Blu-Ray .torrent   [Информация о файле (нажмите для просмотра)] Качество: BluRay (custom)Субтитры: английские (3 варианта), французские, португальские, испанскиеФормат: BDMVВидео: MPEG-4 AVC, 36998 kbps, 1080p, 23,976 fps, 16:9, High Profile 4.1Аудио 1: DTS-HD Master 5.1, 48 kHz, 3700 kbps, 24-bit (DTS Core: 5.1, 48 kHz, 1509 kbps, 24-bit)Аудио 2: Dolby Digital 5.1, 48 kHz, 384 kbpsАудио 3: Dolby Digital 5.1, 48 kHz, 448 kbpsАудио 4: Dolby Digital 5.1, 48 kHz, 448 kbpsАудио 5: Dolby Digital 5.1, 48 kHz, 448 kbpsАудио 6: Dolby Digital 2.0, 48 kHz, 224 kbpsАудио 7: Dolby Digital 2.0, 48 kHz, 256 kbpsАудио 8: Dolby Digital 2.0, 48 kHz, 192 kbps BDInfoDisc Title: AIRPLANE_BD_HDCLUB_VOLSHEBNIK Disc Size: 30 315 168 452 bytes Protection: AACS BD-Java: No 28,23 Gb 4 1 15 марта 2016 08:25 Аэроплан / Airplane! (1980) BDRip 720p .torrent   [Информация о файле (нажмите для просмотра)] Качество: BDRip 720pСубтитры: английскиеФормат: MKVВидео: x.264, 1280x720, 5624 Kbps, 23.976 fpsАудио 1: AC3, 5.1 channels, 384 Kbps, 48000 HzАудио 2: DTS, 5.1 channels, 1510Kbps, 48000 Hz 4,61 Gb 12 5 15 марта 2016 08:25 Аэроплан! / Airplane! (1980) DVD5 .torrent   [Информация о файле (нажмите для просмотра)] Перевод: Авторский одноголосый (А. Гаврилов)Качество: DVD5Формат: DVD VideoВидео: PAL 16:9 (720x576) [анаморф] ~ 7116.77 kbps avgАудио: Russian (Dolby AC3, 6 ch) 384 kbps English (Dolby AC3, 6 ch) 384 kbps English (Dolby AC3, 1 ch) 96 kbps 4,27 Gb 1 1

gig-torrent.net

Скачать фильм Аэроплан 2: Продолжение (1982) через торрент

15 марта 2016 08:27 Аэроплан 2: Продолжение / Airplane II: The Sequel (1982) BDRip от New-Team | P, A .torrent   [Информация о файле (нажмите для просмотра)] Перевод #1: Профессиональный (многоголосый закадровый) ЛицензияПеревод #2: Профессиональный (многоголосый закадровый)Перевод #3: Авторский (одноголосый закадровый) Алексей МихалёвПеревод #4: Авторский (одноголосый закадровый) Василий ГорчаковКачество: BDRip [BDRemux 1080p]Формат: AVIВидео: 688x384 (1.79:1), 23.976 fps, XviD build 73 ~1897 kbps avg, 0.30 bit/pixelАудио #1: 48 kHz, AC3 Dolby Digital, 2/0 (L,R) ch, ~192 kbps | MVO | ЛицензияАудио #2: 48 kHz, AC3 Dolby Digital, 3/2 (L,C,R,l,r) + LFE ch, ~384 kbps | MVOАудио #3: 48 kHz, AC3 Dolby Digital, 2/0 (L,R) ch, ~192 kbps | AVO | Михалёв (отдельно)Аудио #4: 48 kHz, AC3 Dolby Digital, 2/0 (L,R) ch, ~192 kbps | AVO | Горчаков (отдельно) 1,69 Gb 40 6 15 марта 2016 08:27 Аэроплан 2: Продолжение / Airplane II: The Sequel (1982) BDRip 1080p от NNNB | P, A .torrent   [Информация о файле (нажмите для просмотра)] Перевод: Профессиональный (Многоголосый, закадровый), Авторский (А. Михалёв, В. Горчаков)Качество: BDRip 1080p (исходник Blu-ray Disc Remux)Видео: 1920x1080, 12025 Кбит/сек, 23,976 кадр/сек, AVC, x264, [email protected], 2.35:1, 0.238 Бит/[Пиксели*Кадры]Аудио 1: AC-3, 192 Кбит/сек, 2 канала(ов), 48,0 КГц - Многоголосый закадровый, Лицензия / РусскийАудио 2: AC-3, 384 Кбит/сек, 6 канала(ов), 48,0 КГц - Многоголосый закадровый / РусскийАудио 3: AC-3, 192 Кбит/сек, 2 канала(ов), 48,0 КГц - Одноголосый закадровый, А. Михалёв / РусскийАудио 4: AC-3, 192 Кбит/сек, 2 канала(ов), 48,0 КГц - Одноголосый закадровый, В. Горчаков / РусскийАудио 5: AC-3, 192 Кбит/сек, 2 канала(ов), 48,0 КГц - Оригинал / АнглийскийСубтитры: Русские | Полные, Английские | Полные 7,75 Gb 9 3 15 марта 2016 08:27 Аэроплан 2: Продолжение / Airplane II: The Sequel (1982) BDRip (AVC) от MediaClub | P, A .torrent   [Информация о файле (нажмите для просмотра)] Перевод: Профессиональный многоголосый, авторскийКодек: x264Качество: BDRip (AVC)Видео: MPEG-4 AVC, 3500 Кбит/с, 1024x576, 23.976 кадр/сАудио #1: Русский (AC3, 2 ch, 192 Кбит/с) / Профессиональный многоголосый (лицензия)Аудио #2: Русский (AC3, 6 ch, 384 Кбит/с) / Профессиональный многоголосыйАудио #3: Русский (AC3, 2 ch, 192 Кбит/с) / Авторский одноголосый (А. Михалёв)Аудио #4: Русский (AC3, 2 ch, 192 Кбит/с) / Авторский одноголосый (В. Горчаков)Аудио #5: Английский (AC3, 2 ch, 192 Кбит/с)Субтитры: Английские 2,74 Gb 3 3 15 марта 2016 08:27 Аэроплан 2: Продолжение / Airplane II: The Sequel (1982) BDRip 720p от MediaClub | P, A .torrent   [Информация о файле (нажмите для просмотра)] Перевод: Профессиональный многоголосый, авторский одноголосыйКачество: BDRip 720pВидео: MPEG-4 AVC, 5800 Кбит/с, 1280x720, 23.976 кадр/сАудио #1: Русский (AC3, 2 ch, 192 Кбит/с) / Профессиональный многоголосый (лицензия)Аудио #2: Русский (AC3, 6 ch, 384 Кбит/с) / Профессиональный многоголосыйАудио #3: Русский (AC3, 2 ch, 192 Кбит/с) / Авторский одноголосый (А. Михалёв)Аудио #4: Русский (AC3, 2 ch, 192 Кбит/с) / Авторский одноголосый (В. Горчаков)Аудио #5: Английский (AC3, 2 ch, 192 Кбит/с)Субтитры: АнлийскиеВидео: Идентификатор : 1 Формат : AVC Формат/Информация : Advanced Video Codec Профиль формата : [email protected] Параметр CABAC формата : Да Параметр ReFrames формата : 8 кадров Идентификатор кодека : V_MPEG4/ISO/AVC Продолжительность : 1 ч. 24 м. Битрейт : 5800 Кбит/сек Ширина : 1280 пикселей Высота : 720 пикселей Соотношение сторон : 16:9 Режим частоты кадров : Постоянный Частота кадров : 23,976 кадра/сек Цветовое пространство : YUV Субдискретизация насыщенности : 4:2:0 Битовая глубина : 8 бит Тип развёртки : Прогрессивная Бит/(Пиксели*Кадры) : 0.262 Размер потока : 3,33 Гбайт (81%) Заголовок : -=MediaClub-kaspr=- Библиотека кодирования : x264 core 130 r2273 b3065e6 Настройки программы : cabac=1 / ref=8 / deblock=1:-3:-3 / analyse=0x3:0x133 / me=umh / subme=11 / psy=1 / psy_rd=1.00:0.20 / mixed_ref=1 / me_range=48 / chroma_me=1 / trellis=2 / 8x8dct=1 / cqm=0 / deadzone=21,11 / fast_pskip=0 / chroma_qp_offset=-3 / threads=12 / lookahead_threads=3 / sliced_threads=0 / nr=0 / decimate=0 / interlaced=0 / bluray_compat=0 / constrained_intra=0 / bframes=10 / b_pyramid=2 / b_adapt=2 / b_bias=0 / direct=3 / weightb=1 / open_gop=0 / weightp=2 / keyint=240 / keyint_min=23 / scenecut=40 / intra_refresh=0 / rc=2pass / mbtree=0 / bitrate=5800 / ratetol=1.0 / qcomp=0.60 / qpmin=0 / qpmax=69 / qpstep=4 / cplxblur=20.0 / qblur=0.5 / ip_ratio=1.40 / pb_ratio=1.30 / aq=1:1.00 Default : Да Forced : ДаАудио #1: Идентификатор : 2 Формат : AC-3 Формат/Информация : Audio Coding 3 Расширение режима : CM (complete main) Параметр Endianness формата : Big Идентификатор кодека : A_AC3 Продолжительность : 1 ч. 24 м. Вид битрейта : Постоянный Битрейт : 192 Кбит/сек Каналы : 2 канала Расположение каналов : Front: L R Частота : 48,0 КГц Битовая глубина : 16 бит Метод сжатия : С потерями Размер потока : 116 Мбайт (3%) Заголовок : MVO-R5 Язык : Russian Default : Да Forced : ДаАудио #2: Идентификатор : 3 Формат : AC-3 Формат/Информация : Audio Coding 3 Расширение режима : CM (complete main) Параметр Endianness формата : Big Идентификатор кодека : A_AC3 Продолжительность : 1 ч. 24 м. Вид битрейта : Постоянный Битрейт : 384 Кбит/сек Каналы : 6 каналов Расположение каналов : Front: L C R, Side: L R, LFE Частота : 48,0 КГц Битовая глубина : 16 бит Метод сжатия : С потерями Размер потока : 231 Мбайт (6%) Заголовок : MVO-6ch Язык : Russian Default : Нет Forced : НетАудио #3: Идентификатор : 4 Формат : AC-3 Формат/Информация : Audio Coding 3 Расширение режима : CM (complete main) Параметр Endianness формата : Big Идентификатор кодека : A_AC3 Продолжительность : 1 ч. 24 м. Вид битрейта : Постоянный Битрейт : 192 Кбит/сек Каналы : 2 канала Расположение каналов : Front: L R Частота : 48,0 КГц Битовая глубина : 16 бит Метод сжатия : С потерями Размер потока : 116 Мбайт (3%) Заголовок : Mihalev Язык : Russian Default : Нет Forced : НетАудио #4: Идентификатор : 5 Формат : AC-3 Формат/Информация : Audio Coding 3 Расширение режима : CM (complete main) Параметр Endianness формата : Big Идентификатор кодека : A_AC3 Продолжительность : 1 ч. 24 м. Вид битрейта : Постоянный Битрейт : 192 Кбит/сек Каналы : 2 канала Расположение каналов : Front: L R Частота : 48,0 КГц Битовая глубина : 16 бит Метод сжатия : С потерями Размер потока : 116 Мбайт (3%) Заголовок : Gorchakov Язык : Russian Default : Нет Forced : НетАудио #5: Идентификатор : 6 Формат : AC-3 Формат/Информация : Audio Coding 3 Расширение режима : CM (complete main) Параметр Endianness формата : Big Идентификатор кодека : A_AC3 Продолжительность : 1 ч. 24 м. Вид битрейта : Постоянный Битрейт : 192 Кбит/сек Каналы : 2 канала Расположение каналов : Front: L R Частота : 48,0 КГц Битовая глубина : 16 бит Метод сжатия : С потерями Размер потока : 116 Мбайт (3%) Язык : English Default : Нет Forced : Нет 4,09 Gb 5 3 15 марта 2016 08:27 Аэроплан 2: Продолжение / Airplane II: The Sequel (1982) HDTVRip 1080 от Freeisland .torrent   [Информация о файле (нажмите для просмотра)] Перевод: Профессиональный (многоголосый закадровый)Субтитры: НетКачество: HDTVRipФормат: MKVВидео: 1920x1080 (16:9), 25.000 fps, AVC, 8 294 KbpsАудио #1: AC3, 384 Kbps, 48.0 KHz, 2 ch (MVO - Лицензия)Аудио #2: AC3, 384 Kbps, 48.0 KHz, 2 ch (MVO)Аудио #3: AC3, 384 Kbps, 48.0 KHz, 2 ch (AVO - А. Михалёв)Аудио #4: AC3, 384 Kbps, 48.0 KHz, 2 ch (AVO - В. Горчаков)Аудио #5: AC3, 384 Kbps, 48.0 KHz, 2 ch (English) 5,75 Gb 4 3

gig-torrent.net

Аэроплан 2: Продолжение 1982 - скачать бесплатно через торрент в хорошем качестве. Без регистрации

Название: Аэроплан 2: Продолжение / Airplane II: The Sequel (1982) HDRip от Scarabey | P
Качество видео: HDRip
Перевод: Профессиональный (многоголосый, закадровый)
Видео: 688x384 (1.79:1), 23.976 fps, XviD build 50 ~2252 kbps avg, 0.35 bit/pixel
Аудио: 48 kHz, AC3 Dolby Digital, 2/0 (L,R) ch, ~192 kbps
Скачать

Загрузка начнется в течение 5 сек.

1.44 GB

Название: Аэроплан 2: Продолжение / Airplane II: The Sequel (1982) BDRip от New-Team | P, A
Качество видео: BDRip [BDRemux 1080p]
Формат видео: AVI
Видео: XviD 688x384 (1.79:1), 23.976 fps, XviD build 73 ~1897 kbps avg, 0.30 bit/pixel
Аудио: AC3 AC348 kHz, AC3 Dolby Digital, 2/0 (L,R) ch, ~192 kbps | MVO | Лицензия48 kHz, AC3 Dolby Digital, 3/2 (L,C,R,l,r) + LFE ch, ~384 kbps | MVO48 kHz, AC3 Dolby Digital, 2/0 (L,R) ch, ~192 kbps | AVO | Михалёв (отдельно)48 kHz, AC3 Dolby Digital, 2/0 (L,R) ch, ~192 kbps | AVO | Горчаков (отдельно)
Скачать

Загрузка начнется в течение 5 сек.

1.69 GB

Название: Аэроплан 2: Продолжение / Airplane II: The Sequel (1982) BDRip (AVC) от MediaClub | P, A
Качество видео: BDRip (AVC)
Перевод: Профессиональный многоголосый, авторский
Видео: x264 MPEG-4 AVC, 3500 Кбит/с, 1024x576, 23.976 кадр/с
Аудио: Русский (AC3, 2 ch, 192 Кбит/с) / Профессиональный многоголосый (лицензия)Русский (AC3, 6 ch, 384 Кбит/с) / Профессиональный многоголосыйРусский (AC3, 2 ch, 192 Кбит/с) / Авторский одноголосый (А. Михалёв)Русский (AC3, 2 ch, 192 Кбит/с) / Авторский одноголосый (В. Горчаков)Английский (AC3, 2 ch, 192 Кбит/с)
Скачать

Загрузка начнется в течение 5 сек.

2.74 GB

Название: Аэроплан 2: Продолжение / Airplane II: The Sequel (1982) BDRemux 1080p от MediaClub | P, A
Качество видео: BDRemux 1080p
Перевод: Профессиональный многоголосый, авторский одноголосый
Видео: MPEG-4 AVC, 25932 Кбит/с, 1920x1080, 23.976 кадр/с
Аудио: Русский (AC3, 2 ch, 192 Кбит/с) / Профессиональный многоголосый (лицензия)Русский (AC3, 6 ch, 384 Кбит/с) / Профессиональный многоголосыйРусский (AC3, 2 ch, 192 Кбит/с) / Авторский одноголосый (А. Михалёв)Русский (AC3, 2 ch, 192 Кбит/с) / Авторский одноголосый (В. Горчаков)Английский (DTS-HD MA, 2 ch, 1587 Кбит/с)
Скачать

Загрузка начнется в течение 5 сек.

17.78 GB

Название: Аэроплан 2: Продолжение / Airplane II: The Sequel (1982) BDRip 720p от MediaClub | P, A
Качество видео: BDRip 720p
Перевод: Профессиональный многоголосый, авторский одноголосый
Видео: MPEG-4 AVC, 5800 Кбит/с, 1280x720, 23.976 кадр/с
Аудио: Русский (AC3, 2 ch, 192 Кбит/с) / Профессиональный многоголосый (лицензия)Русский (AC3, 6 ch, 384 Кбит/с) / Профессиональный многоголосыйРусский (AC3, 2 ch, 192 Кбит/с) / Авторский одноголосый (А. Михалёв)Русский (AC3, 2 ch, 192 Кбит/с) / Авторский одноголосый (В. Горчаков)Английский (AC3, 2 ch, 192 Кбит/с)
Скачать

Загрузка начнется в течение 5 сек.

4.09 GB

Название: Аэроплан 2: Продолжение / Airplane II: The Sequel (1982) HDTVRip 1080 от Freeisland
Качество видео: HDTVRip
Перевод: Профессиональный (многоголосый закадровый)
Формат видео: MKV
Видео: AVC 1920x1080 (16:9), 25.000 fps, AVC, 8 294 Kbps
Аудио: AC3AC3, 384 Kbps, 48.0 KHz, 2 ch (MVO - Лицензия)AC3, 384 Kbps, 48.0 KHz, 2 ch (MVO)AC3, 384 Kbps, 48.0 KHz, 2 ch (AVO - А. Михалёв)AC3, 384 Kbps, 48.0 KHz, 2 ch (AVO - В. Горчаков)AC3, 384 Kbps, 48.0 KHz, 2 ch (English)
Скачать

Загрузка начнется в течение 5 сек.

5.75 GB

Название: Аэроплан 2: Продолжение / Airplane II: The Sequel (1982) HDTVRip-AVC от olegek70 | P, A
Качество видео: HDTVRip-AVC (HDTV (1080i))
Перевод: Профессиональный многоголосый, авторский одноголосый
Видео: MKV, H.264 MPEG-4 AVC, 3250 Кбит/с, 1024х576
Аудио: Русский, английский (АС3, 2 ch, 384 Кбит/с)
Скачать

Загрузка начнется в течение 5 сек.

2.92 GB

www.kinovit.net

Скачать фильм Самолеты через торрент в хорошем качестве бесплатно HDRip

Раздают: 3 [ 0 KB/s ]
Размер: 1.37 GB | Добавлен: 3 года 10 мес. назад | Торрент скачан:12055 раз
Реклама Дарим 3000 рублей за регистрацию, не упусти свой шанс получить шикарный бонус!!!

02-12-2013 20:59 Самолеты Скачать торрент  

Самолеты / PlanesГод выпуска : 2013Страна: СШАЖанр: Мультфильм, комедия, приключения, семейный

Продолжительность: 01:31:35Перевод: Дубляж [Лицензия / iTunes] Субтитры: Нет

Режиссер: Клэй Холл / Klay HallВ ролях: Дейн Кук (Dusty Crophopper, озвучка), Стейси Кич (Skipper, озвучка), Брэд Гэррет (Chug, озвучка), Тери Хэтчер (Dottie, озвучка), Джулия Луис-Дрейфус (Rochelle, озвучка), Приянка Чопра (Ishani, озвучка), Джон Клиз (Bulldog, озвучка), Седрик «Развлекатель» (Leadbottom, озвучка), Карлос Аласраки (El Chupacabra, дополнительные голоса, озвучка), Роджер Крэйг Смит (Ripslinger, дополнительные голоса, озвучка), Энтони Эдвардс (Echo, озвучка), Вэл Килмер (Bravo, озвучка)Описание: Дасти Полейполе - скромный трудяга-самолет, работающий сельскохозяйственным распылителем на заштатном провинциальном аэродроме. Однако это не мешает ему мечтать о том, чтобы однажды принять участие в кругосветных гонках самых быстрых самолетов. Одна незадача - Дасти панически боится большой высоты. Поэтому, когда волею случая он все же попадает в число участников отборочного тура воздушных соревнований, ему приходится искать помощи у ветерана военно-морской авиации, отставного истребителя Шкипера. С помощью мудрого наставника Дасти сможет преодолеть свои слабости и бросить вызов надменному чемпиону Рипслингеру, а весь мир будет с замиранием сердца следить за гонкой в небесах!..Рейтинг imdb.com: 5.40 (11 812)MPAA: PG - Рекомендуется присутствие родителейКачество: HDRipФормат: AVIВидео кодек: XviDАудио кодек: AC3Видео: XviD, 720x400 (16:9), 1742 kbps, 23,976 fpsАудио: AC3 / 5.1 / 48 kHz / 384 kbps / 16 bit GeneralComplete name : H:Samilety.2013.D.HDRip.1400MB.aviFormat : AVIFormat/Info : Audio Video InterleaveFile size : 1.37 GiBDuration : 1h 31mnOverall bit rate : 2 136 KbpsWriting application : VirtualDubMod 1.5.10.2 (build 2540/release)Writing library : VirtualDubMod build 2540/release

VideoID : 0Format : MPEG-4 VisualFormat profile : Advanced [email protected] settings, BVOP : 2Format settings, QPel : NoFormat settings, GMC : No warppointsFormat settings, Matrix : CustomCodec ID : XVIDCodec ID/Hint : XviDDuration : 1h 31mnBit rate : 1 743 KbpsWidth : 720 pixelsHeight : 400 pixelsDisplay aspect ratio : 16:9Frame rate : 23.976 fpsColor space : YUVChroma subsampling : 4:2:0Bit depth : 8 bitsScan type : ProgressiveCompression mode : LossyBits/(Pixel*Frame) : 0.252Stream size : 1.11 GiB (82%)Writing library : XviD 1.2.1 (UTC 2008-12-04)

AudioID : 1Format : AC-3Format/Info : Audio Coding 3Mode extension : CM (complete main)Codec ID : 2000Duration : 1h 31mnBit rate mode : ConstantBit rate : 384 KbpsChannel(s) : 6 channelsChannel positions : Front: L C R, Side: L R, LFESampling rate : 48.0 KHzBit depth : 16 bitsCompression mode : LossyStream size : 252 MiB (18%)Alignment : Split accross interleavesInterleave, duration : 42 ms (1.00 video frame)Interleave, preload duration : 500 ms

Скачать Самолеты через торрент http://i4.imageban.ru/out/2013/12/03/14669f4656cc6abd7437058810578961.png Скачать фильм Самолеты через торрент бесплантно в хорошем качестве Описание: Дасти Полейполе - скромный трудяга-самолет, работающий сельскохозяйственным распылителем на заштатном провинциальном аэродроме. ... 2013-12-02 20:59 9.8 10 278

Loading...

Loading...

Последний раз редактировалось: лисяра (2013-12-02 21:50), всего редактировалось 1 раз

Рекламный пират

02-12-2013 21:29 Самолеты Скачать торрент  

мультик

02-12-2013 23:14 Самолеты Скачать торрент  

Надо будет заценить)Спасибо)

03-12-2013 13:37 Самолеты Скачать торрент  

лисяраСаня СПАСИБО,сын давно ждал этот мультик...Сейчас скачаю,обрадую...

03-12-2013 15:02 Самолеты Скачать торрент  

03-12-2013 15:34 Самолеты Скачать торрент  

Нежданчик получился)

03-12-2013 20:34 Самолеты Скачать торрент  

Те же тачки, тот же турбо! Детишкам смотреть однозначно!

03-12-2013 20:48 Самолеты Скачать торрент  

Типа аналог-дублер тачек?

04-12-2013 08:30 Самолеты Скачать торрент  

В этом мультфильме объектом "интернационального перекрашивания" (перекрашивание одного и того же персонажа в зависимости от страны показа мультфильма) стала Рошель. Если в оригинальной версии её обшивка раскрашена в розоватые оттенки, а также присутствует рисунок кленового листа, что говорит о её канадской принадлежности, то в русской версии она раскрашена в цвета российского флага и вдобавок её зовут Таней.

похоже тут не лицуха, а просто поделка

Pекламный агент PB

04-12-2013 11:02 Самолеты Скачать торрент  

Детям понравится!

07-12-2013 03:28 Самолеты Скачать торрент  

очень хороший добрый мультик-в свои 47 я досмотрел ево до конца-детям очень понравится

08-12-2013 19:48 Самолеты Скачать торрент  

мультик отличный

09-12-2013 18:18 Самолеты Скачать торрент  

лисяра писал(а):

лисяра

ыыыыыыыыыыыыы

20-12-2013 18:29 Самолеты Скачать торрент  

Нормальный мульт, всем советую.

21-02-2016 12:15 Самолеты Скачать торрент  

типа Тачки и все такое... в этом плане сиквел порадовал оригинальностью сценария

Дорогой пользователь! Огромная просьба, поблагодарите релизера, оцените раздачу и оставьте свои комментарий, если Вы скачали Самолеты через торрент бесплатно! Внесите свою лепту в развитие PiratBit!

Комментировать посты могут только пользователи прошедшие не сложную регистрацию

Самолеты через торрент Скачать бесплатно Самолеты Самолеты скачать торрент Самолеты смотреть онлайн Cкачать фильм Самолеты бесплатно Самолеты скачать торрент в хорошем качестве Самолеты смотреть онлайн бесплатно в хорошем качестве

Вы не можете начинать темыВы не можете отвечать на сообщенияВы не можете редактировать свои сообщенияВы не можете удалять свои сообщенияВы не можете голосовать в опросахВы не можете прикреплять файлы к сообщениямВы можете скачивать файлы

piratbit.ru

Огонь и вода через торрент в хорошем качестве бесплатно HDRip

Раздают: 5 [ 0 KB/s ]
Размер: 1.43 GB | Добавлен: 2 года 11 мес. назад | Торрент скачан:1553 раза
Реклама Дарим 3000 рублей за регистрацию, не упусти свой шанс получить шикарный бонус!!!

19-11-2014 14:27 Самолеты: Огонь и вода Скачать торрент  

Самолеты: Огонь и вода / Planes: Fire and Rescue

Год выпуска: 2014Страна: СШАЖанр: мультфильм, комедия, приключения, семейныйПродолжительность: 01:23:39Перевод: Дубляж, Лицензия

Режиссер: Роберт ГаннавейПродюссер: Феррелл Баррон, Джон ЛассетерСценарий: Джеффри М. Ховард, Роберт Ганнавей, Клэй Холл

Бюджет: $50 000 000Премьера в мире: 15 июля 2014

В ролях: Дэйн Кук, Эд Харрис, Джули Боуэн, Кёртис Армстронг, Джон Майкл Хиггинс, Хэл Холбрук, Уэс Стьюди, Брэд Гэррет, Тери Хэтчер, Стейси Кич

Описание: Самолетик Дасти — который стал уже легендой воздушных гонок вскоре узнает, что его двигатель сильно повреждён, и он никогда не может больше участвовать в скоростных воздушных гонках. Дасти ищет себе новое занятие и знакомится с мужественной пожарно-спасательной командой, которой руководит ветеран авиации вертолёт по имени Ренждер. Узнав насколько тяжела и опасна работа пожарной авиации Дасти поймёт, что такое настоящий героизм и самоотдача и сам захочет стать спасателем.

Качество: HDRip | BDRip 1080pФормат: AVIВидео кодек: XviDАудио кодек: AC3Видео: 720x304 (2.35:1), 23.976 fps, XviD build 73, ~2046 kbps avg, 0.39 bit/pixelАудио#1: 48 kHz, AC3 Dolby Digital, 3/2 (L,C,R,l,r) + LFE ch, ~384 kbps

Автор рипа: Dean24

ОбщееПолное имя : D:\Для сайта\Rip's\Planes.Fire.and.Rescue.HDRip.aviФормат : AVIФормат/Информация : Audio Video InterleaveРазмер файла : 1,43 ГбайтПродолжительность : 1 ч. 23 м.Общий поток : 2440 Кбит/секБиблиотека кодирования : VirtualDub build 35491/release

ВидеоИдентификатор : 0Формат : MPEG-4 VisualПрофиль формата : [email protected]Параметр BVOP формата : НетПараметр QPel формата : НетПараметр GMC формата : Без точки переходаПараметр матрицы формата : Default (H.263)Идентификатор кодека : XVIDИдентификатор кодека/Подсказка : XviDПродолжительность : 1 ч. 23 м.Битрейт : 2047 Кбит/секШирина : 720 пикселейВысота : 304 пикселяСоотношение сторон : 2,35:1Частота кадров : 23,976 кадра/секЦветовое пространство : YUVСубдискретизация насыщенности : 4:2:0Битовая глубина : 8 битТип развёртки : ПрогрессивнаяМетод сжатия : С потерямиБит/(Пиксели*Кадры) : 0.390Размер потока : 1,20 Гбайт (84%)Библиотека кодирования : XviD 73

АудиоИдентификатор : 1Формат : AC-3Формат/Информация : Audio Coding 3Расширение режима : CM (complete main)Параметр Endianness формата : BigИдентификатор кодека : 2000Продолжительность : 1 ч. 23 м.Вид битрейта : ПостоянныйБитрейт : 384 Кбит/секКаналы : 6 каналовРасположение каналов : Front: L C R, Side: L R, LFEЧастота : 48,0 КГцБитовая глубина : 16 битМетод сжатия : С потерямиРазмер потока : 230 Мбайт (16%)Выравнивание : Соединение по промежуткамПродолжительность промежутка : 42 мс. (1,00 видеокадр)Время предзагрузки промежутка : 512 мс.

Скачать Самолеты: Огонь и вода через торрент http://pic.pb.wtf/images/8/lze86.jpg Скачать фильм Самолеты: Огонь и вода через торрент бесплантно в хорошем качестве Описание: Самолетик Дасти — который стал уже легендой воздушных гонок вскоре узнает, что его двигатель сильно повреждён, и он никогда не ... 2014-11-19 14:27 9.8 10 41

Loading...

Loading...

% Раздел Тема Автор DL S | L
3D Мультфильмы [ 4.37 GB ] Самолеты: Огонь и вода / Planes: Fire and Rescue [2014 Мультфильм BDRip 1080p ] Анаглиф slaventi-69 Скачать
Зарубежные Мультфильмы (BDRip 1080p, 720p, Blu-ray, BD-Remux) [ 4.48 GB ] Самолеты: Огонь и вода / Planes: Fire and Rescue [2014 мультфильм BDRip 1080p дублированный () Anonymous Скачать
Зарубежные Мультфильмы (DVD) [ 5.61 GB ] Самолеты: Огонь и вода / Planes: Fire and Rescue [2014 мультфильм DVD9] R5 voovaz Скачать
Зарубежные Мультфильмы (BDRip 1080p, 720p, Blu-ray, BD-Remux) [ 7.54 GB ] Самолеты: Огонь и вода / Planes: Fire and Rescue [2014 мультфильм BDRip 1080p ] Ворон Скачать
Видео (iPhone, iPod Touch) [ 1.68 GB ] Самолеты: Огонь и вода / Planes: Fire and Rescue [2014 мультфильм BDRip 720p ] makarevich Скачать
Иностранные мультфильмы [ 1.37 GB ] Самолеты: Огонь и вода / Planes: Fire and Rescue [2014 мультфильм HDRip ] Ворон Скачать
Зарубежные Мультфильмы (BDRip 1080p, 720p, Blu-ray, BD-Remux) [ 20.49 GB ] Самолеты: Огонь и вода / Planes: Fire and Rescue [2014 BD-Remux ] Бумер Скачать

Рекламный пират

05-12-2014 13:27 Самолеты: Огонь и вода Скачать торрент  

смотрел в кинотеатре с младшим, хороший мульт

13-12-2014 15:39 Самолеты: Огонь и вода Скачать торрент  

мульт не плох,но вам не кажется, что говорящие машины это не нормально.

Дорогой пользователь! Огромная просьба, поблагодарите релизера, оцените раздачу и оставьте свои комментарий, если Вы скачали Самолеты: Огонь и вода через торрент бесплатно! Внесите свою лепту в развитие PiratBit!

Комментировать посты могут только пользователи прошедшие не сложную регистрацию

Самолеты: Огонь и вода через торрент Скачать бесплатно Самолеты: Огонь и вода Самолеты: Огонь и вода скачать торрент Самолеты: Огонь и вода смотреть онлайн Cкачать фильм Самолеты: Огонь и вода бесплатно Самолеты: Огонь и вода скачать торрент в хорошем качестве Самолеты: Огонь и вода смотреть онлайн бесплатно в хорошем качестве

Вы не можете начинать темыВы не можете отвечать на сообщенияВы не можете редактировать свои сообщенияВы не можете удалять свои сообщенияВы не можете голосовать в опросахВы не можете прикреплять файлы к сообщениямВы можете скачивать файлы

piratbit.ru


Смотрите также