Скачать бесплатно фильм август восьмого в хорошем качестве через торрент


Август. Восьмого (2012) скачать торрент в хорошем качестве бесплатно

Описание фильма "Август. Восьмого"

Когда события нанизываются одно на другое, когда каждая минута ставит тебя перед выбором, когда жизнь и смерть становятся частью страшной компьютерной игры, пульт от которой  в чужих руках, тогда ты начинаешь действовать так, будто каждая минута  последняя.Казалось бы, жизнь хорошенькой разведенной москвички Ксении оставляет не много места для драматических ситуаций: да, сын Тема тяжело переживает развод родителей, да, поклонник поглощен карьерой, да, мама вмешивается в личную жизнь,  но трудно назвать эти обстоятельства критическими. Все меняется, когда бывший муж, офицер миротворческих сил, просит Ксению прислать Тему к нему, подышать горным воздухом в прекрасной деревушке в доме его родителей! Он уверяет, что это совершенно безопасно  да маленький Тема и не чувствует никакого страха, ведь рядом папа, добрый и непобедимый герой. Но наступает день, когда вражеские танки входят в город  и мир самых страшных игровых иллюзий мальчика становится реальностью. На экране оживают компьютерные драконы и злые космические демоны, втягивая живых людей в огненную вакханалию войны.Ксения обязана выжить в военном аду, пройти через адскую мясорубку прошитого пулями города, чтобы спасти того, кого любит. У нее нет другой цели  и нет другого пути.

Скачать Август. Восьмого через торрент

Сиды Качество Перевод Размер Видео Аудио
Скачать Загрузка... BDRip1080 Русский 9,06 Гб 1280x544, 7646 Кбит/с, 23.976 fps DTS, 6 ch, 1510 Кбит/с
Скачать Загрузка... BDRip1080 7,24 Гб DTS, 6 ch, 1510 Кбит/с
Скачать Загрузка... WEB-DL Русский 779,86 Мб MPEG-4 AVC, 720x304, ~ 713 Кбит/с AAC-LC, 2 ch, ~72 Кбит/сMIОбщее Уникальный идентификатор : 171713479833672766883358382876386305787 (0x812ED0323E6D676D83A38CDB9142A6FB) Полное имя : D:MOVIESAvgust.Vosmogo.2012.ExKinoRay.mkv Формат : Matroska Версия формата : Version 2 Размер файла : 744 Мбайт Продолжительность : 2 ч. 12 м. Общий поток : 787 Кбит/сек Дата кодирования : UTC 2017-08-25 02:07:05 Программа кодирования : mkvmerge v15.0.0 ('Duel with the Devil') 64-bit Библиотека кодирования : libebml v1.3.5 + libmatroska v1.4.5 Видео Идентификатор : 1 Формат : AVC Формат/Информация : Advanced Video Codec Профиль формата : [email protected] Параметр CABAC формата : Да Параметр RefFrames формата : 9 кадров Идентификатор кодека : V_MPEG4/ISO/AVC Продолжительность : 2 ч. 12 м. Битрейт : 713 Кбит/сек Ширина : 720 пикселей Высота : 304 пикселя Соотношение сторон : 2,35:1 Режим частоты кадров : Постоянный Частота кадров : 23,976 (24000/1001) кадра/сек Цветовое пространство : YUV Субдискретизация насыщенности : 4:2:0 Битовая глубина : 8 бит Тип развёртки : Прогрессивная Бит/(Пиксели*Кадры) : 0.136 Размер потока : 674 Мбайт (91%) Библиотека кодирования : x264 core 152 r2851kMod ba24899 Настройки программы : cabac=1 / ref=9 / deblock=1:-2:-2 / analyse=0x3:0x113 / me=umh / subme=9 / psy=1 / fade_compensate=0.00 / psy_rd=1.00:0.20 / mixed_ref=1 / me_range=32 / chroma_me=1 / trellis=1 / 8x8dct=1 / cqm=0 / deadzone=21,11 / fast_pskip=1 / chroma_qp_offset=-3 / threads=6 / lookahead_threads=1 / sliced_threads=0 / nr=0 / decimate=0 / interlaced=0 / bluray_compat=0 / constrained_intra=0 / bframes=9 / b_pyramid=2 / b_adapt=2 / b_bias=0 / direct=3 / weightb=1 / open_gop=0 / weightp=2 / keyint=240 / keyint_min=23 / scenecut=40 / intra_refresh=0 / rc_lookahead=40 / rc=2pass / mbtree=1 / bitrate=713 / ratetol=1.0 / qcomp=0.60 / qpmin=0 / qpmax=69 / qpstep=4 / cplxblur=20.0 / qblur=0.5 / vbv_maxrate=50000 / vbv_bufsize=62500 / nal_hrd=none / filler=0 / ip_ratio=1.40 / aq=1:1.00 Default : Да Forced : Нет Аудио Идентификатор : 2 Формат : AAC Формат/Информация : Advanced Audio Codec Профиль формата : LC Идентификатор кодека : A_AAC Продолжительность : 2 ч. 12 м. Битрейт : 72,0 Кбит/сек Каналы : 2 канала Расположение каналов : Front: L R Частота : 48,0 КГц Частота кадров : 46,875 кадров/сек (1024 SPF) Метод сжатия : С потерями Задержка видео : 9 мс. Размер потока : 68,1 Мбайт (9%) Язык : Russian Default : Да Forced : Нет Скриншоты
Скачать Загрузка... WEB-DL Не требуется 456,04 Мб 320x136 (2.37:1), 23.976 fps, ~350 kbps 48 kHz, MPEG Layer 3, 2 ch, ~96.00 kbps

У нас вы можете легко скачать Август. Восьмого через торрент бесплатно в хорошем качестве, оставляйте комментарии и делитесь впечатлениями!

kino.kak.to

Скачать фильм Август. Восьмого через торрент в хорошем качестве бесплатно DVDRip

Раздают: 1 [ 0 KB/s ]
Размер: 2.05 GB | Добавлен: 5 лет 6 мес. назад | Торрент скачан:2231 раз
Реклама Дарим 3000 рублей за регистрацию, не упусти свой шанс получить шикарный бонус!!!

16-03-2012 17:20 Август. Восьмого Скачать торрент  

[font="Georgia"]Август. Восьмого Год выпуска: 2012.Страна: Россия.Жанр: Драма, военный.Продолжительность: 02:06:47.Перевод: Оригинал. (Лицензия)Субтитры: нетРежиссер: Джаник Файзиев.В ролях: Светлана Иванова, Максим Матвеев, Егор Бероев, Артем Фадеев, Владимир Вдовиченков, Сергей Газаров, Гоша Куценко, Анатолий Белый, Кирилл Плетнёв, Алексей ГуськовОписание: Когда события нанизываются одно на другое, когда каждая минута ставит тебя перед выбором, когда жизнь и смерть становятся частью страшной компьютерной игры, пульт от которой — в чужих руках, тогда ты начинаешь действовать так, будто каждая минута — последняя.Казалось бы, жизнь хорошенькой разведенной москвички Ксении оставляет не много места для драматических ситуаций: да, сын Тема тяжело переживает развод родителей, да, поклонник поглощен карьерой, да, мама вмешивается в личную жизнь, — но трудно назвать эти обстоятельства критическими.Качество:DVDRip.Формат: AVI.Видео кодек: XviD.Аудио кодек: AC3.Видео: XviD, 720x304 (2,40:1), 25.000 fps, 1 858 Kbps, 0.340 bit/pixelАудио: AC3, 48.0 KHz, 6 ch, 448 Kbps Скачать Август. Восьмого через торрент http://s002.youpic.su/pictures/1331845200/9e53028734a29e56198aa84fce60ee02.png Скачать фильм Август. Восьмого через торрент бесплантно в хорошем качестве Описание: Когда события нанизываются одно на другое, когда каждая минута ставит тебя перед выбором, когда жизнь и смерть становятся частью ... 2012-04-17 11:33 10 10 20

Loading...

Loading...

Рекламный пират

16-03-2012 18:00 Август. Восьмого Скачать торрент  

Большое Спасибо!!!!!!!!!!!!!!!!!!!!!!!!!!!!!!!!!!!!!!!!!!!!!!!!!!!!!!!!!!!!!!!!

16-03-2012 18:02 Август. Восьмого Скачать торрент  

Спасибо за рипчик, фильм нормальный, особенно для нашего отечественного.. :D Но с Трансформерами перегнули малость..))

16-03-2012 18:18 Август. Восьмого Скачать торрент  

Спасибо БОЛЬШОЕ!!!Дождался Рипа!!!!

16-03-2012 18:21 Август. Восьмого Скачать торрент  

16-03-2012 18:46 Август. Восьмого Скачать торрент  

залейте DVD5 (сжатый) 4.37 ГБ (он уже есть) <= в таком качестве многие захотят посмотреть.

16-03-2012 22:12 Август. Восьмого Скачать торрент  

17-03-2012 08:25 Август. Восьмого Скачать торрент  

Спасибо за фильмец!

17-03-2012 09:18 Август. Восьмого Скачать торрент  

прикольное кино

Pекламный агент PB

17-03-2012 11:58 Август. Восьмого Скачать торрент  

Друг рекомендовал посмотреть. Ему понравилось :good2:

18-03-2012 08:04 Август. Восьмого Скачать торрент  

Хороший фильм! Но как уже говорилось ранее : со спецэфектами в стиле Трансформеры - это перебор. Фильм и без них был бы хороший , наверное даже лучше чем с ними.

19-03-2012 20:21 Август. Восьмого Скачать торрент  

purgen1979 писал(а):

Хороший фильм! Но как уже говорилось ранее : со спецэфектами в стиле Трансформеры - это перебор. Фильм и без них был бы хороший , наверное даже лучше чем с ними.

Мне показалось что там не только спецэффекты из Transformers но и музыка местами) В кино не пошел именно из за этого. Еще идея фильма уж больно напоминает Sucker Punch когда себе придумывают что то чтоб не воспринимать реальность как она есть.

20-03-2012 03:13 Август. Восьмого Скачать торрент  

Да-а-а!!! Ужас просто, бредовый фильмец, просто жаль своих потраченных 2 часов, хуже даже не придумаешь...

21-03-2012 15:28 Август. Восьмого Скачать торрент  

Nickneim писал(а):

Да-а-а!!! Ужас просто, бредовый фильмец, просто жаль своих потраченных 2 часов, хуже даже не придумаешь...

дал посмотреть данное кино соседу, через 40 мин приходит он с флешкой на вытянутую руку, и говорит что за _!... ты мне дал.

23-03-2012 11:42 Август. Восьмого Скачать торрент  

фильм супер советую

27-03-2012 10:50 Август. Восьмого Скачать торрент  

GryvЧто, серьезно что-ль?

27-03-2012 11:37 Август. Восьмого Скачать торрент  

Ну так, на один раз. Хотя я думал там про войну, а там толком то не показали ниче.

Pекламный агент PB

31-03-2012 11:07 Август. Восьмого Скачать торрент  

Спасибо большое

20-04-2012 02:33 Август. Восьмого Скачать торрент  

Спасибо!Понравилось! У -=Cherry=- плохих релизов просто не встречал!!!ИМХО :ad:Ну у каждого цвет фломастера-разный

02-12-2012 15:50 Август. Восьмого Скачать торрент  

говнофильм !!!1111рас

16-03-2013 20:04 Август. Восьмого Скачать торрент  

Отличный фильм!!!! зря вы про него гадости говорите(((((

Дорогой пользователь! Огромная просьба, поблагодарите релизера, оцените раздачу и оставьте свои комментарий, если Вы скачали Август. Восьмого через торрент бесплатно! Внесите свою лепту в развитие PiratBit!

Комментировать посты могут только пользователи прошедшие не сложную регистрацию

Август. Восьмого через торрент Скачать бесплатно Август. Восьмого Август. Восьмого скачать торрент Август. Восьмого смотреть онлайн Cкачать фильм Август. Восьмого бесплатно Август. Восьмого скачать торрент в хорошем качестве Август. Восьмого смотреть онлайн бесплатно в хорошем качестве

Вы не можете начинать темыВы не можете отвечать на сообщенияВы не можете редактировать свои сообщенияВы не можете удалять свои сообщенияВы не можете голосовать в опросахВы не можете прикреплять файлы к сообщениямВы можете скачивать файлы

piratbit.ru

Скачать фильм Август. Восьмого через торрент в хорошем качестве бесплатно DVDRip-AVC

Размер: 2.41 GB &verbar; Добавлен: 5 лет 6 мес. назад &verbar; Торрент скачан:358 раз
Реклама Дарим 3000 рублей за регистрацию, не упусти свой шанс получить шикарный бонус!!!

17-03-2012 07:27 Август. Восьмого Скачать торрент  

[font="Georgia"]Август. Восьмого Год выпуска: 2012.Страна: Россия.Жанр: Драма, военный.Продолжительность: 02:06:47.Перевод: Оригинал. (Лицензия)Субтитры: нетРежиссер: Джаник Файзиев.В ролях: Светлана Иванова, Максим Матвеев, Егор Бероев, Артем Фадеев, Владимир Вдовиченков, Сергей Газаров, Гоша Куценко, Анатолий Белый, Кирилл Плетнёв, Алексей ГуськовОписание: Когда события нанизываются одно на другое, когда каждая минута ставит тебя перед выбором, когда жизнь и смерть становятся частью страшной компьютерной игры, пульт от которой — в чужих руках, тогда ты начинаешь действовать так, будто каждая минута — последняя.Казалось бы, жизнь хорошенькой разведенной москвички Ксении оставляет не много места для драматических ситуаций: да, сын Тема тяжело переживает развод родителей, да, поклонник поглощен карьерой, да, мама вмешивается в личную жизнь, — но трудно назвать эти обстоятельства критическими.Качество:DVDRip-AVCФормат: MKV.Видео кодек: x264.Аудио кодек: АС3.Видео: x264, 720x436 (2,35:1), 25.000 fps, 2273 Kbps, 0.290 bit/pixelАудио: AC3, 48.0 KHz, 6 ch, 448 Kbps Скачать Август. Восьмого через торрент http://s002.youpic.su/pictures/1331845200/9e53028734a29e56198aa84fce60ee02.png Скачать фильм Август. Восьмого через торрент бесплантно в хорошем качестве Описание: Когда события нанизываются одно на другое, когда каждая минута ставит тебя перед выбором, когда жизнь и смерть становятся частью ... 2012-04-17 11:31 4.7 10 47

Loading...

Loading...

Рекламный пират

17-03-2012 10:01 Август. Восьмого Скачать торрент  

Раздача-КАЛ !!! Размер видео непонятный какой-то и шире не делается.ФТОППКУ !!!

17-03-2012 12:20 Август. Восьмого Скачать торрент  

tu9kсам ты каллтут всё ровно !!!

17-03-2012 12:49 Август. Восьмого Скачать торрент  

tu9k писал(а):

Раздача-КАЛ !!! Размер видео непонятный какой-то и шире не делается.ФТОППКУ !!!

поменяй плеер и всё будяА ФИЛЬМ просто на одном дыхании пролетел!Русские все таки начинают по чуть нормЭ снимать

17-03-2012 14:52 Август. Восьмого Скачать торрент  

720x576 в mkv Можно

18-03-2012 05:09 Август. Восьмого Скачать торрент  

Спасибо за раздачу кино понравилось,качество норм в MKV всегда лучше чем AVI.

19-03-2012 15:18 Август. Восьмого Скачать торрент  

довольно таки хорошо, только трейлер врет сильно

24-03-2012 02:15 Август. Восьмого Скачать торрент  

Дорогой пользователь! Огромная просьба, поблагодарите релизера, оцените раздачу и оставьте свои комментарий, если Вы скачали Август. Восьмого через торрент бесплатно! Внесите свою лепту в развитие PiratBit!

Комментировать посты могут только пользователи прошедшие не сложную регистрацию

Август. Восьмого через торрент Скачать бесплатно Август. Восьмого Август. Восьмого скачать торрент Август. Восьмого смотреть онлайн Cкачать фильм Август. Восьмого бесплатно Август. Восьмого скачать торрент в хорошем качестве Август. Восьмого смотреть онлайн бесплатно в хорошем качестве

Вы не можете начинать темыВы не можете отвечать на сообщенияВы не можете редактировать свои сообщенияВы не можете удалять свои сообщенияВы не можете голосовать в опросахВы не можете прикреплять файлы к сообщениямВы можете скачивать файлы

piratbit.ru

Август. Восьмого (2012) BDRip 1080p

Информация о фильме Название: Август. Восьмого Год выхода: 2012 Жанр: драма, военный Студия/Страна: Россия Режиссер: Джаник Файзиев В ролях: Светлана Иванова, Максим Матвеев, Егор Бероев, Артем Фадеев, Владимир Вдовиченков, Сергей Газаров, Гоша Куценко, Анатолий Белый, Кирилл Плетнёв, Алексей Гуськов Длительность: 02:12:09 Перевод/язык: оригинал (русский) ..........................................................................

О фильме: Когда события нанизываются одно на другое, когда каждая минута ставит тебя перед выбором, когда жизнь и смерть становятся частью страшной компьютерной игры, пульт от которой — в чужих руках, тогда ты начинаешь действовать так, будто каждая минута — последняя.

Казалось бы, жизнь хорошенькой разведенной москвички Ксении оставляет не много места для драматических ситуаций: да, сын Тема тяжело переживает развод родителей, да, поклонник поглощен карьерой, да, мама вмешивается в личную жизнь, — но трудно назвать эти обстоятельства критическими.

Все меняется, когда бывший муж, офицер миротворческих сил, просит Ксению прислать Тему к нему, подышать горным воздухом в прекрасной деревушке в доме его родителей! Он уверяет, что это совершенно безопасно — да маленький Тема и не чувствует никакого страха, ведь рядом папа, добрый и непобедимый герой. Но наступает день, когда вражеские танки входят в город — и мир самых страшных игровых иллюзий мальчика становится реальностью. На экране оживают компьютерные драконы и злые космические демоны, втягивая живых людей в огненную вакханалию войны.

Ксения обязана выжить в военном аду, пройти через адскую мясорубку прошитого пулями города, чтобы спасти того кого любит. У нее нет другой цели — и нет другого пути.

[kinopoisk]565158[/kinopoisk] ..........................................................................

Тех. данные: Качество: BDRip 1080p Формат: MKV Видео: 1920x816 (2,35:1), 23.976 fps, 4287 kbps Звук: 48 kHz, AC-3, 6 ch, 448 kbps

Общее Уникальный идентификатор : 209718533497185542630078525396621217149 (0x9DC65202D1C49723A5CF1A44EB4C4D7D) Полное имя : Avgust.Vosmogo.2012.BDRip.1080p.Rus.mkv Формат : Matroska Версия формата : Version 2 Размер файла : 4,37 Гбайт Продолжительность : 2 ч. 12 м. Общий поток : 4736 Кбит/сек Название фильма : Август. Восьмого (2012) Дата кодирования : UTC 2012-03-27 21:01:16 Программа кодирования : mkvmerge v4.0.0 ('The Stars were mine') сборка от Jun 6 2010 16:18:42 Библиотека кодирования : libebml v1.0.0 + libmatroska v1.0.0

Видео Идентификатор : 1 Формат : AVC Формат/Информация : Advanced Video Codec Профиль формата : [email protected] Параметр CABAC формата : Да Параметр ReFrames формата : 5 кадров Идентификатор кодека : V_MPEG4/ISO/AVC Продолжительность : 2 ч. 12 м. Битрейт : 4287 Кбит/сек Ширина : 1920 пикселей Высота : 816 пикселей Соотношение сторон : 2,35:1 Частота кадров : 23,976 кадра/сек Цветовое пространство : YUV Субдискретизация насыщенности : 4:2:0 Битовая глубина : 8 бит Тип развёртки : Прогрессивная Бит/(Пиксели*Кадры) : 0.114 Размер потока : 3,87 Гбайт (89%) Заголовок : Release by AlexKa Библиотека кодирования : x264 core 122 r2184 5c85e0a Настройки программы : cabac=1 / ref=5 / deblock=1:0:0 / analyse=0x3:0x133 / me=umh / subme=10 / psy=1 / psy_rd=1.00:0.10 / mixed_ref=1 / me_range=32 / chroma_me=1 / trellis=2 / 8x8dct=1 / cqm=0 / deadzone=21,11 / fast_pskip=0 / chroma_qp_offset=-3 / threads=12 / sliced_threads=0 / nr=0 / decimate=0 / interlaced=0 / bluray_compat=0 / constrained_intra=0 / bframes=5 / b_pyramid=2 / b_adapt=2 / b_bias=0 / direct=3 / weightb=1 / open_gop=0 / weightp=2 / keyint=240 / keyint_min=23 / scenecut=40 / intra_refresh=0 / rc_lookahead=60 / rc=2pass / mbtree=1 / bitrate=4287 / ratetol=1.0 / qcomp=0.60 / qpmin=0 / qpmax=69 / qpstep=4 / cplxblur=20.0 / qblur=0.5 / ip_ratio=1.40 / aq=1:1.00 Язык : Russian

Аудио Идентификатор : 2 Формат : AC-3 Формат/Информация : Audio Coding 3 Расширение режима : CM (complete main) Идентификатор кодека : A_AC3 Продолжительность : 2 ч. 12 м. Вид битрейта : Постоянный Битрейт : 448 Кбит/сек Каналы : 6 каналов Расположение каналов : Front: L C R, Side: L R, LFE Частота : 48,0 КГц Битовая глубина : 16 бит Метод сжатия : С потерями Размер потока : 423 Мбайт (9%) Язык : Russian

Меню 00:00:00.000 : :Chapter 01 00:09:27.400 : :Chapter 02 00:19:43.765 : :Chapter 03 00:30:03.885 : :Chapter 04 00:42:15.533 : :Chapter 05 00:52:50.250 : :Chapter 06 01:03:11.579 : :Chapter 07 01:12:51.825 : :Chapter 08 01:24:27.187 : :Chapter 09 01:35:20.089 : :Chapter 10 01:45:44.421 : :Chapter 11 01:56:43.538 : :Chapter 12 02:08:09.723 : :Chapter 13 02:12:09.212 : :Chapter 14

bigtracker.org


Смотрите также