Скачать бесплатно фильм через торрент в хорошем качестве миссия невыполнима


Племя изгоев через торрент в хорошем качестве бесплатно HDRip by Dean24

Раздают: 1 [ 0 KB/s ]
Размер: 2.18 GB | Добавлен: 1 год 11 мес. назад | Торрент скачан:364 раза
Реклама Дарим 3000 рублей за регистрацию, не упусти свой шанс получить шикарный бонус!!!

07-11-2015 13:32 Миссия невыполнима: Племя изгоев Скачать торрент  

Миссия невыполнима: Племя изгоев / Mission: Impossible - Rogue Nation

Год выпуска: 2015Страна: США, Гонконг, КитайЖанр: боевик, триллер, приключенияПродолжительность: 02:11:33Перевод: Дубляж | iTunesСубтитры: Нет

Режиссер: Кристофер МакКуорриПродюссер: Джей Джей Абрамс, Брайан Берк, Том КрузСценарий: Кристофер МакКуорри, Брюс Геллер, Дрю Пирс

Бюджет: $150 000 000Премьера в мире: 23 июля 2015

В ролях: Том Круз, Ребекка Фергюсон (II), Саймон Пегг, Джереми Реннер, Винг Рэймс, Шон Харрис, Алек Болдуин, Саймон МакБерни, Йенс Хультен, Том Холландер, Чжан Цзинчу, Матео Руфино, Фернандо Абади, Алек Утгофф, Гермиона Корфилд, Найджел Барбер, Уильям Робертс, Патрик Полетти, Мартин Кокрейн, Дэвид Пирт

Описание: Правительство решает расформировать самый подготовленный и боеспособный отряд, предназначенный для выполнения миссий любой сложности и секретности - команду Итана "Миссия невыполнима". Однако в тоже время самому Итану удается обнаружить неизвестный и таинственный синдикат, о котором только ходили слухи. Как оказалось этот синдикат состоит из изгоев и таких же специалистов высокого класса, как и сама группа Итана. Поэтому наш герой собирается совершить последнюю миссию вместе со своей группой по ликвидации этого таинственного синдиката. В противном случае синдикат уничтожит Международный Валютный Фонд и мир погрузится в экономический хаос.

Качество: HDRip | BDRip 720pФормат: AVIВидео кодек: XviDАудио кодек: AC3Видео: 720x304 (2.37:1), 23.976 fps, XviD build 50 ~1984 kbps avg, 0.38 bit/pixelАудио: 48 kHz, AC3 Dolby Digital, 3/2 (L,C,R,l,r) + LFE ch, ~384 kbps

Автор рипа: Dean24

| ОбщееПолное имя : D:\Мои документы\Фильмы\Сайт\Mission.Impossible.Rogue.Nation.HDRip.aviФормат : AVIФормат/Информация : Audio Video InterleaveПрофиль формата : OpenDMLРазмер файла : 2,18 ГбайтПродолжительность : 2 ч. 11 м.Общий поток : 2376 Кбит/секПрограмма кодирования : VirtualDubMod 1.5.10.3 | www.virtualdub-fr.org || (build 2550/release)Библиотека кодирования : VirtualDubMod build 2550/release

ВидеоИдентификатор : 0Формат : MPEG-4 VisualПрофиль формата : Advanced [email protected]Параметр BVOP формата : 3Параметр QPel формата : НетПараметр GMC формата : Без точки переходаПараметр матрицы формата : Default (H.263)Идентификатор кодека : XVIDИдентификатор кодека/Подсказка : XviDПродолжительность : 2 ч. 11 м.Битрейт : 1980 Кбит/секШирина : 720 пикселейВысота : 304 пикселяСоотношение сторон : 2,35:1Частота кадров : 23,976 кадра/секЦветовое пространство : YUVСубдискретизация насыщенности : 4:2:0Битовая глубина : 8 битТип развёртки : ПрогрессивнаяМетод сжатия : С потерямиБит/(Пиксели*Кадры) : 0.377Размер потока : 1,82 Гбайт (83%)Библиотека кодирования : XviD 1.2.1 (UTC 2008-12-04)

АудиоИдентификатор : 1Формат : AC-3Формат/Информация : Audio Coding 3Расширение режима : CM (complete main)Параметр Endianness формата : BigИдентификатор кодека : 2000Продолжительность : 2 ч. 11 м.Вид битрейта : ПостоянныйБитрейт : 384 Кбит/секКаналы : 6 каналовРасположение каналов : Front: L C R, Side: L R, LFEЧастота : 48,0 КГцБитовая глубина : 16 битМетод сжатия : С потерямиРазмер потока : 361 Мбайт (16%)Выравнивание : Разделение по промежуткамПродолжительность промежутка : 42 мс. (1,00 видеокадр)Время предзагрузки промежутка : 500 мс.

Скачать Миссия невыполнима: Племя изгоев через торрент http://i65.fastpic.ru/big/2015/1107/e5/55644ff153cffe008c86508a01bf3ce5.png Скачать фильм Миссия невыполнима: Племя изгоев через торрент бесплантно в хорошем качестве Описание: Правительство решает расформировать самый подготовленный и боеспособный отряд, предназначенный для выполнения миссий любой ... 2015-11-07 13:32 9.9 10 15

Loading...

Loading...

% Раздел Тема Автор DL S | L
Фильмы с авторской озвучкой [ 1.47 GB ] Миссия невыполнима: Племя изгоев / Mission: Impossible - Rogue Nation [2015 BDRip] [AVO] killermax2013 Скачать
Ultra HD (UHD: 2K, 4K, 8K) — видео сверхвысокой чёткости [ 16.07 GB ] Миссия невыполнима: Племя изгоев / Mission: Impossible - Rogue Nation [2015 UHD WEBRip 2160p] 2xDUB [] bober100 Скачать
Фильмы 2015 [DVDrip, WEB-DLRip, HDrip] [ 1.46 GB ] Миссия невыполнима: Племя изгоев / Mission: Impossible - Rogue Nation [2015 Гонконг Китай BDRip] DUB Twi7ter Скачать
Фильмы [HD 720p, 1080p] (Хороший звук DUB, MVO) [ 5.72 GB ] Миссия невыполнима: Племя изгоев / Mission: Impossible - Rogue Nation [2015 BDRip 720p] DUB potroks Скачать
Фильмы с авторской озвучкой [ 1.28 GB ] Миссия невыполнима: Племя изгоев / Mission: Impossible - Rogue Nation [2015 HDRip-AVC] [AVO] killermax2013 Скачать
Фильмы [HD 720p, 1080p] (Хороший звук DUB, MVO) [ 7.94 GB ] Миссия невыполнима: Племя изгоев / Mission: Impossible - Rogue Nation [2015 BDRip 720p от _denis_100 / NNNB] - [] _denis_100 Скачать
Фильмы 2015 [DVDrip, WEB-DLRip, HDrip] [ 2.95 GB ] Миссия невыполнима: Племя изгоев / Mission: Impossible - Rogue Nation [2015 BDRip-AVC] DUB potroks Скачать

Рекламный пират

Дорогой пользователь! Огромная просьба, поблагодарите релизера, оцените раздачу и оставьте свои комментарий, если Вы скачали Миссия невыполнима: Племя изгоев через торрент бесплатно! Внесите свою лепту в развитие PiratBit!

Комментировать посты могут только пользователи прошедшие не сложную регистрацию

Миссия невыполнима: Племя изгоев через торрент Скачать бесплатно Миссия невыполнима: Племя изгоев Миссия невыполнима: Племя изгоев скачать торрент Миссия невыполнима: Племя изгоев смотреть онлайн Cкачать фильм Миссия невыполнима: Племя изгоев бесплатно Миссия невыполнима: Племя изгоев скачать торрент в хорошем качестве Миссия невыполнима: Племя изгоев смотреть онлайн бесплатно в хорошем качестве

Вы не можете начинать темыВы не можете отвечать на сообщенияВы не можете редактировать свои сообщенияВы не можете удалять свои сообщенияВы не можете голосовать в опросахВы не можете прикреплять файлы к сообщениямВы можете скачивать файлы

piratbit.ru

Скачать Миссия Невыполнима: Протокол Фантом через торрент

Категория: Фильмы 1574 0 Торрент добавлен: 17-04-2015 Рейтинг:

Название: Миссия невыполнима: Протокол Фантом 2011 / боевик, триллер, приключения / 132 мин.Режиссер: Брэд БёрдВыпущено: США В ролях: Том Круз, Пола Пэттон, Саймон Пегг, Джереми Реннер, Микаэл Нюквист, Владимир Машков, Самули Эдельманн, Иван Шведов, Анил Капур, Леа Сейду

Агента секретной службы Итана Ханта подставили, и обвинили вместе с теми, с кем он работал в причастности к взрыву на Красной площади. Президентом было объявлено «Протокол Фантом», а это значит, что спецподразделение полностью ликвидировано, а Итан остался без всякой поддержки. Теперь задача Итана заключается в том, чтобы оправдать себя и не дать произвести новую атаку. С ним в команде по-прежнему те же ребята, но сейчас Итану становится не ясны их истинные мотивы.

Трейлер к фильму Миссия Невыполнима: Протокол Фантом

Миссия Невыполнима: Протокол Фантом скачать торрент

Формат: MKVВидео кодек: AVCАудио кодек: AC3Видео: 26.7 Мбит/с, 1920x1080, 23.976 кадр/с Аудио: Audio1: Русский (AC3, 6 ch, 448 Кбит/с)Проф. (полное дублирование) 29,33 Gb

скачать

Формат: MKVВидео кодек: AVCАудио кодек: AC3Видео: 1920x800, 4254 Кбит/сек, 23,976 кадр/сек, AVC, x264, 2,40:1, 0.116 Бит/[Пиксели*Кадры], 2pass Аудио: 448 Кбит/сек, 6 канала(ов), 48,0 КГц Проф. (полное дублирование)

4,36 Gb

скачать

Формат: AVIВидео кодек: XviDАудио кодек: MPEG AudioВидео: 704x288 (2.44:1), 23.976 fps, XviD build 50 ~1428 kbps avg, 0.29 bit/pixel Аудио: 48 kHz, MPEG Layer 3, 2 ch, ~128.00 kbps avg Проф. (полное дублирование)

скачать

Вы находитесь на странице, где можете совершенно бесплатно скачать фильм Миссия Невыполнима: Протокол Фантом в хорошем качестве через торрент, в любом формате, который больше всего вам на данный момент подходит. Скачивание осуществляется через торрент, что означает максимально высокую скорость загрузки. Желаем Вам приятного просмотра!. Не забудь поделиться своими впечатлениями после того как посмотришь фильм Миссия Невыполнима: Протокол Фантом.

Информация Посетители, находящиеся в группе Гости, не могут оставлять комментарии к данной публикации.

psp-gu.ru

Скачать Миссия невыполнима: Племя изгоев (2015) через торрент

Категория: Фильмы 3291 1 Торрент добавлен: 19-10-2015 Рейтинг:

2015 / боевик, триллер, приключения / 131 мин.Название: Миссия невыполнима: Племя изгоев / Mission: Impossible - Rogue NationСтрана: США, Гонконг, Китай Режиссер: Кристофер МакКуорри Роли сыграли: Том Круз, Ребекка Фергюсон, Саймон Пегг, Джереми Реннер, Винг Реймз, Шон Харрис, Алек Болдуин, Саймон МакБерни, Йенс Хультен, Том Холландер

Правительство принимает решение о роспуске секретного отряда, который, несмотря на то, что о нем мало кто знает, является самым боеспособным и оснащенным, способным разрешить абсолютно любую ситуацию в стране и в мире.

В этом отряде Итан был главным человеком, на кого полагалось руководство при решении самых сложных задач. Он никогда их не подводил и всегда был на пару шагов впереди врагов. Вскоре государство должно было отстранить от работы этих профессионалов, которые поддерживали спокойствие долгие года. Параллельно с этими событиями Итану удается найти самый таинственный синдикат, про который пока было мало что известно, но ясно одно – в него входили профессионалы самого высокого уровня, ни чем не уступающие по навыкам Итану.

Этот секретный синдикат, можно сказать, состоял из изгоев, которым терять было нечего, и они готовили операцию по ликвидации Международного Валютного Фонда, после чего весь мир должен был погрузиться на долгие годы в сильнейший экономический кризис. Итану со своей командой вновь предстоит остановить всемирный крах, но им не привыкать справляться с невыполнимыми миссиями.

Трейлер к фильму Миссия невыполнима: Племя изгоев (2015)

 

Миссия невыполнима: Племя изгоев (2015) скачать торрент

Формат: MatroskaКачество: Blu-RayВидео: 1920x1080 at 23.976 fps, MPEG-4 AVC, ~24449 kbps avgЗвук: Russian: 48 kHz, AC3, 3/2 (L,C,R,l,r) + LFE ch, ~640.00 kbps avg |Дубляж, Blu-ray EUR|

27,50 Gb

Кодек: x264Качество: BDRipВидео: 1920x804 (2,40:1), 23.976 fps, 11.3 MbpsЗвук: AC-3, 6 ch, 640 kbps (Rus)Дублированный (лицензия)

11,55 Gb

Качество видео: HDRipФормат видео: AVIВидео: 720x304 (2.37:1), 23.976 fps, XviD build 73 ~1376 kbps avg, 0.26 bit/pixelАудио: 48 kHz, AC3 Dolby Digital, 2/0 (L,R) ch, ~192 kbps, Профессиональный (полное дублирование)

1,45 Gb

Вы находитесь на странице, где можете совершенно бесплатно скачать фильм Миссия невыполнима: Племя изгоев (2015) в хорошем качестве через торрент, в любом формате, который больше всего вам на данный момент подходит. Скачивание осуществляется через торрент, что означает максимально высокую скорость загрузки. Желаем Вам приятного просмотра!. Не забудь поделиться своими впечатлениями после того как посмотришь фильм Миссия невыполнима: Племя изгоев (2015).

Информация Посетители, находящиеся в группе Гости, не могут оставлять комментарии к данной публикации.

psp-gu.ru

Племя изгоев через торрент в хорошем качестве бесплатно 1080p

GeneralUnique ID : 244504786187981574087804095556544996764 (0xB7F1E8AF68F1A8AD9D40B89CF811A59C)Complete name : D:\Торенты\Mission.Impossible.Rogue.Nation.2015.BDRip.1080p.mkvFormat : MatroskaFormat version : Version 2File size : 17.7 GiBDuration : 2h 11mnOverall bit rate : 19.3 MbpsEncoded date : UTC 2015-11-02 19:47:04Writing application : mkvmerge v7.9.0 ('Birds') 64bitWriting library : libebml v1.3.1 + libmatroska v1.4.2

VideoID : 1Format : AVCFormat/Info : Advanced Video CodecFormat profile : [email protected] settings, CABAC : YesFormat settings, ReFrames : 4 framesCodec ID : V_MPEG4/ISO/AVCDuration : 2h 11mnBit rate : 17.9 MbpsWidth : 1 920 pixelsHeight : 804 pixelsDisplay aspect ratio : 2.40:1Frame rate : 23.976 fpsColor space : YUVChroma subsampling : 4:2:0Bit depth : 8 bitsScan type : ProgressiveBits/(Pixel*Frame) : 0.482Stream size : 16.4 GiB (93%)Title : Mission Impossible Rogue Nation 2015Writing library : x264 core 142 r2431+42 c69a006 tMod [[email protected]:2:0 X86_64]Encoding settings : cabac=1 / ref=4 / deblock=1:-3:-3 / analyse=0x3:0x113 / me=umh / subme=11 / psy=1 / fade_compensate=0.00 / psy_rd=1.00:0.05 / mixed_ref=1 / me_range=48 / chroma_me=1 / trellis=2 / 8x8dct=1 / cqm=0 / deadzone=21,11 / fast_pskip=0 / chroma_qp_offset=-2 / threads=12 / lookahead_threads=2 / sliced_threads=0 / nr=0 / decimate=1 / interlaced=0 / bluray_compat=0 / constrained_intra=0 / fgo=0 / bframes=8 / b_pyramid=2 / b_adapt=2 / b_bias=0 / direct=3 / weightb=1 / open_gop=0 / weightp=2 / keyint=250 / keyint_min=23 / scenecut=40 / intra_refresh=0 / rc_lookahead=40 / rc=crf / mbtree=0 / crf=18.0000 / qcomp=0.60 / qpmin=0:0:0 / qpmax=69:69:69 / qpstep=4 / vbv_maxrate=50000 / vbv_bufsize=45000 / crf_max=0.0 / nal_hrd=none / filler=0 / ip_ratio=1.40 / pb_ratio=1.30 / aq=3:1.00 / aq-sensitivity=10.00 / aq-factor=1.00:1.00:1.00 / aq2=0 / aq3=0Language : EnglishDefault : YesForced : NoMatrix coefficients : BT.709-5, BT.1361, IEC 61966-2-4 709, SMPTE RP177

Audio #1ID : 2Format : AC-3Format/Info : Audio Coding 3Mode extension : CM (complete main)Codec ID : A_AC3Duration : 2h 11mnBit rate mode : ConstantBit rate : 384 KbpsChannel(s) : 6 channelsChannel positions : Front: L C R, Side: L R, LFESampling rate : 48.0 KHzBit depth : 16 bitsCompression mode : LossyStream size : 361 MiB (2%)Language : RussianDefault : YesForced : No

Audio #2ID : 3Format : AC-3Format/Info : Audio Coding 3Mode extension : CM (complete main)Codec ID : A_AC3Duration : 2h 11mnBit rate mode : ConstantBit rate : 640 KbpsChannel(s) : 6 channelsChannel positions : Front: L C R, Side: L R, LFESampling rate : 48.0 KHzBit depth : 16 bitsCompression mode : LossyStream size : 602 MiB (3%)Title : English AC3 5.1 640KbpsLanguage : EnglishDefault : NoForced : No

TextID : 4Format : UTF-8Codec ID : S_TEXT/UTF8Codec ID/Info : UTF-8 Plain TextLanguage : EnglishDefault : YesForced : No

Menu00:00:00.000 : en:00:00:00.00000:09:53.092 : en:00:09:53.09200:20:45.703 : en:00:20:45.70300:25:32.072 : en:00:25:32.07200:32:00.669 : en:00:32:00.66900:40:03.443 : en:00:40:03.44300:49:35.556 : en:00:49:35.55601:01:01.157 : en:01:01:01.15701:09:51.687 : en:01:09:51.68701:20:20.858 : en:01:20:20.85801:29:29.322 : en:01:29:29.32201:38:32.824 : en:01:38:32.82401:48:19.410 : en:01:48:19.41001:57:13.944 : en:01:57:13.94402:03:02.709 : en:02:03:02.709

piratbit.ru

Племя изгоев через торрент в хорошем качестве бесплатно BDRip-AVC от sokol_ok

ОбщееУникальный идентификатор : 190602534439208573627286014785411974180 (0x8F64B67DAEA019E68D0C625F03098424)Полное имя : N:\Rips\MISSION_IMPOSSIBLE_ROGUE_NATION\Mission.Impossible.Rogue.Nation.2015.BDRip-AVC.Dub.2.18Gb...stalkerok.new-team.mkvФормат : MatroskaРазмер файла : 2,17 ГбайтПродолжительность : 2 ч. 11 м.Общий поток : 2357 Кбит/секНазвание фильма : Mission: Impossible - Rogue Nation (2015) (New-Team) (Rip by Stalker oK)Дата кодирования : UTC 2015-11-21 10:09:36Программа кодирования : mkvmerge v7.9.0 ('Birds') 64bitБиблиотека кодирования : libebml v1.3.1 + libmatroska v1.4.2

ВидеоИдентификатор : 1Формат : AVCФормат/Информация : Advanced Video CodecПрофиль формата : [email protected]Параметр CABAC формата : ДаПараметр ReFrames формата : 12 кадрыПараметры GOP формата : M=14, N=44Идентификатор кодека : V_MPEG4/ISO/AVCПродолжительность : 2 ч. 11 м.Битрейт : 1476 Кбит/секШирина : 960 пикс.Высота : 402 пикс.Соотношение сторон : 2,35:1Частота кадров : 23,976 кадр/секЦветовое пространство : YUVПодвыборка цветности : 4:2:0Битовая глубина : 8 битТип развёртки : ПрогрессивнаяБит/(Пиксели*Кадры) : 0.160Размер потока : 1,30 Гбайт (60%)Заголовок : Mission: Impossible - Rogue Nation (2015) (New-Team) (Rip by Stalker oK)Библиотека кодирования : x264 core 146 r2538kMod 121396cНастройки программы : cabac=1 / ref=12 / deblock=1:-3:-3 / analyse=0x3:0x133 / me=umh / subme=11 / psy=1 / fade_compensate=0.00 / psy_rd=1.00:0.10 / mixed_ref=1 / me_range=48 / chroma_me=1 / trellis=2 / 8x8dct=1 / cqm=0 / deadzone=21,11 / fast_pskip=0 / chroma_qp_offset=-3 / threads=12 / lookahead_threads=3 / sliced_threads=0 / nr=0 / decimate=0 / interlaced=0 / bluray_compat=0 / constrained_intra=0 / fgo=0 / bframes=13 / b_pyramid=2 / b_adapt=2 / b_bias=0 / direct=3 / weightb=1 / open_gop=0 / weightp=2 / keyint=240 / keyint_min=23 / scenecut=40 / intra_refresh=0 / rc_lookahead=60 / rc=2pass / mbtree=0 / bitrate=1476 / ratetol=1.0 / qcomp=0.70 / qpmin=0 / qpmax=69 / qpstep=4 / cplxblur=20.0 / qblur=0.5 / vbv_maxrate=50000 / vbv_bufsize=62500 / nal_hrd=none / filler=0 / ip_ratio=1.40 / pb_ratio=1.30 / aq=3:0.90

Аудио #1Идентификатор : 2Формат : AC-3Формат/Информация : Audio Coding 3Расширение режима : CM (complete main)Идентификатор кодека : A_AC3Продолжительность : 2 ч. 11 м.Вид битрейта : ПостоянныйБитрейт : 448 Кбит/секКанал(ы) : 6 канала(ов)Расположение каналов : Front: L C R, Side: L R, LFEЧастота : 48,0 КГцБитовая глубина : 16 битМетод сжатия : С потерямиРазмер потока : 422 Мбайт (19%)Язык : Russian

Аудио #2Идентификатор : 3Формат : AC-3Формат/Информация : Audio Coding 3Расширение режима : CM (complete main)Идентификатор кодека : A_AC3Продолжительность : 2 ч. 11 м.Вид битрейта : ПостоянныйБитрейт : 448 Кбит/секКанал(ы) : 6 канала(ов)Расположение каналов : Front: L C R, Side: L R, LFEЧастота : 48,0 КГцБитовая глубина : 16 битМетод сжатия : С потерямиРазмер потока : 422 Мбайт (19%)Язык : English

Текст #1Идентификатор : 4Формат : UTF-8Идентификатор кодека : S_TEXT/UTF8Идентификатор кодека/Информация : UTF-8 Plain TextЗаголовок : ForcedЯзык : Russian

Текст #2Идентификатор : 5Формат : UTF-8Идентификатор кодека : S_TEXT/UTF8Идентификатор кодека/Информация : UTF-8 Plain TextЗаголовок : FullЯзык : Russian

Текст #3Идентификатор : 6Формат : UTF-8Идентификатор кодека : S_TEXT/UTF8Идентификатор кодека/Информация : UTF-8 Plain TextЗаголовок : ForcedЯзык : English

Текст #4Идентификатор : 7Формат : UTF-8Идентификатор кодека : S_TEXT/UTF8Идентификатор кодека/Информация : UTF-8 Plain TextЯзык : English

Меню00:00:00.000 : en:Chapter 100:09:53.091 : en:Chapter 200:20:45.701 : en:Chapter 300:25:32.071 : en:Chapter 400:32:00.667 : en:Chapter 500:40:03.442 : en:Chapter 600:49:35.554 : en:Chapter 701:01:01.157 : en:Chapter 801:09:51.686 : en:Chapter 901:20:20.856 : en:Chapter 1001:29:29.322 : en:Chapter 1101:38:32.823 : en:Chapter 1201:48:19.408 : en:Chapter 1301:57:13.943 : en:Chapter 1402:03:02.707 : en:Chapter 15

piratbit.ru

Племя изгоев через торрент в хорошем качестве бесплатно BDRip от Twi7ter

Раздают: 2 [ 0 KB/s ]
Размер: 1.46 GB | Добавлен: 1 год 11 мес. назад | Торрент скачан:936 раз
Реклама Дарим 3000 рублей за регистрацию, не упусти свой шанс получить шикарный бонус!!!

18-11-2015 16:29 Миссия невыполнима: Племя изгоев Скачать торрент  

Миссия невыполнима: Племя изгоев / Mission: Impossible - Rogue Nation

«Go rogue»

Год выпуска: 2015Страна: США, Гонконг, КитайЖанр: боевик, триллер, приключенияПродолжительность: 02:11:33Перевод: Профессиональный (полное дублирование) [лицензия]Субтитры: русские (вшитые) на непереведенные диалогиРежиссер: Кристофер МакКуорри / Christopher McQuarrieВ ролях: Том Круз (Ethan Hunt), Ребекка Фергюсон (Ilsa Faust), Саймон Пегг (Benji Dunn), Джереми Реннер (William Brandt), Винг Реймз (Luther Stickell), Шон Харрис (Solomon Lane), Алек Болдуин (Alan Hunley), Саймон МакБерни (Atlee), Йенс Хультен (Janik Vinter), Том Холландер (Prime Minister), Чжан Цзинчу (Lauren), Матео Руфино (A400M Pilot #1)Описание: Когда ОМН распускают, и Итан Хант остается не у дел, его команда неожиданно сталкивается с разветвленной международной сетью высокопрофессиональных спецагентов - Синдикатом. Это «племя изгоев» одержимо идеей установления нового мирового порядка и планирует серию разрушительных терактов. Итан и компания объединяются с дискредитированным британским агентом Ильзой Фауст и приступают к своей самой невыполнимой миссии...Рейтинг:

MPAA: PG-13 - Детям до 13 лет просмотр не желателен

Качество: BDRip | исх. Mission.Impossible.Rogue.Nation.2015.1080p.BluRay.AVC.TrueHD.7.1.Atmos |Формат: AVIВидео кодек: XviDАудио кодек: AC3Видео: 720x304 (2.37:1), 23.976 fps, XviD build 73 ~1390 kbps avg, 0.27 bit/pixelАудио: 48 kHz, AC3 Dolby Digital, 2/0 (L,R) ch, ~192 kbps

Релиз: & MegaPeer

Скачать Миссия невыполнима: Племя изгоев через торрент http://s008.radikal.ru/i304/1511/a6/15da8751a9ad.png Скачать фильм Миссия невыполнима: Племя изгоев через торрент бесплантно в хорошем качестве Описание: Когда ОМН распускают, и Итан Хант остается не у дел, его команда неожиданно сталкивается с разветвленной международной сетью ... 2015-11-20 21:46 9.4 10 15

Loading...

Loading...

% Раздел Тема Автор DL S | L
Ultra HD (UHD: 2K, 4K, 8K) — видео сверхвысокой чёткости [ 16.07 GB ] Миссия невыполнима: Племя изгоев / Mission: Impossible - Rogue Nation [2015 UHD WEBRip 2160p] 2xDUB [] bober100 Скачать
Фильмы [HD 720p, 1080p] (Хороший звук DUB, MVO) [ 5.72 GB ] Миссия невыполнима: Племя изгоев / Mission: Impossible - Rogue Nation [2015 BDRip 720p] DUB potroks Скачать
Фильмы 2015 [DVDrip, WEB-DLRip, HDrip] [ 2.95 GB ] Миссия невыполнима: Племя изгоев / Mission: Impossible - Rogue Nation [2015 BDRip-AVC] DUB potroks Скачать
Фильмы 2015 [DVDrip, WEB-DLRip, HDrip] [ 2.17 GB ] Миссия невыполнима: Племя изгоев / Mission: Impossible - Rogue Nation [2015 Гонконг Китай BDRip-AVC от sokol_ok] DUB sokol_ok Скачать
Фильмы 2015 [DVDrip, WEB-DLRip, HDrip] [ 1.65 GB ] Миссия невыполнима: Племя изгоев / Mission: Impossible - Rogue Nation [2015 BDRip-AVC] DUB potroks Скачать
Фильмы 2015 [DVDrip, WEB-DLRip, HDrip] [ 1.46 GB ] Миссия невыполнима: Племя изгоев / Mission: Impossible - Rogue Nation [2015 Гонконг Китай BDRip-AVC от sokol_ok] DUB sokol_ok Скачать
Фильмы (Blu-ray, BD-Remux, HDDVD) [ 28.03 GB ] Миссия невыполнима: Племя изгоев / Mission: Impossible - Rogue Nation [2015 Blu-Ray Remux 1080p] killermax2013 Скачать

Рекламный пират

20-11-2015 22:01 Миссия невыполнима: Племя изгоев Скачать торрент  

замена на ЛИЦЕНЗИЮ!

23-01-2016 10:11 Миссия невыполнима: Племя изгоев Скачать торрент  

Фильм как обычно из серии космических рейнджеров, которые выполняют фантастические трюки и всех победят)))

Дорогой пользователь! Огромная просьба, поблагодарите релизера, оцените раздачу и оставьте свои комментарий, если Вы скачали Миссия невыполнима: Племя изгоев через торрент бесплатно! Внесите свою лепту в развитие PiratBit!

Комментировать посты могут только пользователи прошедшие не сложную регистрацию

Миссия невыполнима: Племя изгоев через торрент Скачать бесплатно Миссия невыполнима: Племя изгоев Миссия невыполнима: Племя изгоев скачать торрент Миссия невыполнима: Племя изгоев смотреть онлайн Cкачать фильм Миссия невыполнима: Племя изгоев бесплатно Миссия невыполнима: Племя изгоев скачать торрент в хорошем качестве Миссия невыполнима: Племя изгоев смотреть онлайн бесплатно в хорошем качестве

Вы не можете начинать темыВы не можете отвечать на сообщенияВы не можете редактировать свои сообщенияВы не можете удалять свои сообщенияВы не можете голосовать в опросахВы не можете прикреплять файлы к сообщениямВы можете скачивать файлы

piratbit.ru

Племя изгоев через торрент в хорошем качестве бесплатно 720p от potroks

GeneralUnique ID                   : 195185311776146081203916702982136206202 (0x92D752DBBCBA339B8D1137B55DB1137A)Complete name               : M.N.Plemya.Izgoyev.2015.DUAL.BDRip.720p.-HELLYWOOD.mkvFormat                      : MatroskaFormat version              : Version 4 / Version 2File size                   : 5.72 GiBDuration                    : 2h 11mnOverall bit rate            : 6 228 KbpsMovie name                  : Mission: Impossible - Rogue Nation (2015) - HELLYWOODEncoded date                : UTC 2010-02-22 21:41:31Writing application         : mkvmerge v5.8.0 ('No Sleep / Pillow') built on Sep 30 2012 10:57:14Writing library             : libebml v1.3.0 + libmatroska v1.4.0

VideoID                          : 1Format                      : AVCFormat/Info                 : Advanced Video CodecFormat profile              : [email protected] settings, CABAC      : YesFormat settings, ReFrames   : 9 framesCodec ID                    : V_MPEG4/ISO/AVCDuration                    : 2h 11mnBit rate                    : 4 948 KbpsWidth                       : 1 280 pixelsHeight                      : 536 pixelsDisplay aspect ratio        : 2.40:1Frame rate mode             : ConstantFrame rate                  : 23.976 fpsColor space                 : YUVChroma subsampling          : 4:2:0Bit depth                   : 8 bitsScan type                   : ProgressiveBits/(Pixel*Frame)          : 0.301Stream size                 : 4.43 GiB (77%)Title                       : potroksWriting library             : x264 core 148 r2638M 7599210Encoding settings           : cabac=1 / ref=9 / deblock=1:-3:-3 / analyse=0x3:0x133 / me=umh / subme=11 / psy=1 / psy_rd=1.00:0.00 / mixed_ref=1 / me_range=48 / chroma_me=1 / trellis=2 / 8x8dct=1 / cqm=0 / deadzone=21,11 / fast_pskip=0 / chroma_qp_offset=-2 / threads=10 / lookahead_threads=2 / sliced_threads=0 / nr=0 / decimate=1 / interlaced=0 / bluray_compat=0 / constrained_intra=0 / bframes=10 / b_pyramid=2 / b_adapt=2 / b_bias=0 / direct=3 / weightb=1 / open_gop=0 / weightp=2 / keyint=250 / keyint_min=23 / scenecut=40 / intra_refresh=0 / rc=2pass / mbtree=0 / bitrate=4948 / ratetol=1.0 / qcomp=0.70 / qpmin=0 / qpmax=69 / qpstep=4 / cplxblur=20.0 / qblur=0.5 / ip_ratio=1.40 / pb_ratio=1.30 / aq=1:0.80Language                    : EnglishDefault                     : YesForced                      : No

Audio #1ID                          : 2Format                      : AC-3Format/Info                 : Audio Coding 3Mode extension              : CM (complete main)Format settings, Endianness : BigCodec ID                    : A_AC3Duration                    : 2h 11mnBit rate mode               : ConstantBit rate                    : 640 KbpsChannel(s)                  : 6 channelsChannel positions           : Front: L C R, Side: L R, LFESampling rate               : 48.0 KHzCompression mode            : LossyStream size                 : 602 MiB (10%)Title                       : Dub | DD 5.1 @ 640 kbps - Blu-Ray CEELanguage                    : RussianDefault                     : YesForced                      : No

Audio #2ID                          : 3Format                      : AC-3Format/Info                 : Audio Coding 3Mode extension              : CM (complete main)Format settings, Endianness : BigCodec ID                    : A_AC3Duration                    : 2h 11mnBit rate mode               : ConstantBit rate                    : 640 KbpsChannel(s)                  : 6 channelsChannel positions           : Front: L C R, Side: L R, LFESampling rate               : 48.0 KHzCompression mode            : LossyStream size                 : 602 MiB (10%)Title                       : Original | DD 5.1 @ 640 kbpsLanguage                    : EnglishDefault                     : NoForced                      : No

Text #1ID                          : 4Format                      : UTF-8Codec ID                    : S_TEXT/UTF8Codec ID/Info               : UTF-8 Plain TextTitle                       : ForcedLanguage                    : RussianDefault                     : YesForced                      : No

Text #2ID                          : 5Format                      : UTF-8Codec ID                    : S_TEXT/UTF8Codec ID/Info               : UTF-8 Plain TextTitle                       : iTunesLanguage                    : RussianDefault                     : NoForced                      : No

Text #3ID                          : 6Format                      : UTF-8Codec ID                    : S_TEXT/UTF8Codec ID/Info               : UTF-8 Plain TextTitle                       : ForcedLanguage                    : EnglishDefault                     : NoForced                      : No

Text #4ID                          : 7Format                      : UTF-8Codec ID                    : S_TEXT/UTF8Codec ID/Info               : UTF-8 Plain TextTitle                       : FullLanguage                    : EnglishDefault                     : NoForced                      : No

Text #5ID                          : 8Format                      : UTF-8Codec ID                    : S_TEXT/UTF8Codec ID/Info               : UTF-8 Plain TextTitle                       : SDHLanguage                    : EnglishDefault                     : NoForced                      : No

Text #6ID                          : 9Format                      : UTF-8Codec ID                    : S_TEXT/UTF8Codec ID/Info               : UTF-8 Plain TextTitle                       : SDH-ColoredLanguage                    : EnglishDefault                     : NoForced                      : No

Menu00:00:00.000                : en:Chapter 100:09:53.091                : en:Chapter 200:20:45.701                : en:Chapter 300:25:32.071                : en:Chapter 400:32:00.667                : en:Chapter 500:40:03.442                : en:Chapter 600:49:35.554                : en:Chapter 701:01:01.157                : en:Chapter 801:09:51.686                : en:Chapter 901:20:20.856                : en:Chapter 1001:29:29.322                : en:Chapter 1101:38:32.823                : en:Chapter 1201:48:19.408                : en:Chapter 1301:57:13.943                : en:Chapter 1402:03:02.707                : en:Chapter 15

piratbit.ru


Смотрите также