Скачать бесплатно фильм король лев в хорошем качестве через торрент


Скачать фильм Король Лев через торрент в хорошем качестве бесплатно BDRip

Размер: 745 MB | Добавлен: 1 год 10 мес. назад | Торрент скачан:272 раза
Реклама Дарим 3000 рублей за регистрацию, не упусти свой шанс получить шикарный бонус!!!

09-12-2015 13:28 Король Лев Скачать торрент  

Король Лев / The Lion King ««The Circle of Life»» ИНФОРМАЦИЯ: Год выпуска:1994 Страна: США Жанр: мультфильм, мюзикл, драма, приключения, семейный Продолжительность: 01:28:23 Перевод: Дубляж Режиссер: Роджер Аллерс, Роб МинкоффВ Ролях: Мэттью Бродерик (Adult Simba, озвучка), Джереми Айронс (Scar, озвучка), Нэйтан Лейн (Timon, озвучка), Эрни Сабелла (Pumbaa, озвучка), Джеймс Эрл Джонс (Mufasa, озвучка), Мойра Келли (Adult Nala, озвучка), Роуэн Эткинсон (Zazu, озвучка), Вупи Голдберг (Shenzi, озвучка), Чич Марин (Banzai, озвучка), Джонатан Тейлор Томас (Young Simba, озвучка), Джим Каммингс (Ed, озвучка), Никета Калам (Young Nala, озвучка)Описание: У величественного Короля-Льва Муфасы рождается наследник по имени Симба. Уже в детстве любознательный малыш становится жертвой интриг своего завистливого дяди Шрама, мечтающего о власти.Симба познаёт горе утраты, предательство и изгнание, но в конце концов обретает верных друзей и находит любимую. Закалённый испытаниями, он в нелёгкой борьбе отвоёвывает своё законное место в «Круге жизни», осознав, что значит быть настоящим Королём.
  • Мировая премьера:15 июня 1994 ТЕХ.ДАННЫЕ: Качество: BDRip Формат: AVI Видео: XviD, 656x368 (16:9), 1041 kbps, 23,976 fps, 0,180 bpp Аудио: MP3 / 2.0 / 48 kHz / 128 kbps /GeneralComplete name : D:\Торенты\Раздачи\Korol Lev (745).aviFormat : AVIFormat/Info : Audio Video InterleaveFile size : 745 MiBDuration : 1h 28mnOverall bit rate : 1 179 KbpsWriting application : VirtualDubMod 1.5.10.3 | www.virtualdub-fr.org || (build 2550/release)Writing library : VirtualDubMod build 2550/release

    VideoID : 0Format : MPEG-4 VisualFormat profile : Advanced [email protected] settings, BVOP : 2Format settings, QPel : NoFormat settings, GMC : No warppointsFormat settings, Matrix : CustomCodec ID : XVIDCodec ID/Hint : XviDDuration : 1h 28mnBit rate : 1 042 KbpsWidth : 656 pixelsHeight : 368 pixelsDisplay aspect ratio : 16:9Frame rate : 23.976 fpsColor space : YUVChroma subsampling : 4:2:0Bit depth : 8 bitsScan type : ProgressiveCompression mode : LossyBits/(Pixel*Frame) : 0.180Stream size : 659 MiB (88%)Writing library : XviD 65

    AudioID : 1Format : MPEG AudioFormat version : Version 1Format profile : Layer 3Codec ID : 55Codec ID/Hint : MP3Duration : 1h 28mnBit rate mode : ConstantBit rate : 128 KbpsChannel(s) : 2 channelsSampling rate : 48.0 KHzCompression mode : LossyStream size : 80.9 MiB (11%)Alignment : Aligned on interleavesInterleave, duration : 42 ms (1.00 video frame)Interleave, preload duration : 504 msWriting library : LAME3.99rEncoding settings : -m s -V 4 -q 2 -lowpass 17 -b 128

    Скриншоты: © Оформление by .::Ворон::.
  • Скачать Король Лев через торрент http://pic.pb.wtf/images/6/ordi9.jpg Скачать фильм Король Лев через торрент бесплантно в хорошем качестве Описание: У величественного Короля-Льва Муфасы рождается наследник по имени Симба. Уже в детстве любознательный малыш становится жертвой ... 2015-12-09 13:28 9.8 10 13

    Loading...

    Loading...

    Рекламный пират

    15-03-2016 11:12 Король Лев Скачать торрент  

    Спасибо очень хороший мультфильм !

    Дорогой пользователь! Огромная просьба, поблагодарите релизера, оцените раздачу и оставьте свои комментарий, если Вы скачали Король Лев через торрент бесплатно! Внесите свою лепту в развитие PiratBit!

    Комментировать посты могут только пользователи прошедшие не сложную регистрацию

    Король Лев через торрент Скачать бесплатно Король Лев Король Лев скачать торрент Король Лев смотреть онлайн Cкачать фильм Король Лев бесплатно Король Лев скачать торрент в хорошем качестве Король Лев смотреть онлайн бесплатно в хорошем качестве

    Вы не можете начинать темыВы не можете отвечать на сообщенияВы не можете редактировать свои сообщенияВы не можете удалять свои сообщенияВы не можете голосовать в опросахВы не можете прикреплять файлы к сообщениямВы можете скачивать файлы

    piratbit.ru

    Скачать фильм Король Лев через торрент в хорошем качестве бесплатно HDRip-AVC

    Размер: 4.34 GB | Добавлен: 5 лет 5 мес. назад | Торрент скачан:992 раза
    Реклама Дарим 3000 рублей за регистрацию, не упусти свой шанс получить шикарный бонус!!!

    21-05-2012 02:45 Король Лев Скачать торрент  

    Король Лев (Трилогия) / The Lion King (Trilogy) Король Лев / The Lion King«The Circle of Life»

    Год выпуска: 1994Страна: СШАЖанр: мультфильм, мюзикл, драма, комедия, приключения, семейныйПродолжительность: 01:28:23Перевод: Профессиональный (полное дублирование)

    Режиссер: Роджер Аллерс, Роб Минкофф

    В ролях: Джереми Айронс, Мэттью Бродерик, Натан Лейн, Эрни Сабелла, Джеймс Эрл Джонс, Мойра Келли, Роуэн Эткинсон, Вупи Голдберг, Чич Марин, Джонатан Тейлор Томас

    Описание: У величественного Короля-Льва Муфасы рождается наследник по имени Симба. Уже в детстве любознательный малыш становится жертвой интриг своего завистливого дяди Шрама, мечтающего о власти.

    Симба познаёт горе утраты, предательство и изгнание, но в конце концов обретает верных друзей и находит любимую. Закалённый испытаниями, он в нелёгкой борьбе отвоёвывает своё законное место в «Круге жизни», осознав, что значит быть настоящим Королём.

    |

    Качество: HDRip-AVC (Rip by Demonessa)Исходник: BDRip 1080pФормат: MKVВидео кодек: H.264Аудио кодек: AC3Видео: H.264, 1024*576, 23,976 кадр/сек, 1960 Кбит/сек, 0.139 Бит/(Пиксели*Кадры)Аудио: AC3, 384 Кбит/сек, 6 каналов, 48,0 КГц

    Король Лев 2: Гордость Симбы / The Lion King II: Simba's Pride«The Circle of Life Continues...»

    Год выпуска: 1998Страна: США, АвстралияЖанр: мультфильм, мюзикл, драма, комедия, приключения, семейныйПродолжительность: 01:20:49Перевод: Профессиональный (полное дублирование)

    Режиссер: Даррел Руни, Роб ЛаДука

    В ролях: Мэттью Бродерик, Нив Кэмпбелл, Энди Дик, Роберт Гийом, Джеймс Эрл Джонс, Мойра Келли, Натан Лейн, Джейсон Мэрсден, Сюзанн Плешетт, Эрни Сабелла

    Описание: Много времени утекло с тех пор, как лев Симба сверг своего злого дядю Шрама и вернул трон короля саванны. У него и королевы Налы уже подрастает дочь — принцесса Киара.

    Однако порученная легкомысленным заботам наших старых знакомых Тимона и Пумбы, проказливая и непослушная Киара пока никак не похожа на будущую королеву. Однажды сбежав в Запретную Землю, она встречает там львенка Кову, который становится ее лучшим другом.

    Да только принцесса не знает, что эта дружба может стоить ей короны! Кову — наследник Шрама, и пусть он не пошел в старого интригана, его мать Зира спит и видит, как бы усадить сына на трон.

    И чем прочнее дружба между Киарой и Кову, тем гуще тучи над племенем Симбы…

    |

    Качество: HDRip-AVC (Rip by Demonessa)Исходник: BDRip 1080pФормат: MKVВидео кодек: H.264Аудио кодек: AC3Видео: H.264, 1024*576, 23,976 кадр/сек, 2180 Кбит/сек, 0.154 Бит/(Пиксели*Кадры)Аудио: AC3, 384 Кбит/сек, 6 каналов, 48,0 КГц

    Король Лев 3: Акуна Матата / The Lion King 1½«You don't know the ½ of it!»

    Год выпуска: 2004Страна: США, АвстралияЖанр: мультфильм, мюзикл, драма, комедия, приключения, семейныйПродолжительность: 01:16:14Перевод: Профессиональный (полное дублирование)

    Режиссер: Брэдли Рэймонд

    В ролях: Натан Лейн, Эрни Сабелла, Джули Кавнер, Джерри Стиллер, Мэттью Бродерик, Роберт Гийом, Мойра Келли, Вупи Голдберг, Чич Марин, Джим Каммингс

    Описание: Главными героями мультфильма станут всеобщие любимцы Тимон и Пумба! Вы узнаете об этих закадычных друзьях много нового, например, о том, как они впервые встретились, что за потрясающие приключения вместе прожили и на какие удивительные подвиги их сподвигло знаменитое знакомство с будущем королем саванны Симбой.

    А также познакомитесь с новыми забавными героями, которые точно не дадут вам скучать — заботливой мамочкой Тимона и его ужасно саркастичным дядей Максом! Скучно не будет!

    |

    Качество: HDRip-AVC (Rip by Demonessa)Исходник: BDRip 1080pФормат: MKVВидео кодек: H.264Аудио кодек: AC3Видео: H.264, 980*576, 23,976 кадр/сек, 2335 Кбит/сек, 0.173 Бит/(Пиксели*Кадры)Аудио: AC3, 384 Кбит/сек, 6 каналов, 48,0 КГц

    Скачать Король Лев через торрент http://s002.youpic.su/pictures/1337544000/9c71592e82d8c20a8a59ae63a12b4a7c.png Скачать фильм Король Лев через торрент бесплантно в хорошем качестве Описание: У величественного Короля-Льва Муфасы рождается наследник по имени Симба. Уже в детстве любознательный малыш становится жертвой ... 2012-05-21 20:07 10 10 29

    Loading...

    Loading...

    Последний раз редактировалось: Demonessa (2013-01-25 22:21), всего редактировалось 11 раз(а)

    Рекламный пират

    21-05-2012 02:52 Король Лев Скачать торрент  

    Обратите внимание!в раздаче пока только первая часть будущей трилогии этого замечательного мультфильма. По мере готовности рипов буду обновлять раздачу.

    21-05-2012 06:37 Король Лев Скачать торрент  

    спасибо жду остальные части

    21-05-2012 09:34 Король Лев Скачать торрент  

    спасибо,будем ждать продолжение

    21-05-2012 09:47 Король Лев Скачать торрент  

    Раздача обновлена!Добавлена вторая частьКороль Лев 2: Гордость Симбы / The Lion King II: Simba's Prideперекачайте торрент файл

    21-05-2012 10:40 Король Лев Скачать торрент  

    21-05-2012 11:05 Король Лев Скачать торрент  

    почему трилогия? их тут две части

    21-05-2012 12:18 Король Лев Скачать торрент  

    akcent7а посты ниже прочитать неинтересно? специально же написаланемного терпения и будет третья часть готова?

    21-05-2012 20:11 Король Лев Скачать торрент  

    Раздача обновлена!Добавлена третья часть ТрилогииКороль Лев 3: Акуна Матата / The Lion King 1½перекачайте торрент файл

    Pекламный агент PB

    22-05-2012 15:31 Король Лев Скачать торрент  

    Еще бы скорости....а то 20 кб\с несерьезно...

    23-05-2013 15:17 Король Лев Скачать торрент  

    Большое спасибо, был мой любимый мультик в детстве, очень любил его, хочу снова посмотреть, ностальгия трогает :)

    Дорогой пользователь! Огромная просьба, поблагодарите релизера, оцените раздачу и оставьте свои комментарий, если Вы скачали Король Лев через торрент бесплатно! Внесите свою лепту в развитие PiratBit!

    Комментировать посты могут только пользователи прошедшие не сложную регистрацию

    Король Лев через торрент Скачать бесплатно Король Лев Король Лев скачать торрент Король Лев смотреть онлайн Cкачать фильм Король Лев бесплатно Король Лев скачать торрент в хорошем качестве Король Лев смотреть онлайн бесплатно в хорошем качестве

    Вы не можете начинать темыВы не можете отвечать на сообщенияВы не можете редактировать свои сообщенияВы не можете удалять свои сообщенияВы не можете голосовать в опросахВы не можете прикреплять файлы к сообщениямВы можете скачивать файлы

    piratbit.ru

    Скачать фильм Король Лев через торрент в хорошем качестве бесплатно HDRip

    Размер: 1.37 GB | Добавлен: 6 лет 1 мес. назад | Торрент скачан:2374 раза
    Реклама Дарим 3000 рублей за регистрацию, не упусти свой шанс получить шикарный бонус!!!

    30-08-2011 15:37 Король Лев Скачать торрент  

    Король Лев / Lion King, TheГод выпуска: 1994Страна: СШАЖанр: мультфильм, мюзикл, драма, комедия, приключения, семейныйПродолжительность: 89 мин.Перевод: Профессиональный (полное дублирование) [Лицензия]

    Режиссер: Роджер Аллерс, Роб МинкоффПродюссер: Дон Хан, Элис Дьюи, Сара МакАртурСценарий: Ирен Меччи, Гари Труздейл, Джим Капобьянко

    Бюджет: $45 000 000

    G

    -Нет возрастных ограниченийМировой рейтинг IMDB 8.30 (179 791)

    В ролях: Джереми Айронс, Мэттью Бродерик, Натан Лейн, Эрни Сабелла, Джеймс Эрл Джонс, Мойра Келли, Роуэн Эткинсон, Вупи Голдберг, Чич Марин, Джонатан Тейлор Том

    Описание: У величественного Короля-Льва Муфасы рождается наследник по имени Симба. Уже в детстве любознательный малыш становится жертвой интриг своего завистливого дяди Шрама, мечтающего о власти.Симба познаёт горе утраты, предательство и изгнание, но в конце концов обретает верных друзей и находит любимую. Закалённый испытаниями, он в нелёгкой борьбе отвоёвывает своё законное место в «Круге жизни», осознав, что значит быть настоящим Королём.

    Качество: HDRipФормат: AVIВидео кодек: XviDАудио кодек: AC3Видео: 1818 kb/s, 720x400Аудио: 384 kb/s (6 ch)

    Релиз от:          Скачать Король Лев через торрент http://i27.fastpic.ru/big/2011/0830/1e/68a05634f045cd8c7a5f128005e6d31e.png Скачать фильм Король Лев через торрент бесплантно в хорошем качестве Описание: У величественного Короля-Льва Муфасы рождается наследник по имени Симба. Уже в детстве любознательный малыш становится жертвой ... 2011-08-30 15:37 10 10 21

    Loading...

    Loading...

    Рекламный пират

    31-08-2011 17:22 Король Лев Скачать торрент  

    Хороший мультик,маленьким детям рекомендую)))

    10-03-2012 21:17 Король Лев Скачать торрент  

    А мы вот с женой решили посмотреть)) детство вспомнить. Мультик изумительный, добрый, по настоящему детский.Огромное спасибо за раздачу!!! )))

    14-04-2012 16:45 Король Лев Скачать торрент  

    Спасибо большое, тоже решила пересмотреть Диснеевские мультфильмы_))

    Дорогой пользователь! Огромная просьба, поблагодарите релизера, оцените раздачу и оставьте свои комментарий, если Вы скачали Король Лев через торрент бесплатно! Внесите свою лепту в развитие PiratBit!

    Комментировать посты могут только пользователи прошедшие не сложную регистрацию

    Король Лев через торрент Скачать бесплатно Король Лев Король Лев скачать торрент Король Лев смотреть онлайн Cкачать фильм Король Лев бесплатно Король Лев скачать торрент в хорошем качестве Король Лев смотреть онлайн бесплатно в хорошем качестве

    Вы не можете начинать темыВы не можете отвечать на сообщенияВы не можете редактировать свои сообщенияВы не можете удалять свои сообщенияВы не можете голосовать в опросахВы не можете прикреплять файлы к сообщениямВы можете скачивать файлы

    piratbit.ru

    Скачать фильм Король Лев через торрент в хорошем качестве бесплатно 1080p)

    Формат : MatroskaВерсия формата : Version 1Размер файла : 10,8 ГбайтПродолжительность : 1 ч. 28 м.Общий поток : 17,5 Мбит/секНазвание фильма : The Lion King (1994) - Release for HDCLUBДата кодирования : UTC 2011-09-03 12:48:20Программа кодирования : mkvmerge v2.1.0 ('Another Place To Fall') built on Aug 19 2007 13:40:07Библиотека кодирования : libebml v0.7.7 + libmatroska v0.8.1

    ВидеоИдентификатор : 1Формат : AVCФормат/Информация : Advanced Video CodecПрофиль формата : [email protected]Параметр CABAC формата : ДаПараметр ReFrames формата : 4 кадраИдентификатор кодека : V_MPEG4/ISO/AVCПродолжительность : 1 ч. 28 м.Битрейт : 8500 Кбит/секШирина : 1920 пикселейВысота : 1080 пикселейСоотношение сторон : 16:9Частота кадров : 23,976 кадра/секЦветовое пространство : YUVСубдискретизация насыщенности : 4:2:0Битовая глубина : 8 битТип развёртки : ПрогрессивнаяБит/(Пиксели*Кадры) : 0.171Размер потока : 5,04 Гбайт (47%)Заголовок : The Lion King (1994) - Release for HDCLUBБиблиотека кодирования : x264 core 116 r2057 0ba8a9cНастройки программы : cabac=1 / ref=4 / deblock=1:-3:-3 / analyse=0x3:0x133 / me=umh / subme=11 / psy=1 / psy_rd=0.90:0.00 / mixed_ref=1 / me_range=32 / chroma_me=1 / trellis=2 / 8x8dct=1 / cqm=0 / deadzone=21,11 / fast_pskip=0 / chroma_qp_offset=-2 / threads=12 / sliced_threads=0 / nr=0 / decimate=0 / interlaced=0 / bluray_compat=0 / constrained_intra=0 / bframes=7 / b_pyramid=2 / b_adapt=2 / b_bias=0 / direct=3 / weightb=1 / open_gop=0 / weightp=2 / keyint=250 / keyint_min=23 / scenecut=40 / intra_refresh=0 / rc_lookahead=40 / rc=2pass / mbtree=1 / bitrate=8500 / ratetol=1.0 / qcomp=0.60 / qpmin=0 / qpmax=69 / qpstep=4 / cplxblur=20.0 / qblur=0.5 / ip_ratio=1.40 / aq=2:0.80Язык : EnglishDefault : ДаForced : Нет

    Аудио #1Идентификатор : 2Формат : AC-3Формат/Информация : Audio Coding 3Расширение режима : CM (complete main)Параметр Endianness формата : BigИдентификатор кодека : A_AC3Продолжительность : 1 ч. 28 м.Вид битрейта : ПостоянныйБитрейт : 384 Кбит/секКаналы : 6 каналовРасположение каналов : Front: L C R, Side: L R, LFEЧастота : 48,0 КГцБитовая глубина : 16 битМетод сжатия : С потерямиРазмер потока : 243 Мбайт (2%)Заголовок : AC3 5.1ch 384 kbps - ДубляжЯзык : RussianDefault : ДаForced : Нет

    Аудио #2Идентификатор : 3Формат : AC-3Формат/Информация : Audio Coding 3Расширение режима : CM (complete main)Параметр Endianness формата : BigИдентификатор кодека : A_AC3Продолжительность : 1 ч. 28 м.Вид битрейта : ПостоянныйБитрейт : 224 Кбит/секКаналы : 2 каналаРасположение каналов : Front: L RЧастота : 48,0 КГцБитовая глубина : 16 битМетод сжатия : С потерямиРазмер потока : 142 Мбайт (1%)Заголовок : AC3 2.0ch 224 kbps - Одноголосый, А.Гаврилов (поздний)Язык : RussianDefault : НетForced : Нет

    Аудио #3Идентификатор : 4Формат : AC-3Формат/Информация : Audio Coding 3Расширение режима : CM (complete main)Параметр Endianness формата : BigИдентификатор кодека : A_AC3Продолжительность : 1 ч. 28 м.Вид битрейта : ПостоянныйБитрейт : 224 Кбит/секКаналы : 2 каналаРасположение каналов : Front: L RЧастота : 48,0 КГцБитовая глубина : 16 битМетод сжатия : С потерямиРазмер потока : 142 Мбайт (1%)Заголовок : AC3 2.0ch 224 kbps - Одноголосый, С.КузнецовЯзык : RussianDefault : НетForced : Нет

    Аудио #4Идентификатор : 5Формат : AC-3Формат/Информация : Audio Coding 3Расширение режима : CM (complete main)Параметр Endianness формата : BigИдентификатор кодека : A_AC3Продолжительность : 1 ч. 28 м.Вид битрейта : ПостоянныйБитрейт : 224 Кбит/секКаналы : 2 каналаРасположение каналов : Front: L RЧастота : 48,0 КГцБитовая глубина : 16 битМетод сжатия : С потерямиРазмер потока : 142 Мбайт (1%)Заголовок : AC3 2.0ch 224 kbps - Одноголосый, А. КашкинЯзык : RussianDefault : НетForced : Нет

    Аудио #5Идентификатор : 6Формат : AC-3Формат/Информация : Audio Coding 3Расширение режима : CM (complete main)Параметр Endianness формата : BigИдентификатор кодека : A_AC3Продолжительность : 1 ч. 28 м.Вид битрейта : ПостоянныйБитрейт : 224 Кбит/секКаналы : 2 каналаРасположение каналов : Front: L RЧастота : 48,0 КГцБитовая глубина : 16 битМетод сжатия : С потерямиРазмер потока : 142 Мбайт (1%)Заголовок : AC3 2.0ch 224 kbps - Одноголосый, С.ВизгуновЯзык : RussianDefault : НетForced : Нет

    Аудио #6Идентификатор : 7Формат : DTSФормат/Информация : Digital Theater SystemsИдентификатор кодека : A_DTSПродолжительность : 1 ч. 28 м.Вид битрейта : ПостоянныйБитрейт : 1510 Кбит/секКаналы : 6 каналовРасположение каналов : Front: L C R, Side: L R, LFEЧастота : 48,0 КГцБитовая глубина : 24 битМетод сжатия : С потерямиРазмер потока : 955 Мбайт (9%)Заголовок : DTS 5.1ch 1510 kbps - Двухголосый, П.Гланц и Т.КазаковаЯзык : RussianDefault : НетForced : Нет

    Аудио #7Идентификатор : 8Формат : DTSФормат/Информация : Digital Theater SystemsИдентификатор кодека : A_DTSПродолжительность : 1 ч. 28 м.Вид битрейта : ПостоянныйБитрейт : 1510 Кбит/секКаналы : 6 каналовРасположение каналов : Front: L C R, Side: L R, LFEЧастота : 48,0 КГцБитовая глубина : 24 битМетод сжатия : С потерямиРазмер потока : 955 Мбайт (9%)Заголовок : DTS 5.1ch 1510 kbps - Одноголосый, Ю.ЖивовЯзык : RussianDefault : НетForced : Нет

    Аудио #8Идентификатор : 9Формат : DTSФормат/Информация : Digital Theater SystemsИдентификатор кодека : A_DTSПродолжительность : 1 ч. 28 м.Вид битрейта : ПостоянныйБитрейт : 1510 Кбит/секКаналы : 6 каналовРасположение каналов : Front: L C R, Side: L R, LFEЧастота : 48,0 КГцБитовая глубина : 24 битМетод сжатия : С потерямиРазмер потока : 955 Мбайт (9%)Заголовок : DTS 5.1ch 1510 kbps - Одноголосый, А.Гаврилов (ранний)Язык : RussianDefault : НетForced : Нет

    Аудио #9Идентификатор : 10Формат : DTSФормат/Информация : Digital Theater SystemsИдентификатор кодека : A_DTSПродолжительность : 1 ч. 28 м.Вид битрейта : ПостоянныйБитрейт : 1510 Кбит/секКаналы : 6 каналовРасположение каналов : Front: L C R, Side: L R, LFEЧастота : 48,0 КГцБитовая глубина : 24 битМетод сжатия : С потерямиРазмер потока : 955 Мбайт (9%)Заголовок : DTS 5.1ch 1510 kbps - Одноголосый, В.Яковлев (Самарский)Язык : RussianDefault : НетForced : Нет

    Аудио #10Идентификатор : 11Формат : DTSФормат/Информация : Digital Theater SystemsИдентификатор кодека : A_DTSПродолжительность : 1 ч. 28 м.Вид битрейта : ПостоянныйБитрейт : 1510 Кбит/секКаналы : 6 каналовРасположение каналов : Front: L C R, Side: L R, LFEЧастота : 48,0 КГцБитовая глубина : 24 битМетод сжатия : С потерямиРазмер потока : 955 Мбайт (9%)Заголовок : DTS 5.1ch 1510 kbpsЯзык : EnglishDefault : НетForced : Нет

    Аудио #11Идентификатор : 12Формат : AC-3Формат/Информация : Audio Coding 3Расширение режима : CM (complete main)Параметр Endianness формата : BigИдентификатор кодека : A_AC3Продолжительность : 1 ч. 28 м.Вид битрейта : ПостоянныйБитрейт : 192 Кбит/секКаналы : 2 каналаРасположение каналов : Front: L RЧастота : 48,0 КГцБитовая глубина : 16 битМетод сжатия : С потерямиРазмер потока : 121 Мбайт (1%)Заголовок : AC3 2.0ch 192 kbps - Commentary by Directors Rob Minkoff & Roger Allers and Producer Don HahnЯзык : EnglishDefault : НетForced : Нет

    Текст #1Идентификатор : 13Формат : UTF-8Идентификатор кодека : S_TEXT/UTF8Идентификатор кодека/Информация : UTF-8 Plain TextЗаголовок : RussianЯзык : RussianDefault : ДаForced : Нет

    Текст #2Идентификатор : 14Формат : UTF-8Идентификатор кодека : S_TEXT/UTF8Идентификатор кодека/Информация : UTF-8 Plain TextЗаголовок : Russian (песни)Язык : RussianDefault : НетForced : Нет

    Текст #3Идентификатор : 15Формат : UTF-8Идентификатор кодека : S_TEXT/UTF8Идентификатор кодека/Информация : UTF-8 Plain TextЗаголовок : EnglishЯзык : EnglishDefault : НетForced : Нет

    Текст #4Идентификатор : 16Формат : UTF-8Идентификатор кодека : S_TEXT/UTF8Идентификатор кодека/Информация : UTF-8 Plain TextЗаголовок : English (SDH)Язык : EnglishDefault : НетForced : Нет

    Текст #5Идентификатор : 17Формат : UTF-8Идентификатор кодека : S_TEXT/UTF8Идентификатор кодека/Информация : UTF-8 Plain TextЗаголовок : English (songs)Язык : EnglishDefault : НетForced : Нет

    Меню00:00:00.000 : :Chapter 0100:04:40.071 : :Chapter 0200:08:10.405 : :Chapter 0300:11:28.979 : :Chapter 0400:14:09.557 : :Chapter 0500:17:51.028 : :Chapter 0600:22:54.748 : :Chapter 0700:25:36.116 : :Chapter 0800:30:24.196 : :Chapter 0900:35:52.150 : :Chapter 1000:40:14.077 : :Chapter 1100:41:14.429 : :Chapter 1200:44:16.945 : :Chapter 1300:48:20.563 : :Chapter 1400:50:07.210 : :Chapter 1500:53:14.773 : :Chapter 1600:57:50.842 : :Chapter 1701:00:56.568 : :Chapter 1801:02:32.331 : :Chapter 1901:08:49.625 : :Chapter 2001:12:41.023 : :Chapter 2101:16:42.305 : :Chapter 2201:20:45.131 : :Chapter 2301:23:23.872 : :Chapter 2401:28:23.296 : :Chapter 25

    piratbit.ru


    Смотрите также