Скачать бесплатно фильм мерцающий через торрент в хорошем качестве


Скачать фильм Мерцающий (1996) через торрент

31 августа 2016 09:31 Мерцающий / The Glimmer Man (1996) WEB-DLRip от Deadmauvlad | D .torrent   [Информация о файле (нажмите для просмотра)] Перевод: ДублированныйМост-ВидеоКачество: WEB-DLRipВидео: 720x400 (1.80:1), 23.976 fps, XviD build 73 ~1897 kbps avg, 0.27 bit/pixelАудио: AC-3, 48.0 KHz, 6 ch, 384 Kbps, CBR (Russian) - дубляж (Мост-Видео) 1,46 Gb 12 3 31 августа 2016 09:31 Мерцающий / The Glimmer Man (1996) WEB-DL 720p от HDClub .torrent   [Информация о файле (нажмите для просмотра)] Перевод: Профессиональный (полное дублирование) iTunes RussiaФормат: MatroskaВидео: 1276x720 at 23.976 fps, MPEG-4 AVC, ~4000 kbps avgСубтитры: Russian (Forced, iTunes), Russian (iTunes) 2,93 Gb 3 1 31 августа 2016 09:31 Мерцающий / The Glimmer Man (1996) WEB-DLRip-AVC | D, A .torrent   [Информация о файле (нажмите для просмотра)] Перевод: Дублированный, авторский (одноголосый закадровый)Качество: WEB-DLRip-AVCВидео: AVC, 1024x576 (16:9), 23.976 fps, 2 292 Kbps (0.162 bit/pixel)Аудио #1: AC-3, 48.0 KHz, 6 ch, 384 Kbps, CBR (Russian) - дубляж (Мост-Видео)Аудио #2: AC-3, 48.0 KHz, 2 ch, 192 Kbps, CBR (Russian) - дубляж (Варус Видео)Аудио #3: AC-3, 48.0 KHz, 6 ch, 384 Kbps, CBR (Russian) - А.ГавриловАудио #4: AC-3, 48.0 KHz, 2 ch, 192 Kbps, CBR (Russian) - А.КашкинВидео: Идентификатор : 1 Формат : AVC Формат/Информация : Advanced Video Codec Профиль формата : [email protected] Параметр CABAC формата : Да Параметр ReFrames формата : 8 кадров Идентификатор кодека : V_MPEG4/ISO/AVC Продолжительность : 1 ч. 31 м. Битрейт : 2292 Кбит/сек Ширина : 1024 пикселя Высота : 576 пикселей Соотношение сторон : 16:9 Режим частоты кадров : Постоянный Частота кадров : 23,976 кадра/сек Цветовое пространство : YUV Субдискретизация насыщенности : 4:2:0 Битовая глубина : 8 бит Тип развёртки : Прогрессивная Бит/(Пиксели*Кадры) : 0.162 Размер потока : 1,41 Гбайт (64%) Библиотека кодирования : x264 core 142 r2431 ac76440 Настройки программы : cabac=1 / ref=8 / deblock=1:-2:-2 / analyse=0x3:0x133 / me=umh / subme=11 / psy=1 / psy_rd=1.00:0.00 / mixed_ref=1 / me_range=32 / chroma_me=1 / trellis=2 / 8x8dct=1 / cqm=0 / deadzone=21,11 / fast_pskip=1 / chroma_qp_offset=-2 / threads=12 / lookahead_threads=2 / sliced_threads=0 / nr=0 / decimate=1 / interlaced=0 / bluray_compat=0 / constrained_intra=0 / bframes=8 / b_pyramid=2 / b_adapt=2 / b_bias=0 / direct=3 / weightb=1 / open_gop=0 / weightp=2 / keyint=240 / keyint_min=23 / scenecut=40 / intra_refresh=0 / rc=2pass / mbtree=0 / bitrate=2292 / ratetol=1.0 / qcomp=0.60 / qpmin=0 / qpmax=69 / qpstep=4 / cplxblur=20.0 / qblur=0.5 / ip_ratio=1.40 / pb_ratio=1.30 / aq=1:1.00 Default : Да Forced : НетАудио #1: Идентификатор : 2 Формат : AC-3 Формат/Информация : Audio Coding 3 Расширение режима : CM (complete main) Параметр Endianness формата : Big Идентификатор кодека : A_AC3 Продолжительность : 1 ч. 31 м. Вид битрейта : Постоянный Битрейт : 384 Кбит/сек Каналы : 6 каналов Расположение каналов : Front: L C R, Side: L R, LFE Частота : 48,0 КГц Битовая глубина : 16 бит Метод сжатия : С потерями Задержка видео : 2 с. 200 мс. Размер потока : 252 Мбайт (11%) Заголовок : Дубляж №1 Язык : Russian Default : Да Forced : ДаАудио #2: Идентификатор : 3 Формат : AC-3 Формат/Информация : Audio Coding 3 Расширение режима : CM (complete main) Параметр Endianness формата : Big Идентификатор кодека : A_AC3 Продолжительность : 1 ч. 31 м. Вид битрейта : Постоянный Битрейт : 192 Кбит/сек Каналы : 2 канала Расположение каналов : Front: L R Частота : 48,0 КГц Битовая глубина : 16 бит Метод сжатия : С потерями Размер потока : 126 Мбайт (6%) Заголовок : Дубляж №2 Язык : Russian Default : Нет Forced : НетАудио #3: Идентификатор : 4 Формат : AC-3 Формат/Информация : Audio Coding 3 Расширение режима : CM (complete main) Параметр Endianness формата : Big Идентификатор кодека : A_AC3 Продолжительность : 1 ч. 31 м. Вид битрейта : Постоянный Битрейт : 384 Кбит/сек Каналы : 6 каналов Расположение каналов : Front: L C R, Side: L R, LFE Частота : 48,0 КГц Битовая глубина : 16 бит Метод сжатия : С потерями Размер потока : 252 Мбайт (11%) Заголовок : Авторский А.Гаврилов Язык : Russian Default : Нет Forced : НетАудио #4: Идентификатор : 5 Формат : AC-3 Формат/Информация : Audio Coding 3 Расширение режима : CM (complete main) Параметр Endianness формата : Big Идентификатор кодека : A_AC3 Продолжительность : 1 ч. 31 м. Вид битрейта : Постоянный Битрейт : 192 Кбит/сек Каналы : 2 канала Расположение каналов : Front: L R Частота : 48,0 КГц Битовая глубина : 16 бит Метод сжатия : С потерями Размер потока : 126 Мбайт (6%) Заголовок : Авторский Кашкин Язык : Russian Default : Нет Forced : НетСкриншоты 2,19 Gb 2 5 31 августа 2016 09:31 Мерцающий / The Glimmer Man (1996) WEB-DLRip от Leon-masl .torrent   [Информация о файле (нажмите для просмотра)] Перевод: Профессиональный (Дублированный) Варус ВидеоКодек: XviDКачество: WEB-DLRipВидео: 720x400, 23.976 fps, 2081 KbpsЗвук: АС3, 2 ch, 192 kbps, 48.000 kbpsВидео: Идентификатор : 0 Формат : MPEG-4 Visual Профиль формата : Advanced [email protected] Параметр BVOP формата : 1 Параметр QPel формата : Нет Параметр GMC формата : Без точки перехода Параметр матрицы формата : Выборочная Идентификатор кодека : XVID Идентификатор кодека/Подсказка : XviD Продолжительность : 1 ч. 31 м. Битрейт : 2081 Кбит/сек Ширина : 720 пикс. Высота : 400 пикс. Соотношение сторон : 16:9 Частота кадров : 23,976 кадр/сек Цветовое пространство : YUV Подвыборка цветности : 4:2:0 Битовая глубина : 8 бит Тип развёртки : Прогрессивная Метод сжатия : С потерями Бит/(Пиксели*Кадры) : 0.301 Размер потока : 1,33 Гбайт (91%) Библиотека кодирования : XviD 73Аудио: Идентификатор : 1 Формат : AC-3 Формат/Информация : Audio Coding 3 Расширение режима : CM (complete main) Идентификатор кодека : 2000 Продолжительность : 1 ч. 31 м. Вид битрейта : Постоянный Битрейт : 192 Кбит/сек Канал(ы) : 2 канала(ов) Расположение каналов : Front: L R Частота : 48,0 КГц Битовая глубина : 16 бит Метод сжатия : С потерями Размер потока : 125 Мбайт (8%) Выравнивание : Разделение по промежуткам Продолжительность промежутка : 42 мс. (1,00 видеокадр) Время предзагрузки промежутка : 500 msСкриншоты 1,46 Gb 3 1 31 августа 2016 09:31 Мерцающий / The Glimmer Man (1996) HDTVRip .torrent   [Информация о файле (нажмите для просмотра)] Перевод: ДублированныйКачество: HDTVRipВидео: Xvid, 656 x 368, 1003 Кбит/сАудио: MP3, 128 Кбит/с, 2 ch 744,75 Mb 3 2 31 августа 2016 09:31 Мерцающий / The Glimmer Man (1996) DVDRip от Lebanon .torrent   [Информация о файле (нажмите для просмотра)] Перевод: Профессиональный (полное дублирование)Кодек: XviDКачество: DVDRipВидео: 720x416, 24 fps, ~1934 кб/сЗвук: 48 kHz, AC3 Dolby Digital, 3/2 (L,C,R,l,r) + LFE ch, ~384 кб/с 1,43 Gb 3 3

gig-torrent.net

Мерцающий 1996 - скачать бесплатно через торрент в хорошем качестве. Без регистрации

Название: Мерцающий / The Glimmer Man (1996) WEB-DLRip от Deadmauvlad | D
Качество видео: WEB-DLRip
Перевод: Дублированный Мост-Видео
Видео: 720x400 (1.80:1), 23.976 fps, XviD build 73 ~1897 kbps avg, 0.27 bit/pixel
Аудио: AC-3, 48.0 KHz, 6 ch, 384 Kbps, CBR (Russian) - дубляж (Мост-Видео)
Скачать

Загрузка начнется в течение 5 сек.

1.46 GB

Название: Мерцающий / The Glimmer Man (1996) WEB-DL 720p от HDClub
Перевод: Профессиональный (полное дублирование) iTunes Russia
Формат видео: Matroska
Видео: 1276x720 at 23.976 fps, MPEG-4 AVC, ~4000 kbps avg
Скачать

Загрузка начнется в течение 5 сек.

2.93 GB

Название: Мерцающий / The Glimmer Man (1996) WEB-DLRip-AVC | D, A
Качество видео: WEB-DLRip-AVC
Перевод: Дублированный, авторский (одноголосый закадровый)
Видео: AVC, 1024x576 (16:9), 23.976 fps, 2 292 Kbps (0.162 bit/pixel)
Аудио: AC-3, 48.0 KHz, 6 ch, 384 Kbps, CBR (Russian) - дубляж (Мост-Видео)AC-3, 48.0 KHz, 2 ch, 192 Kbps, CBR (Russian) - дубляж (Варус Видео)AC-3, 48.0 KHz, 6 ch, 384 Kbps, CBR (Russian) - А.ГавриловAC-3, 48.0 KHz, 2 ch, 192 Kbps, CBR (Russian) - А.Кашкин
Скачать

Загрузка начнется в течение 5 сек.

2.19 GB

Название: Мерцающий / The Glimmer Man (1996) WEB-DLRip от Leon-masl
Качество видео: WEB-DLRip
Перевод: Профессиональный (Дублированный) Варус Видео
Видео: XviD 720x400, 23.976 fps, 2081 Kbps
Аудио: АС3, 2 ch, 192 kbps, 48.000 kbps
Скачать

Загрузка начнется в течение 5 сек.

1.46 GB

Название: Мерцающий / The Glimmer Man (1996) HDTVRip
Качество видео: HDTVRip
Перевод: Дублированный
Видео: Xvid, 656 x 368, 1003 Кбит/с
Аудио: MP3, 128 Кбит/с, 2 ch
Скачать

Загрузка начнется в течение 5 сек.

744.75 MB

Название: Мерцающий / The Glimmer Man (1996) DVDRip от Lebanon
Качество видео: DVDRip
Перевод: Профессиональный (полное дублирование)
Видео: XviD 720x416, 24 fps, ~1934 кб/с
Аудио: 48 kHz, AC3 Dolby Digital, 3/2 (L,C,R,l,r) + LFE ch, ~384 кб/с
Скачать

Загрузка начнется в течение 5 сек.

1.43 GB

www.kinovit.net

Сборник восхитительных мерцающих футажей скачать через торрент

Раздают: 1 [ 0 KB/s ]
Размер: 1.77 GB | Добавлен: 7 лет 8 мес. назад | Торрент скачан:975 раз
Реклама Дарим 3000 рублей за регистрацию, не упусти свой шанс получить шикарный бонус!!!

28-01-2010 21:24 Сборник восхитительных мерцающих футажей Скачать торрент  

ActionBacks - СПАМ Overlays (мерцающие футажи)

видео формат: DV PAL

Формат файлов: mov с альфа-каналом

Производитель. ActionBacks

Сайт производителя http://www.actionbacks.com/ СПАМ

Описание: Сборник восхитительных мерцающих футажей. Такими красивыми футажиками можно оформлять практически любое праздничное видео (Свадьба, Юбилей, День Рождения и т.п.). Рекомендуется всем иметь такой сборник в своей коллекции! 40 штук. Скачать Сборник восхитительных мерцающих футажей через торрент http://s004.radikal.ru/i206/1001/96/ee0f40beccfe.jpg Скачать фильм Сборник восхитительных мерцающих футажейчерез торрент бесплантно в хорошем качестве Описание: Сборник восхитительных мерцающих футажей. Такими красивыми футажиками можно оформлять практически любое праздничное видео ... 2010-01-28 21:24 9.7 10 3

Loading...

Loading...

Рекламный пират

01-04-2010 19:48 Сборник восхитительных мерцающих футажей Скачать торрент  

06-04-2010 20:56 Сборник восхитительных мерцающих футажей Скачать торрент  

плиз дайте скорости спс.

27-04-2011 15:19 Сборник восхитительных мерцающих футажей Скачать торрент  

31-07-2011 18:47 Сборник восхитительных мерцающих футажей Скачать торрент  

Ребята дайте скачать-закачка стоит!Спасибо!

16-08-2014 19:21 Сборник восхитительных мерцающих футажей Скачать торрент  

Дорогой пользователь! Огромная просьба, поблагодарите релизера, оцените раздачу и оставьте свои комментарий, если Вы скачали Сборник восхитительных мерцающих футажей через торрент бесплатно! Внесите свою лепту в развитие PiratBit!

Комментировать посты могут только пользователи прошедшие не сложную регистрацию

Сборник восхитительных мерцающих футажей через торрент Скачать бесплатно Сборник восхитительных мерцающих футажей Сборник восхитительных мерцающих футажей скачать торрент Сборник восхитительных мерцающих футажей смотреть онлайн Cкачать фильм Сборник восхитительных мерцающих футажей бесплатно Сборник восхитительных мерцающих футажей скачать торрент в хорошем качестве Сборник восхитительных мерцающих футажей смотреть онлайн бесплатно в хорошем качестве

Вы не можете начинать темыВы не можете отвечать на сообщенияВы не можете редактировать свои сообщенияВы не можете удалять свои сообщенияВы не можете голосовать в опросахВы не можете прикреплять файлы к сообщениямВы можете скачивать файлы

piratbit.ru

Скачать фильм Мерцающие огни через торрент в хорошем качестве бесплатно DVDRip-AVC

GeneralComplete name                            : D:\download\Мерцающие огни.Format                                   : MPEG-4Format profile                           : Base Media / Version 2Codec ID                                 : mp42File size                                : 1.36 GiBDuration                                 : 1h 47mnOverall bit rate mode                    : VariableOverall bit rate                         : 1 805 KbpsEncoded date                             : UTC 2011-01-06 19:02:32Tagged date                              : UTC 2011-01-06 21:39:20

VideoID                                       : 1Format                                   : AVCFormat/Info                              : Advanced Video CodecFormat profile                           : [email protected] settings, CABAC                   : YesFormat settings, ReFrames                : 2 framesCodec ID                                 : avc1Codec ID/Info                            : Advanced Video CodingDuration                                 : 1h 47mnBit rate mode                            : VariableBit rate                                 : 1 541 KbpsMaximum bit rate                         : 7 318 KbpsWidth                                    : 1 024 pixelsHeight                                   : 552 pixelsDisplay aspect ratio                     : 1.855Frame rate mode                          : ConstantFrame rate                               : 25.000 fpsStandard                                 : PALColor space                              : YUVChroma subsampling                       : 4:2:0Bit depth                                : 8 bitsScan type                                : ProgressiveBits/(Pixel*Frame)                       : 0.109Stream size                              : 1.16 GiB (85%)Encoded date                             : UTC 2011-01-06 19:02:32Tagged date                              : UTC 2011-01-06 21:39:20

AudioID                                       : 2Format                                   : AACFormat/Info                              : Advanced Audio CodecFormat profile                           : HE-AACv2 / HE-AAC / LCCodec ID                                 : 40Duration                                 : 1h 47mnBit rate mode                            : VariableBit rate                                 : 265 KbpsMaximum bit rate                         : 349 KbpsChannel(s)                               : 2 channels / 6 channels / 6 channelsChannel positions                        : Front: L R / Front: L C R, Side: L R, LFE / Front: L C R, Side: L R, LFESampling rate                            : 48.0 KHz / 48.0 KHz / 24.0 KHzCompression mode                         : LossyStream size                              : 200 MiB (14%)Encoded date                             : UTC 2011-01-06 19:02:32Tagged date                              : UTC 2011-01-06 21:39:20

Menu00:00:00.000                             : Раздел 100:01:42.960                             : Раздел 200:05:46.840                             : Раздел 300:09:17.440                             : Раздел 400:10:46.360                             : Раздел 500:16:37.880                             : Раздел 600:20:36.560                             : Раздел 700:26:11.960                             : Раздел 800:31:09.400                             : Раздел 900:35:08.600                             : Раздел 1000:39:58.760                             : Раздел 1100:45:35.200                             : Раздел 1200:49:22.960                             : Раздел 1300:52:03.120                             : Раздел 1400:56:49.640                             : Раздел 1501:02:10.480                             : Раздел 1601:06:06.040                             : Раздел 1701:10:13.040                             : Раздел 1801:16:31.080                             : Раздел 1901:21:10.840                             : Раздел 2001:26:37.920                             : Раздел 2101:31:48.880                             : Раздел 2201:38:09.000                             : Раздел 2301:42:20.680                             : Раздел 2401:47:43.080                             : Раздел 25

piratbit.ru


Смотрите также