Скачать бесплатно фильм миньоны через торрент в хорошем качестве


Скачать торрент Миньоны / Minions (2015) BDRip 1080p

Информация о фильмеНазвание: МиньоныОригинальное название: MinionsГод выхода: 2015Жанр: мультфильм, комедия, семейныйРежиссер: Кайл Балда, Пьер КоффанВ ролях: Сандра Буллок, Джон Хэмм, Майкл Китон, Эллисон Дженни, Стив Куган, Дженнифер Сондерс, Джеффри Раш, Стив Карелл, Пьер Коффан, Кэти Миксон

О фильме: Миньоны живут на планете гораздо дольше нас. У них одна навязчивая идея — служить самой Гадкой личности из имеющихся в наличии. Динозавры, фараоны, Дракула, Наполеон — все они оказались недолговечны. И тогда миньоны рванули в Нью-Йорк. Их ждут деньги, власть, роковая суперзлодейка Скарлет Оверкилл и, конечно же, вкуснейшая «банана»! Во всяком случае, так им кажется.

Выпущено: Illumination EntertainmentПродолжительность: 01:30:58Перевод: Дублированный (лицензия)

ФайлКодек: x264Качество: BDRip \(источник: Blu-ray Disc\)Видео: 1920x1036 (1,85:1), 23.976 fps, 10.9 МbpsАудио #1: AC-3, 6 ch, 640 kbps (Rus)Аудио #2: AC-3, 6 ch, 640 kbps (Eng)Субтитры: Русские (форс,полные), АнглийскиеСкачать: сэмпл

Скриншоты

MI

Общее Уникальный идентификатор : 227588524495296513222260351484466895150 (0xAB37F497386B1D0B9067A7C3BBBD192E) Полное имя : Minions.2015.BDRip.1080p.Rus.Eng.mkv Формат : Matroska Версия формата : Version 2 Размер файла : 7,76 Гбайт Продолжительность : 1 ч. 30 м. Общий поток : 12,2 Мбит/сек Название фильма : Миньоны / Minions (2015) Дата кодирования : UTC 2015-11-16 04:07:31 Программа кодирования : mkvmerge v5.8.0 ('No Sleep / Pillow') built on Sep 2 2012 15:37:04 Библиотека кодирования : libebml v1.2.3 + libmatroska v1.3.0

Видео Идентификатор : 1 Формат : AVC Формат/Информация : Advanced Video Codec Профиль формата : [email protected] Параметр CABAC формата : Да Параметр ReFrames формата : 4 кадра Идентификатор кодека : V_MPEG4/ISO/AVC Продолжительность : 1 ч. 30 м. Битрейт : 10,9 Мбит/сек Ширина : 1920 пикселей Высота : 1036 пикселей Соотношение сторон : 1,85:1 Режим частоты кадров : Постоянный Частота кадров : 23,976 кадра/сек Цветовое пространство : YUV Субдискретизация насыщенности : 4:2:0 Битовая глубина : 8 бит Тип развёртки : Прогрессивная Бит/(Пиксели*Кадры) : 0.229 Размер потока : 6,79 Гбайт (88%) Заголовок : Release by AlexKa Библиотека кодирования : x264 core 148 r2638 7599210 Настройки программы : cabac=1 / ref=4 / deblock=1:0:0 / analyse=0x3:0x133 / me=umh / subme=11 / psy=1 / psy_rd=1.00:0.00 / mixed_ref=1 / me_range=32 / chroma_me=1 / trellis=2 / 8x8dct=1 / cqm=0 / deadzone=21,11 / fast_pskip=0 / chroma_qp_offset=-2 / threads=12 / lookahead_threads=2 / sliced_threads=0 / nr=0 / decimate=0 / interlaced=0 / bluray_compat=0 / constrained_intra=0 / bframes=8 / b_pyramid=2 / b_adapt=2 / b_bias=0 / direct=3 / weightb=1 / open_gop=0 / weightp=2 / keyint=240 / keyint_min=23 / scenecut=40 / intra_refresh=0 / rc=2pass / mbtree=0 / bitrate=10930 / ratetol=1.0 / qcomp=0.60 / qpmin=0 / qpmax=69 / qpstep=4 / cplxblur=20.0 / qblur=0.5 / ip_ratio=1.40 / pb_ratio=1.30 / aq=1:1.00 Язык : English

Аудио #1 Идентификатор : 2 Формат : AC-3 Формат/Информация : Audio Coding 3 Расширение режима : CM (complete main) Параметр Endianness формата : Big Идентификатор кодека : A_AC3 Продолжительность : 1 ч. 30 м. Вид битрейта : Постоянный Битрейт : 640 Кбит/сек Каналы : 6 каналов Расположение каналов : Front: L C R, Side: L R, LFE Частота : 48,0 КГц Метод сжатия : С потерями Размер потока : 416 Мбайт (5%) Заголовок : Rus Язык : Russian

Аудио #2 Идентификатор : 3 Формат : AC-3 Формат/Информация : Audio Coding 3 Расширение режима : CM (complete main) Параметр Endianness формата : Big Идентификатор кодека : A_AC3 Продолжительность : 1 ч. 30 м. Вид битрейта : Постоянный Битрейт : 640 Кбит/сек Каналы : 6 каналов Расположение каналов : Front: L C R, Side: L R, LFE Частота : 48,0 КГц Метод сжатия : С потерями Размер потока : 416 Мбайт (5%) Заголовок : Eng Язык : English

Текст #1 Идентификатор : 4 Формат : UTF-8 Идентификатор кодека : S_TEXT/UTF8 Идентификатор кодека/Информация : UTF-8 Plain Text Заголовок : Rus forced Язык : Russian

Текст #2 Идентификатор : 5 Формат : UTF-8 Идентификатор кодека : S_TEXT/UTF8 Идентификатор кодека/Информация : UTF-8 Plain Text Заголовок : Rus Язык : Russian

Текст #3 Идентификатор : 6 Формат : UTF-8 Идентификатор кодека : S_TEXT/UTF8 Идентификатор кодека/Информация : UTF-8 Plain Text Заголовок : Eng Язык : English

Меню 00:00:00.000 : :Chapter 01 00:05:39.839 : :Chapter 02 00:11:28.938 : :Chapter 03 00:16:55.139 : :Chapter 04 00:22:28.430 : :Chapter 05 00:26:59.034 : :Chapter 06 00:32:54.639 : :Chapter 07 00:37:28.871 : :Chapter 08 00:40:58.831 : :Chapter 09 00:45:29.309 : :Chapter 10 00:49:24.086 : :Chapter 11 00:53:43.053 : :Chapter 12 00:57:04.921 : :Chapter 13 01:01:36.943 : :Chapter 14 01:05:54.700 : :Chapter 15 01:07:55.237 : :Chapter 16 01:11:19.149 : :Chapter 17 01:15:32.653 : :Chapter 18 01:21:12.826 : :Chapter 19 01:28:24.757 : :Chapter 20 01:30:57.743 : :Chapter 21

x264

x264 [info]: frame I:1005 Avg QP:16.12 size:265930 x264 [info]: frame P:29779 Avg QP:18.05 size: 96770 x264 [info]: frame B:100077 Avg QP:19.67 size: 43043 x264 [info]: consecutive B-frames: 2.5% 3.7% 11.9% 15.3% 15.6% 44.1% 3.8% 1.7% 1.5%

krutor.org

Скачать фильм Миньоны (2015) через торрент

5 сентября 2016 09:12 Миньоны / Minions (2015) BDRemux 1080p | Лицензия .torrent   [Информация о файле (нажмите для просмотра)] Качество: Blu-Ray Remux (1080p)Видео: MPEG-4 AVC, 28919 Кбит/c, 1920x1080Аудио: Русский, украиснкий, англиский (AC3, 6 ch, 640 Кбит/с), английский (TrueHD Atmos, 8 ch, 5262 Кбит/с)Перевод: Дублированный [лицензия]Субтитры: Русские, английские, украинские 22,38 Gb 41 10 5 сентября 2016 09:12 Миньоны / Minions (2015) HDRip от Scarabey | Лицензия .torrent   [Информация о файле (нажмите для просмотра)] Перевод: Профессиональный (полное дублирование) [Лицензия]Видео: 624x336 (1.86:1), 23.976 fps, XviD build 73 ~1009 kbps avg, 0.20 bit/pixelАудио: 48 kHz, MPEG Layer 3, 2 ch, ~128.00 kbps avg 746,27 Mb 532 19 5 сентября 2016 09:12 Миньоны / Minions (2015) BDRip 720p от Scarabey | Лицензия .torrent   [Информация о файле (нажмите для просмотра)] Перевод: Профессиональный (полное дублирование) [Лицензия]Видео: 1280х692, 23.976 fps, AVC, ~6693 kbps avgАудио: 48 kHz, AC3 Dolby Digital, 3/2 (L,C,R,l,r) + LFE ch, ~448 kbps - дубляжАудио: 48 kHz, AC3 Dolby Digital, 3/2 (L,C,R,l,r) + LFE ch, ~640 kbps - оригинал 5,16 Gb 181 14 5 сентября 2016 09:12 Миньоны / Minions (2015) DVD5 .torrent   [Информация о файле (нажмите для просмотра)] Перевод: ДублированныйСубтитры: Английские, русскиеВидео: MPEG-2, [email protected] (PAL 16:9), ~6300 Кбит/секАудио 1: AC3 5.1, 384 Кбит/сек [Английский - оригинал]Аудио 2: AC3 5.1, 448 Кбит/сек [Русский - дублированный]Видео: Идентификатор : 224 (0xE0) Формат : MPEG Video Версия формата : Version 2 Профиль формата : [email protected] Параметр BVOP формата : Да Параметр матрицы формата : Выборочная Параметр GOP формата : Variable Структура изображения : Frame Продолжительность : 19 м. Вид битрейта : Переменный Битрейт : 6301 Кбит/сек Максимальный битрейт : 7986 Кбит/сек Ширина : 720 пикселей Высота : 576 пикселей Соотношение сторон : 16:9 Частота кадров : 25,000 кадров/сек Стандарт вещания : PAL Цветовое пространство : YUV Субдискретизация насыщенности : 4:2:0 Битовая глубина : 8 бит Тип развёртки : Чересстрочная Порядок развёртки : Верхнее поле первое Метод сжатия : С потерями Бит/(Пиксели*Кадры) : 0.608 Временной код первого кадра : 00:19:56:19 Оригинал временного кода : Group of pictures header Размер потока : 886 Мбайт (87%)Аудио #1: Идентификатор : 189 (0xBD)-128 (0x80) Формат : AC-3 Формат/Информация : Audio Coding 3 Расширение режима : CM (complete main) Параметр Endianness формата : Big Режим смешивания : DVD-Video Продолжительность : 19 м. Вид битрейта : Постоянный Битрейт : 384 Кбит/сек Каналы : 6 каналов Расположение каналов : Front: L C R, Side: L R, LFE Частота : 48,0 КГц Битовая глубина : 16 бит Метод сжатия : С потерями Задержка видео : -584 мс. Размер потока : 54,0 Мбайт (5%)Аудио #2: Идентификатор : 189 (0xBD)-129 (0x81) Формат : AC-3 Формат/Информация : Audio Coding 3 Расширение режима : CM (complete main) Параметр Endianness формата : Big Режим смешивания : DVD-Video Продолжительность : 19 м. Вид битрейта : Постоянный Битрейт : 448 Кбит/сек Каналы : 6 каналов Расположение каналов : Front: L C R, Side: L R, LFE Частота : 48,0 КГц Битовая глубина : 16 бит Метод сжатия : С потерями Задержка видео : -584 мс. Размер потока : 63,0 Мбайт (6%) 4,37 Gb 47 8 5 сентября 2016 09:12 Миньоны / Minions (2015) HDRip от Scarabey | Лицензия .torrent   [Информация о файле (нажмите для просмотра)] Перевод: Профессиональный (полное дублирование) [Лицензия]Видео: 688x368 (1.87:1), 23.976 fps, XviD build 73 ~1885 kbps avg, 0.31 bit/pixelАудио: 48 kHz, AC3 Dolby Digital, 3/2 (L,C,R,l,r) + LFE ch, ~448 kbps 1,44 Gb 2674 44 5 сентября 2016 09:12 Миньоны / Minions (2015) BDRip от HQCLUB | Лицензия .torrent   [Информация о файле (нажмите для просмотра)] Перевод: Профессиональный (полное дублирование) +Оригинальная звуковая дорожкаСубтитры: Русские (полные, форсированные), Украинские (полные, форсированные), Английские (полные, SDH, SDH Colored) (внешние srt*) (спасибо Elheym)Формат: AVIКачество: BDRip (источник / Blu-ray CEE / 1080p)Видео: 704x384 (1.83:1), 23,976 fps, XviD build 66 ~1828 kbps avg, 0.28 bit/pixelАудио #1: 48 kHz, AC3 Dolby Digital, 3/2 (L,C,R,l,r) + LFE ch, ~448.00 kbps avgАудио #2: 48 kHz, AC3 Dolby Digital, 3/2 (L,C,R,l,r) + LFE ch, ~448.00 kbps avg(отдельно, http)Аудио #3: 48 kHz, AC3 Dolby Digital, 3/2 (L,C,R,l,r) + LFE ch, ~448.00 kbps avg(отдельно, http) 1,45 Gb 606 15 5 сентября 2016 09:12 Миньоны / Minions (2015) BDRip 1080p .torrent   [Информация о файле (нажмите для просмотра)] Перевод: Дублированный (лицензия)Кодек: x264Качество: BDRip (источник: Blu-ray Disc)Видео: 1920x1036 (1,85:1), 23.976 fps, 10.9 МbpsАудио #1: AC-3, 6 ch, 640 kbps (Rus)Аудио #2: AC-3, 6 ch, 640 kbps (Eng)Субтитры: Русские (форс,полные), АнглийскиеВидео: Идентификатор : 1 Формат : AVC Формат/Информация : Advanced Video Codec Профиль формата : [email protected] Параметр CABAC формата : Да Параметр ReFrames формата : 4 кадра Идентификатор кодека : V_MPEG4/ISO/AVC Продолжительность : 1 ч. 30 м. Битрейт : 10,9 Мбит/сек Ширина : 1920 пикселей Высота : 1036 пикселей Соотношение сторон : 1,85:1 Режим частоты кадров : Постоянный Частота кадров : 23,976 кадра/сек Цветовое пространство : YUV Субдискретизация насыщенности : 4:2:0 Битовая глубина : 8 бит Тип развёртки : Прогрессивная Бит/(Пиксели*Кадры) : 0.229 Размер потока : 6,79 Гбайт (88%) Заголовок : Release by AlexKa Библиотека кодирования : x264 core 148 r2638 7599210 Настройки программы : cabac=1 / ref=4 / deblock=1:0:0 / analyse=0x3:0x133 / me=umh / subme=11 / psy=1 / psy_rd=1.00:0.00 / mixed_ref=1 / me_range=32 / chroma_me=1 / trellis=2 / 8x8dct=1 / cqm=0 / deadzone=21,11 / fast_pskip=0 / chroma_qp_offset=-2 / threads=12 / lookahead_threads=2 / sliced_threads=0 / nr=0 / decimate=0 / interlaced=0 / bluray_compat=0 / constrained_intra=0 / bframes=8 / b_pyramid=2 / b_adapt=2 / b_bias=0 / direct=3 / weightb=1 / open_gop=0 / weightp=2 / keyint=240 / keyint_min=23 / scenecut=40 / intra_refresh=0 / rc=2pass / mbtree=0 / bitrate=10930 / ratetol=1.0 / qcomp=0.60 / qpmin=0 / qpmax=69 / qpstep=4 / cplxblur=20.0 / qblur=0.5 / ip_ratio=1.40 / pb_ratio=1.30 / aq=1:1.00 Язык : EnglishАудио #1: Идентификатор : 2 Формат : AC-3 Формат/Информация : Audio Coding 3 Расширение режима : CM (complete main) Параметр Endianness формата : Big Идентификатор кодека : A_AC3 Продолжительность : 1 ч. 30 м. Вид битрейта : Постоянный Битрейт : 640 Кбит/сек Каналы : 6 каналов Расположение каналов : Front: L C R, Side: L R, LFE Частота : 48,0 КГц Метод сжатия : С потерями Размер потока : 416 Мбайт (5%) Заголовок : Rus Язык : RussianАудио #2: Идентификатор : 3 Формат : AC-3 Формат/Информация : Audio Coding 3 Расширение режима : CM (complete main) Параметр Endianness формата : Big Идентификатор кодека : A_AC3 Продолжительность : 1 ч. 30 м. Вид битрейта : Постоянный Битрейт : 640 Кбит/сек Каналы : 6 каналов Расположение каналов : Front: L C R, Side: L R, LFE Частота : 48,0 КГц Метод сжатия : С потерями Размер потока : 416 Мбайт (5%) Заголовок : Eng Язык : English 7,76 Gb 104 3 5 сентября 2016 09:12 Миньоны / Minions (2015) DVD9 | Custom .torrent   [Информация о файле (нажмите для просмотра)] Перевод: ДублированныйСубтитры: Английские, русскиеВидео: MPEG-2, [email protected] (PAL 16:9), ~7400 Кбит/секАудио 1: AC3 5.1, 384 Кбит/сек [Английский - оригинал]Аудио 2: AC3 5.1, 448 Кбит/сек [Русский - дублированный]Видео: Идентификатор : 224 (0xE0) Формат : MPEG Video Версия формата : Version 2 Профиль формата : [email protected] Параметр BVOP формата : Да Параметр матрицы формата : Выборочная Параметр GOP формата : Variable Структура изображения : Frame Продолжительность : 16 м. Вид битрейта : Переменный Битрейт : 7420 Кбит/сек Максимальный битрейт : 9800 Кбит/сек Ширина : 720 пикселей Высота : 576 пикселей Соотношение сторон : 16:9 Частота кадров : 25,000 кадров/сек Стандарт вещания : PAL Цветовое пространство : YUV Субдискретизация насыщенности : 4:2:0 Битовая глубина : 8 бит Тип развёртки : Чересстрочная Порядок развёртки : Верхнее поле первое Метод сжатия : С потерями Бит/(Пиксели*Кадры) : 0.716 Временной код первого кадра : 01:17:03:01 Оригинал временного кода : Group of pictures header Размер потока : 902 Мбайт (88%)Аудио #1: Идентификатор : 189 (0xBD)-128 (0x80) Формат : AC-3 Формат/Информация : Audio Coding 3 Расширение режима : CM (complete main) Параметр Endianness формата : Big Режим смешивания : DVD-Video Продолжительность : 17 м. Вид битрейта : Постоянный Битрейт : 384 Кбит/сек Каналы : 6 каналов Расположение каналов : Front: L C R, Side: L R, LFE Частота : 48,0 КГц Битовая глубина : 16 бит Метод сжатия : С потерями Задержка видео : -664 мс. Размер потока : 46,7 Мбайт (5%)Аудио #2: Идентификатор : 189 (0xBD)-129 (0x81) Формат : AC-3 Формат/Информация : Audio Coding 3 Расширение режима : CM (complete main) Параметр Endianness формата : Big Режим смешивания : DVD-Video Продолжительность : 17 м. Вид битрейта : Постоянный Битрейт : 448 Кбит/сек Каналы : 6 каналов Расположение каналов : Front: L C R, Side: L R, LFE Частота : 48,0 КГц Битовая глубина : 16 бит Метод сжатия : С потерями Задержка видео : -664 мс. Размер потока : 54,5 Мбайт (5%) 5,18 Gb 3 7 5 сентября 2016 09:11 Миньоны / Minions (2015) BDRip 720p от HELLYWOOD | Лицензия .torrent   [Информация о файле (нажмите для просмотра)] Перевод: Дубляж [лицензия BD CEE]Субтитры: русские (полные + форс.), украинские (полные + форс.), английские (Full + SDH + SDH-Colored)Качество: BDRip 720pФормат: MKVВидео: 1280x690 (1.853), 6535 kbps, 23,976 fps, 0.309 bit/pixelАудио#1: AC3 / 5.1 / 48 kHz / 640 kbps / 16 bit |RUSАудио#2: AC3 / 5.1 / 48 kHz / 640 kbps / 16 bit |UKRАудио#3: AC3 / 5.1 / 48 kHz / 640 kbps / 16 bit |ENG 5,37 Gb 35 10 5 сентября 2016 09:11 Миньоны / Minions (2015) BDRip-AVC от New-Team | Лицензия .torrent   [Информация о файле (нажмите для просмотра)] Перевод: Профессиональный (полное дублирование) [Лицензия BD CEE]Субтитры: русские (forced), русские (full), украинские (full), английские (full), английские (SDH)Видео: 2552 Кбит/сек, 1060*572 (1,853), в 23,976 кадр/сек, AVCАудио #1: Russian, 448 Кбит/сек, 48,0 КГц, 16 бит, 6 канала(ов), AC-3Аудио #2: English, 448 Кбит/сек, 48,0 КГц, 16 бит, 6 канала(ов), AC-3Видео: Идентификатор : 1 Формат : AVC Формат/Информация : Advanced Video Codec Профиль формата : [email protected] Параметр CABAC формата : Да Параметр ReFrames формата : 13 кадры Идентификатор кодека : V_MPEG4/ISO/AVC Продолжительность : 1 ч. 30 м. Битрейт : 2552 Кбит/сек Ширина : 1060 пикс. Высота : 572 пикс. Соотношение сторон : 1,853 Частота кадров : 23,976 кадр/сек Цветовое пространство : YUV Подвыборка цветности : 4:2:0 Битовая глубина : 8 бит Тип развёртки : Прогрессивная Бит/(Пиксели*Кадры) : 0.176 Размер потока : 1,58 Гбайт (72%) Заголовок : Minions (2015) (New-Team) (Rip by Stalker oK) Библиотека кодирования : x264 core 146 r2538kMod 121396c Настройки программы : cabac=1 / ref=13 / deblock=1:-1:-1 / analyse=0x3:0x133 / me=umh / subme=11 / psy=1 / fade_compensate=0.00 / psy_rd=1.00:0.08 / mixed_ref=1 / me_range=48 / chroma_me=1 / trellis=2 / 8x8dct=1 / cqm=0 / deadzone=21,11 / fast_pskip=0 / chroma_qp_offset=-3 / threads=12 / lookahead_threads=3 / sliced_threads=0 / nr=0 / decimate=0 / interlaced=0 / bluray_compat=0 / constrained_intra=0 / fgo=0 / bframes=13 / b_pyramid=2 / b_adapt=2 / b_bias=0 / direct=3 / weightb=1 / open_gop=0 / weightp=2 / keyint=240 / keyint_min=23 / scenecut=40 / intra_refresh=0 / rc_lookahead=60 / rc=2pass / mbtree=0 / bitrate=2552 / ratetol=1.0 / qcomp=0.70 / qpmin=0 / qpmax=69 / qpstep=4 / cplxblur=20.0 / qblur=0.5 / vbv_maxrate=50000 / vbv_bufsize=62500 / nal_hrd=none / filler=0 / ip_ratio=1.40 / pb_ratio=1.30 / aq=3:0.75Аудио #1: Идентификатор : 2 Формат : AC-3 Формат/Информация : Audio Coding 3 Расширение режима : CM (complete main) Идентификатор кодека : A_AC3 Продолжительность : 1 ч. 30 м. Вид битрейта : Постоянный Битрейт : 448 Кбит/сек Канал(ы) : 6 канала(ов) Расположение каналов : Front: L C R, Side: L R, LFE Частота : 48,0 КГц Битовая глубина : 16 бит Метод сжатия : С потерями Размер потока : 291 Мбайт (13%) Язык : RussianАудио #2: Идентификатор : 3 Формат : AC-3 Формат/Информация : Audio Coding 3 Расширение режима : CM (complete main) Идентификатор кодека : A_AC3 Продолжительность : 1 ч. 30 м. Вид битрейта : Постоянный Битрейт : 448 Кбит/сек Канал(ы) : 6 канала(ов) Расположение каналов : Front: L C R, Side: L R, LFE Частота : 48,0 КГц Битовая глубина : 16 бит Метод сжатия : С потерями Размер потока : 291 Мбайт (13%) Язык : English 2,19 Gb 309 11 5 сентября 2016 09:11 Миньоны / Minions (2015) HDRip от MegaPeer | Лицензия .torrent   [Информация о файле (нажмите для просмотра)] Перевод: Профессиональный (дублированный)ЛицензияКачество: HDRipВидео: XviD, 1835 kb/s, 720х384Аудио: AC3, 6 ch, 448 kb/s 1,46 Gb 67 9 5 сентября 2016 09:11 Миньоны / Minions (2015) BDRip-AVC от HELLYWOOD | Лицензия .torrent   [Информация о файле (нажмите для просмотра)] Перевод: Дубляж [лицензия BD CEE]Субтитры: русские (полные + форс.), украинские (полные + форс.), английские (Full + SDH + SDH-Colored)Качество: BDRip-AVCФормат: MKVВидео: 1024x552 (1.853), 2536 kbps, 23,976 fps, 0.187 bit/pixelАудио#1: AC3 / 5.1 / 48 kHz / 448 kbps / 16 bit |RUSАудио#2: AC3 / 5.1 / 48 kHz / 448 kbps / 16 bit |ENG 2,18 Gb 152 10 5 сентября 2016 09:11 Миньоны / Minions (2015) BDRip-AVC от HELLYWOOD | Лицензия .torrent   [Информация о файле (нажмите для просмотра)] Перевод: Дубляж [лицензия BD CEE]Субтитры: русские (полные + форс.), украинские (полные + форс.), английские (Full + SDH + SDH-Colored)Качество: BDRip-AVCФормат: MKVВидео: 960x518 (1.853), 1851 kbps, 23,976 fps, 0,155 bppАудио: AC3 / 5.1 / 48 kHz / 448 kbps / 16 bit 1,46 Gb 39 3 5 сентября 2016 09:11 Миньоны / Minions (2015) HDRip | КПК | Лицензия .torrent   [Информация о файле (нажмите для просмотра)] Перевод: Профессиональный (полное дублирование) ЛицензияКачество: HDRipФормат: MP4 476,09 Mb 154 6 5 сентября 2016 09:11 Миньоны / Minions (2015) BDRip-AVC | D | Лицензия .torrent   [Информация о файле (нажмите для просмотра)] Перевод: ДублированныйКодек: x264Качество: HDRip-AVC (Исх: BDRip 1080p)Видео: 788x426 (1,85:1), 23,976 fps, x264 ~1111 kbps avg, 0.138 bit/pixelАудио: 48 kHz, AAC-HE, 2 ch, Front: L R ~32 kbps avgВидео: Идентификатор : 1 Формат : AVC Формат/Информация : Advanced Video Codec Профиль формата : [email protected] Параметр CABAC формата : Да Параметр ReFrames формата : 10 кадров Идентификатор кодека : V_MPEG4/ISO/AVC Продолжительность : 1 ч. 30 м. Номинальный битрейт : 1111 Кбит/сек Ширина : 788 пикселей Высота : 426 пикселей Соотношение сторон : 1,85:1 Режим частоты кадров : Постоянный Частота кадров : 23,976 кадра/сек Цветовое пространство : YUV Субдискретизация насыщенности : 4:2:0 Битовая глубина : 8 бит Тип развёртки : Прогрессивная Бит/(Пиксели*Кадры) : 0.138 Библиотека кодирования : x264 core 125 r2208 d9d2288 Настройки программы : cabac=1 / ref=10 / deblock=1:-2:-2 / analyse=0x3:0x133 / me=umh / subme=10 / psy=1 / psy_rd=1.00:0.00 / mixed_ref=1 / me_range=32 / chroma_me=1 / trellis=2 / 8x8dct=1 / cqm=0 / deadzone=21,11 / fast_pskip=0 / chroma_qp_offset=-2 / threads=12 / lookahead_threads=2 / sliced_threads=0 / nr=0 / decimate=0 / interlaced=0 / bluray_compat=0 / constrained_intra=0 / bframes=10 / b_pyramid=2 / b_adapt=2 / b_bias=0 / direct=3 / weightb=1 / open_gop=0 / weightp=2 / keyint=250 / keyint_min=23 / scenecut=40 / intra_refresh=0 / rc_lookahead=60 / rc=2pass / mbtree=1 / bitrate=1111 / ratetol=1.0 / qcomp=0.60 / qpmin=0 / qpmax=69 / qpstep=4 / cplxblur=20.0 / qblur=0.5 / ip_ratio=1.40 / aq=1:0.80 Default : Да Forced : НетАудио: Идентификатор : 2 Формат : AAC Формат/Информация : Advanced Audio Codec Профиль формата : HE-AAC / LC Идентификатор кодека : A_AAC Продолжительность : 1 ч. 30 м. Каналы : 2 канала Расположение каналов : Front: L R Частота : 48,0 КГц / 24,0 КГц Метод сжатия : С потерями Задержка видео : 31 мс. Default : Да Forced : Нет 744,85 Mb 35 8 5 сентября 2016 09:11 Миньоны / Minions (2015) BDRip-AVC от New-Team | Лицензия .torrent   [Информация о файле (нажмите для просмотра)] Перевод: Профессиональный (полное дублирование) [Лицензия BD CEE]Субтитры: русские (forced), русские (full), украинские (full), английские (full), английские (SDH)Видео: 1853 Кбит/сек, 960x518 (1.853), 23,976 кадр/сек, AVCАудио: русский, 448 Кбит/сек, 48 КГц, 16 бит, 5.1, AC3 1,46 Gb 68 13 5 сентября 2016 09:11 Миньоны / Minions (2015) BDRip 1080p от Ash61 | 3D-Video | halfOU | Лицензия .torrent   [Информация о файле (нажмите для просмотра)] Перевод: Профессиональный дублированный - ЛицензияКачество: BDRip (byAsh61)Контейнер: MKVВидео: AVC / 23,976 fps /1920х1080p / 15.5 MbpsАудио: #1 - Русский / AC3 / 48 KHz / 5.1 ch / 640 Kbps (Дубляж - BD Eur)Субтитры: (SRT) 11,29 Gb 37 5 5 сентября 2016 09:11 Миньоны / Minions (2015) BDRip-AVC | Лицензия .torrent   [Информация о файле (нажмите для просмотра)] Перевод: Дублированный (BD CEE)Кодек: MPEG-4 AVCКачество: BDRip-AVCВидео: 2559 Кбит/c, 1024x552Звук: Русский, украинский, английский (AC3, 6 ch, 448 Кбит/с)Субтитры: Русские, английские, украинскиеВидео: Идентификатор : 1 Формат : AVC Формат/Информация : Advanced Video Codec Профиль формата : [email protected] Параметр CABAC формата : Да Параметр ReFrames формата : 11 кадров Идентификатор кодека : V_MPEG4/ISO/AVC Продолжительность : 1 ч. 30 м. Битрейт : 2559 Кбит/сек Ширина : 1024 пикселя Высота : 552 пикселя Соотношение сторон : 1,85:1 Режим частоты кадров : Постоянный Частота кадров : 23,976 кадра/сек Цветовое пространство : YUV Субдискретизация насыщенности : 4:2:0 Битовая глубина : 8 бит Тип развёртки : Прогрессивная Бит/(Пиксели*Кадры) : 0.189 Размер потока : 1,58 Гбайт (64%) Заголовок : Minions.2015.x264.BDRip.AVC.Rus.Eng.by.StarbirS Библиотека кодирования : x264 core 148 r2597 e86f3a1 Настройки программы : cabac=1 / ref=11 / deblock=1:-3:-3 / analyse=0x3:0x113 / me=umh / subme=11 / psy=1 / psy_rd=1.10:0.20 / mixed_ref=1 / me_range=48 / chroma_me=1 / trellis=2 / 8x8dct=1 / cqm=0 / deadzone=21,11 / fast_pskip=0 / chroma_qp_offset=-3 / threads=12 / lookahead_threads=2 / sliced_threads=0 / nr=0 / decimate=0 / interlaced=0 / bluray_compat=0 / constrained_intra=0 / bframes=9 / b_pyramid=2 / b_adapt=2 / b_bias=0 / direct=3 / weightb=1 / open_gop=1 / weightp=2 / keyint=240 / keyint_min=23 / scenecut=40 / intra_refresh=0 / rc=2pass / mbtree=0 / bitrate=2559 / ratetol=1.0 / qcomp=0.60 / qpmin=0 / qpmax=69 / qpstep=4 / cplxblur=20.0 / qblur=0.5 / ip_ratio=1.40 / pb_ratio=1.30 / aq=2:0.80 Язык : English Default : Да Forced : НетАудио #1: Идентификатор : 2 Формат : AC-3 Формат/Информация : Audio Coding 3 Расширение режима : CM (complete main) Параметр Endianness формата : Big Идентификатор кодека : A_AC3 Продолжительность : 1 ч. 30 м. Вид битрейта : Постоянный Битрейт : 448 Кбит/сек Каналы : 6 каналов Расположение каналов : Front: L C R, Side: L R, LFE Частота : 48,0 КГц Метод сжатия : С потерями Размер потока : 291 Мбайт (11%) Заголовок : Дублированный (BD CEE) Язык : Russian Default : Да Forced : НетАудио #2: Идентификатор : 3 Формат : AC-3 Формат/Информация : Audio Coding 3 Расширение режима : CM (complete main) Параметр Endianness формата : Big Идентификатор кодека : A_AC3 Продолжительность : 1 ч. 30 м. Вид битрейта : Постоянный Битрейт : 448 Кбит/сек Каналы : 6 каналов Расположение каналов : Front: L C R, Side: L R, LFE Частота : 48,0 КГц Метод сжатия : С потерями Размер потока : 291 Мбайт (11%) Заголовок : Дублированный (BD CEE) Язык : Ukrainian Default : Нет Forced : НетАудио #3: Идентификатор : 4 Формат : AC-3 Формат/Информация : Audio Coding 3 Расширение режима : CM (complete main) Параметр Endianness формата : Big Идентификатор кодека : A_AC3 Продолжительность : 1 ч. 30 м. Вид битрейта : Постоянный Битрейт : 448 Кбит/сек Каналы : 6 каналов Расположение каналов : Front: L C R, Side: L R, LFE Частота : 48,0 КГц Метод сжатия : С потерями Размер потока : 291 Мбайт (11%) Язык : English Default : Нет Forced : Нет 2,48 Gb 872 31 5 сентября 2016 09:11 Миньоны / Minions (2015) Blu-Ray | Лицензия .torrent   [Информация о файле (нажмите для просмотра)] Перевод: полное дублированиеКодек: MPEG-4 AVCКачество: Blu-Ray"Новый Диск"Видео: 28919 Кbps, 1920x1080, 23.976 fpsАудио 1: Dolby TrueHD 8 ch, 48.0 KHz, 5262 Кbps(английский)Аудио 2: Dolby Digital 6 ch, 48.0 KHz, 640 Кbps(русский, украинский, латышский, литовский, эстонский, греческий, итальянский, румынский)Субтитры: русские, украинские, английские, латышские, литовские, эстонские, греческие, итальянские, румынскиеДополнительные материалыМини-фильмыВокруг света - интерактивная картаСнимаем защитные очки - история "Minions" глазами студии Illumination"Звените, колокольчики" в стиле миньоновBD-InfoDISC INFO: 39,11 Gb 3 5 5 сентября 2016 09:11 Миньоны / Minions (2015) Blu-Ray | 3D-Video | Лицензия .torrent   [Информация о файле (нажмите для просмотра)] Перевод: полное дублированиеКодек: MPEG-4 AVC / MVCКачество: Blu-Ray 3D"Новый Диск"Видео: 29823 Кbps, 1920x1080, 23.976 fpsАудио 1: Dolby TrueHD 8 ch, 48.0 KHz, 5262 Кbps(английский)Аудио 2: Dolby Digital 6 ch, 48.0 KHz, 640 Кbps(русский, украинский, хорватский, эстонский, греческий, итальянский, румынский, турецкий)Аудио 3: Dolby Digital Plus 6 ch, 48.0 KHz, 576 Кbps(немецкий)Субтитры: русские, украинские, английские, хорватские, эстонские, немецкие, греческие, итальянские, румынские, турецкиеBD-InfoDISC INFO: 45,02 Gb 12 3 5 сентября 2016 09:11 Миньоны / Minions (2015) BDRip 720p | Лицензия .torrent   [Информация о файле (нажмите для просмотра)] Перевод: Профессиональный (дублированный) Blu-ray CEEФормат: MatroskaВидео: 1280x692 at 23.976 fps, [email protected], ~6851 kbps avgАудио#1: Russian: 48 kHz, AC3, 3/2 (L,C,R,l,r) + LFE ch, ~640.00 kbps avg |Дубляж, Blu-ray CEE|Аудио#2: Ukrainian: 48 kHz, AC3, 3/2 (L,C,R,l,r) + LFE ch, ~640.00 kbps avg |Дубляж, Blu-ray CEE|Аудио#3: English: 48 kHz, AC3, 3/2 (L,C,R,l,r) + LFE ch, ~640.00 kbps avgСубтитры: Russian (Forced, Full), Ukrainian, English, English (SDH)Видео: Идентификатор : 1 Формат : AVC Формат/Информация : Advanced Video Codec Профиль формата : [email protected] Параметр CABAC формата : Да Параметр ReFrames формата : 9 кадров Идентификатор кодека : V_MPEG4/ISO/AVC Продолжительность : 1 ч. 30 м. Битрейт : 6851 Кбит/сек Ширина : 1280 пикселей Высота : 692 пикселя Соотношение сторон : 1,85:1 Режим частоты кадров : Постоянный Частота кадров : 23,976 кадра/сек Цветовое пространство : YUV Субдискретизация насыщенности : 4:2:0 Битовая глубина : 8 бит Тип развёртки : Прогрессивная Бит/(Пиксели*Кадры) : 0.323 Размер потока : 4,35 Гбайт (77%) Библиотека кодирования : x264 core 142 r2431+42 c69a006 tMod [[email protected]:2:0 X86_64] Настройки программы : cabac=1 / ref=9 / deblock=1:-3:-3 / analyse=0x3:0x133 / me=umh / subme=11 / psy=1 / fade_compensate=0.00 / psy_rd=1.05:0.00 / mixed_ref=1 / me_range=32 / chroma_me=1 / trellis=2 / 8x8dct=1 / cqm=0 / deadzone=21,11 / fast_pskip=0 / chroma_qp_offset=-2 / threads=12 / lookahead_threads=3 / sliced_threads=0 / nr=0 / decimate=0 / interlaced=0 / bluray_compat=0 / constrained_intra=0 / fgo=0 / bframes=10 / b_pyramid=2 / b_adapt=2 / b_bias=0 / direct=3 / weightb=1 / open_gop=0 / weightp=2 / keyint=250 / keyint_min=23 / scenecut=40 / intra_refresh=0 / rc_lookahead=60 / rc=crf / mbtree=0 / crf=16.7000 / qcomp=0.55 / qpmin=0:0:0 / qpmax=69:69:69 / qpstep=4 / vbv_maxrate=62500 / vbv_bufsize=78125 / crf_max=0.0 / nal_hrd=none / filler=0 / ip_ratio=1.30 / pb_ratio=1.20 / aq=3:0.83 / aq-sensitivity=10.00 / aq-factor=1.00:1.00:1.00 / aq2=0 / aq3=0 / zones=48,431,crf=13.5/602,789,crf=14/8548,8652,crf=13.5/22414,22678,crf=13/22855,22885,crf=13/23036,23092,crf=13/23916,23958,crf=13/24279,24338,crf=13/27918,28032,crf=13.5/28123,28198,crf=13.5/33417,33621,crf=13.0 Default : Да Forced : Нет Цветовой диапазон : Limited Коэффициенты матрицы : BT.709Аудио #1: Идентификатор : 2 Формат : AC-3 Формат/Информация : Audio Coding 3 Расширение режима : CM (complete main) Параметр Endianness формата : Big Идентификатор кодека : A_AC3 Продолжительность : 1 ч. 30 м. Вид битрейта : Постоянный Битрейт : 640 Кбит/сек Каналы : 6 каналов Расположение каналов : Front: L C R, Side: L R, LFE Частота : 48,0 КГц Метод сжатия : С потерями Размер потока : 416 Мбайт (7%) Язык : Russian Default : Да Forced : НетАудио #2: Идентификатор : 3 Формат : AC-3 Формат/Информация : Audio Coding 3 Расширение режима : CM (complete main) Параметр Endianness формата : Big Идентификатор кодека : A_AC3 Продолжительность : 1 ч. 30 м. Вид битрейта : Постоянный Битрейт : 640 Кбит/сек Каналы : 6 каналов Расположение каналов : Front: L C R, Side: L R, LFE Частота : 48,0 КГц Метод сжатия : С потерями Размер потока : 416 Мбайт (7%) Язык : Ukrainian Default : Нет Forced : НетАудио #3: Идентификатор : 4 Формат : AC-3 Формат/Информация : Audio Coding 3 Расширение режима : CM (complete main) Параметр Endianness формата : Big Идентификатор кодека : A_AC3 Продолжительность : 1 ч. 30 м. Вид битрейта : Постоянный Битрейт : 640 Кбит/сек Каналы : 6 каналов Расположение каналов : Front: L C R, Side: L R, LFE Частота : 48,0 КГц Метод сжатия : С потерями Размер потока : 416 Мбайт (7%) Язык : English Default : Нет Forced : Нет 5,69 Gb 214 8 5 сентября 2016 09:11 Миньоны / Minions (2015) BDRip 1080p | Лицензия .torrent   [Информация о файле (нажмите для просмотра)] Перевод: Профессиональный (дублированный) Blu-ray CEEФормат: MatroskaВидео: 1920x1038 at 23.976 fps, [email protected], ~16700 kbps avgАудио#1: Russian: 48 kHz, AC3, 3/2 (L,C,R,l,r) + LFE ch, ~640.00 kbps avg |Дубляж, Blu-ray CEE|Аудио#2: Ukrainian: 48 kHz, AC3, 3/2 (L,C,R,l,r) + LFE ch, ~640.00 kbps avg |Дубляж, Blu-ray CEE|Аудио#3: English: 48 kHz, AC3, 3/2 (L,C,R,l,r) + LFE ch, ~640.00 kbps avgСубтитры: Russian (Forced, Full), Ukrainian, English, English (SDH)Видео: Идентификатор : 1 Формат : AVC Формат/Информация : Advanced Video Codec Профиль формата : [email protected] Параметр CABAC формата : Да Параметр ReFrames формата : 4 кадра Идентификатор кодека : V_MPEG4/ISO/AVC Продолжительность : 1 ч. 30 м. Битрейт : 16,7 Мбит/сек Ширина : 1920 пикселей Высота : 1038 пикселей Соотношение сторон : 1,85:1 Режим частоты кадров : Постоянный Частота кадров : 23,976 кадра/сек Цветовое пространство : YUV Субдискретизация насыщенности : 4:2:0 Битовая глубина : 8 бит Тип развёртки : Прогрессивная Бит/(Пиксели*Кадры) : 0.350 Размер потока : 10,6 Гбайт (88%) Заголовок : Minions (2015) Библиотека кодирования : x264 core 148 r2638kMod 7599210 Настройки программы : cabac=1 / ref=4 / deblock=1:-3:-3 / analyse=0x3:0x133 / me=umh / subme=10 / psy=1 / fade_compensate=0.00 / psy_rd=1.10:0.00 / mixed_ref=1 / me_range=32 / chroma_me=1 / trellis=2 / 8x8dct=1 / cqm=0 / deadzone=21,11 / fast_pskip=0 / chroma_qp_offset=-2 / threads=6 / lookahead_threads=1 / sliced_threads=0 / nr=0 / decimate=0 / interlaced=0 / bluray_compat=0 / constrained_intra=0 / fgo=0 / bframes=8 / b_pyramid=2 / b_adapt=2 / b_bias=0 / direct=3 / weightb=1 / open_gop=0 / weightp=2 / keyint=250 / keyint_min=23 / scenecut=40 / intra_refresh=0 / rc_lookahead=60 / rc=crf / mbtree=0 / crf=18.0000 / qcomp=0.70 / qpmin=0 / qpmax=69 / qpstep=4 / vbv_maxrate=62500 / vbv_bufsize=78125 / crf_max=0.0 / nal_hrd=none / filler=0 / ip_ratio=1.30 / pb_ratio=1.20 / aq=3:0.80 / zones=33,789,crf=14/22414,22678,crf=14/22855,22885,crf=14/23036,23092,crf=14/23916,23958,crf=14/24279,24338,crf=14/33417,33621,crf=14 Язык : English Default : Да Forced : НетАудио #1: Идентификатор : 2 Формат : AC-3 Формат/Информация : Audio Coding 3 Расширение режима : CM (complete main) Параметр Endianness формата : Big Идентификатор кодека : A_AC3 Продолжительность : 1 ч. 30 м. Вид битрейта : Постоянный Битрейт : 640 Кбит/сек Каналы : 6 каналов Расположение каналов : Front: L C R, Side: L R, LFE Частота : 48,0 КГц Метод сжатия : С потерями Размер потока : 416 Мбайт (3%) Язык : Russian Default : Да Forced : НетАудио #2: Идентификатор : 3 Формат : AC-3 Формат/Информация : Audio Coding 3 Расширение режима : CM (complete main) Параметр Endianness формата : Big Идентификатор кодека : A_AC3 Продолжительность : 1 ч. 30 м. Вид битрейта : Постоянный Битрейт : 640 Кбит/сек Каналы : 6 каналов Расположение каналов : Front: L C R, Side: L R, LFE Частота : 48,0 КГц Метод сжатия : С потерями Размер потока : 416 Мбайт (3%) Язык : Ukrainian Default : Нет Forced : НетАудио #3: Идентификатор : 4 Формат : AC-3 Формат/Информация : Audio Coding 3 Расширение режима : CM (complete main) Параметр Endianness формата : Big Идентификатор кодека : A_AC3 Продолжительность : 1 ч. 30 м. Вид битрейта : Постоянный Битрейт : 640 Кбит/сек Каналы : 6 каналов Расположение каналов : Front: L C R, Side: L R, LFE Частота : 48,0 КГц Метод сжатия : С потерями Размер потока : 416 Мбайт (3%) Язык : English Default : Нет Forced : Нет 12,1 Gb 108 16

gig-torrent.net

Скачать фильм Миньоны через торрент в хорошем качестве бесплатно BDRip-AVC от potroks

Раздают: 1 [ 0 KB/s ]
Размер: 1.46 GB | Добавлен: 1 год 11 мес. назад | Торрент скачан:637 раз
Реклама Дарим 3000 рублей за регистрацию, не упусти свой шанс получить шикарный бонус!!!

16-11-2015 14:14 Миньоны Скачать торрент  

Миньоны / Minions«Ой, всё» Год выпуска: 2015Страна: США / Illumination EntertainmentЖанр: мультфильм, комедия, семейныйПродолжительность: 01:30:56Перевод: Дубляж [BD CEE]Субтитры: русские (полные + форс.), украинские (полные + форс.), английские (Full + SDH + SDH-Colored)Навигация по главам: естьРежиссер: Кайл Балда / Kyle Balda, Пьер Коффан / Pierre CoffinВ ролях: Сандра Буллок (Scarlet Overkill, озвучка), Джон Хэмм (Herb Overkill, озвучка), Майкл Китон (Walter Nelson, озвучка), Эллисон Дженни (Madge Nelson, озвучка), Стив Куган (Professor Flux / Tower Guard, озвучка), Дженнифер Сондерс (The Queen, озвучка), Джеффри Раш (рассказчик, озвучка), Стив Карелл (Young Gru, озвучка), Пьер Коффан (The Minions, озвучка), Кэти Миксон (Tina, озвучка), Майкл Битти (VNC Announcer / Walter Jr., озвучка), Хироюки Санада (Sumo Villain, озвучка)Описание: Миньоны живут на планете гораздо дольше нас. У них одна навязчивая идея - служить самой Гадкой личности из имеющихся в наличии. Динозавры, фараоны, Дракула, Наполеон - все они оказались недолговечны. И тогда миньоны рванули в Нью-Йорк. Их ждут деньги, власть, роковая суперзлодейка Скарлет Оверкилл и, конечно же, вкуснейшая «банана»! Во всяком случае, так им кажется. Качество: BDRip-AVCФормат: MKVВидео кодек: AVCАудио кодек: AC3Видео: 960x518 (1.853), 1851 kbps, 23,976 fps, 0,155 bit/pixelАудио: AC3 / 5.1 / 48 kHz / 448 kbps / 16 bit

Релиз группы: Автор рипа: potroks

Скачать Миньоны через торрент http://i74.fastpic.ru/big/2015/1116/08/fb5e8a0703ff349b4ce6c9a48d637f08.png Скачать фильм Миньоны через торрент бесплантно в хорошем качестве Описание: Миньоны живут на планете гораздо дольше нас. У них одна навязчивая идея - служить самой Гадкой личности из имеющихся в наличии. ... 2015-11-16 14:14 9.8 10 11

Loading...

Loading...

Рекламный пират

Дорогой пользователь! Огромная просьба, поблагодарите релизера, оцените раздачу и оставьте свои комментарий, если Вы скачали Миньоны через торрент бесплатно! Внесите свою лепту в развитие PiratBit!

Комментировать посты могут только пользователи прошедшие не сложную регистрацию

Миньоны через торрент Скачать бесплатно Миньоны Миньоны скачать торрент Миньоны смотреть онлайн Cкачать фильм Миньоны бесплатно Миньоны скачать торрент в хорошем качестве Миньоны смотреть онлайн бесплатно в хорошем качестве

Вы не можете начинать темыВы не можете отвечать на сообщенияВы не можете редактировать свои сообщенияВы не можете удалять свои сообщенияВы не можете голосовать в опросахВы не можете прикреплять файлы к сообщениямВы можете скачивать файлы

piratbit.ru

Скачать фильм Миньоны через торрент в хорошем качестве бесплатно 1080p

GeneralUnique ID                                : 231603348792912045154418101017023801549 (0xAE3D2EB6188D821C90D705EC0C36E8CD)Complete name                            : H:\Minions.2015.1080p.BluRay.x264-GECKOS.mkvFormat                                   : MatroskaFormat version                           : Version 4 / Version 2File size                                : 4.61 GiBDuration                                 : 1h 30mnOverall bit rate                         : 7 263 KbpsEncoded date                             : UTC 2015-10-20 21:02:44Writing application                      : mkvmerge v8.3.0 ('Over the Horizon') 32bitWriting library                          : libebml v1.3.1 + libmatroska v1.4.2

VideoID                                       : 1Format                                   : AVCFormat/Info                              : Advanced Video CodecFormat profile                           : [email protected] settings, CABAC                   : YesFormat settings, ReFrames                : 4 framesCodec ID                                 : V_MPEG4/ISO/AVCDuration                                 : 1h 30mnBit rate                                 : 6 237 KbpsWidth                                    : 1 920 pixelsHeight                                   : 1 040 pixelsDisplay aspect ratio                     : 16:9Frame rate                               : 23.976 fpsColor space                              : YUVChroma subsampling                       : 4:2:0Bit depth                                : 8 bitsScan type                                : ProgressiveBits/(Pixel*Frame)                       : 0.130Stream size                              : 3.87 GiB (84%)Writing library                          : x264 core 148 r2638 7599210Encoding settings                        : cabac=1 / ref=4 / deblock=1:0:0 / analyse=0x3:0x133 / me=umh / subme=7 / psy=1 / psy_rd=1.00:0.00 / mixed_ref=1 / me_range=16 / chroma_me=1 / trellis=1 / 8x8dct=1 / cqm=0 / deadzone=21,11 / fast_pskip=0 / chroma_qp_offset=-2 / threads=12 / lookahead_threads=2 / sliced_threads=0 / nr=0 / decimate=1 / interlaced=0 / bluray_compat=0 / constrained_intra=0 / bframes=3 / b_pyramid=2 / b_adapt=1 / b_bias=0 / direct=1 / weightb=1 / open_gop=0 / weightp=2 / keyint=250 / keyint_min=23 / scenecut=40 / intra_refresh=0 / rc_lookahead=40 / rc=2pass / mbtree=1 / bitrate=6237 / ratetol=1.0 / qcomp=0.60 / qpmin=0 / qpmax=69 / qpstep=4 / cplxblur=20.0 / qblur=0.5 / ip_ratio=1.40 / aq=1:1.00Language                                 : EnglishDefault                                  : YesForced                                   : No

Audio #1ID                                       : 2Format                                   : AC-3Format/Info                              : Audio Coding 3Mode extension                           : CM (complete main)Codec ID                                 : A_AC3Duration                                 : 1h 30mnBit rate mode                            : ConstantBit rate                                 : 384 KbpsChannel(s)                               : 6 channelsChannel positions                        : Front: L C R, Side: L R, LFESampling rate                            : 48.0 KHzBit depth                                : 16 bitsCompression mode                         : LossyStream size                              : 250 MiB (5%)Language                                 : RussianDefault                                  : YesForced                                   : No

Audio #2ID                                       : 3Format                                   : AC-3Format/Info                              : Audio Coding 3Mode extension                           : CM (complete main)Codec ID                                 : A_AC3Duration                                 : 1h 30mnBit rate mode                            : ConstantBit rate                                 : 640 KbpsChannel(s)                               : 6 channelsChannel positions                        : Front: L C R, Side: L R, LFESampling rate                            : 48.0 KHzBit depth                                : 16 bitsCompression mode                         : LossyStream size                              : 416 MiB (9%)Language                                 : EnglishDefault                                  : NoForced                                   : No

Menu00:00:00.000                             : en:00:00:00.00000:05:39.839                             : en:00:05:39.83900:11:28.938                             : en:00:11:28.93800:16:55.139                             : en:00:16:55.13900:22:28.430                             : en:00:22:28.43000:26:59.034                             : en:00:26:59.03400:32:54.639                             : en:00:32:54.63900:37:28.872                             : en:00:37:28.87200:40:58.831                             : en:00:40:58.83100:45:29.310                             : en:00:45:29.31000:49:24.086                             : en:00:49:24.08600:53:43.053                             : en:00:53:43.05300:57:04.921                             : en:00:57:04.92101:01:36.943                             : en:01:01:36.94301:05:54.701                             : en:01:05:54.70101:07:55.238                             : en:01:07:55.23801:11:19.150                             : en:01:11:19.15001:15:32.653                             : en:01:15:32.65301:21:12.826                             : en:01:21:12.82601:28:24.758                             : en:01:28:24.758

piratbit.ru

Скачать фильм Миньоны через торрент в хорошем качестве бесплатно BDRip-AVC от sokol_ok

ОбщееУникальный идентификатор : 215019102120202015529896241787135307160 (0xA1C32C389D16B70198F7C28E6613AD98)Полное имя : M:\Rips\Minions\Minions.2015.BDRip-AVC.Dub.2.18Gb...stalkerok.new-team.mkvФормат : MatroskaРазмер файла : 2,19 ГбайтПродолжительность : 1 ч. 30 м.Общий поток : 3450 Кбит/секНазвание фильма : Minions (2015) (New-Team) (Rip by Stalker oK)Дата кодирования : UTC 2015-11-17 10:02:50Программа кодирования : mkvmerge v7.9.0 ('Birds') 64bitБиблиотека кодирования : libebml v1.3.1 + libmatroska v1.4.2

ВидеоИдентификатор : 1Формат : AVCФормат/Информация : Advanced Video CodecПрофиль формата : [email protected]Параметр CABAC формата : ДаПараметр ReFrames формата : 13 кадрыИдентификатор кодека : V_MPEG4/ISO/AVCПродолжительность : 1 ч. 30 м.Битрейт : 2552 Кбит/секШирина : 1060 пикс.Высота : 572 пикс.Соотношение сторон : 1,853Частота кадров : 23,976 кадр/секЦветовое пространство : YUVПодвыборка цветности : 4:2:0Битовая глубина : 8 битТип развёртки : ПрогрессивнаяБит/(Пиксели*Кадры) : 0.176Размер потока : 1,58 Гбайт (72%)Заголовок : Minions (2015) (New-Team) (Rip by Stalker oK)Библиотека кодирования : x264 core 146 r2538kMod 121396cНастройки программы : cabac=1 / ref=13 / deblock=1:-1:-1 / analyse=0x3:0x133 / me=umh / subme=11 / psy=1 / fade_compensate=0.00 / psy_rd=1.00:0.08 / mixed_ref=1 / me_range=48 / chroma_me=1 / trellis=2 / 8x8dct=1 / cqm=0 / deadzone=21,11 / fast_pskip=0 / chroma_qp_offset=-3 / threads=12 / lookahead_threads=3 / sliced_threads=0 / nr=0 / decimate=0 / interlaced=0 / bluray_compat=0 / constrained_intra=0 / fgo=0 / bframes=13 / b_pyramid=2 / b_adapt=2 / b_bias=0 / direct=3 / weightb=1 / open_gop=0 / weightp=2 / keyint=240 / keyint_min=23 / scenecut=40 / intra_refresh=0 / rc_lookahead=60 / rc=2pass / mbtree=0 / bitrate=2552 / ratetol=1.0 / qcomp=0.70 / qpmin=0 / qpmax=69 / qpstep=4 / cplxblur=20.0 / qblur=0.5 / vbv_maxrate=50000 / vbv_bufsize=62500 / nal_hrd=none / filler=0 / ip_ratio=1.40 / pb_ratio=1.30 / aq=3:0.75

Аудио #1Идентификатор : 2Формат : AC-3Формат/Информация : Audio Coding 3Расширение режима : CM (complete main)Идентификатор кодека : A_AC3Продолжительность : 1 ч. 30 м.Вид битрейта : ПостоянныйБитрейт : 448 Кбит/секКанал(ы) : 6 канала(ов)Расположение каналов : Front: L C R, Side: L R, LFEЧастота : 48,0 КГцБитовая глубина : 16 битМетод сжатия : С потерямиРазмер потока : 291 Мбайт (13%)Язык : Russian

Аудио #2Идентификатор : 3Формат : AC-3Формат/Информация : Audio Coding 3Расширение режима : CM (complete main)Идентификатор кодека : A_AC3Продолжительность : 1 ч. 30 м.Вид битрейта : ПостоянныйБитрейт : 448 Кбит/секКанал(ы) : 6 канала(ов)Расположение каналов : Front: L C R, Side: L R, LFEЧастота : 48,0 КГцБитовая глубина : 16 битМетод сжатия : С потерямиРазмер потока : 291 Мбайт (13%)Язык : English

Текст #1Идентификатор : 4Формат : UTF-8Идентификатор кодека : S_TEXT/UTF8Идентификатор кодека/Информация : UTF-8 Plain TextЗаголовок : forcedЯзык : Russian

Текст #2Идентификатор : 5Формат : UTF-8Идентификатор кодека : S_TEXT/UTF8Идентификатор кодека/Информация : UTF-8 Plain TextЗаголовок : fullЯзык : Russian

Текст #3Идентификатор : 6Формат : UTF-8Идентификатор кодека : S_TEXT/UTF8Идентификатор кодека/Информация : UTF-8 Plain TextЗаголовок : fullЯзык : Ukrainian

Текст #4Идентификатор : 7Формат : UTF-8Идентификатор кодека : S_TEXT/UTF8Идентификатор кодека/Информация : UTF-8 Plain TextЗаголовок : fullЯзык : English

Текст #5Идентификатор : 8Формат : UTF-8Идентификатор кодека : S_TEXT/UTF8Идентификатор кодека/Информация : UTF-8 Plain TextЗаголовок : SDHЯзык : English

Меню00:00:00.000 : en:Chapter 100:05:39.839 : en:Chapter 200:11:28.938 : en:Chapter 300:16:55.139 : en:Chapter 400:22:28.430 : en:Chapter 500:26:59.034 : en:Chapter 600:32:54.639 : en:Chapter 700:37:28.871 : en:Chapter 800:40:58.831 : en:Chapter 900:45:29.309 : en:Chapter 1000:49:24.086 : en:Chapter 1100:53:43.053 : en:Chapter 1200:57:04.921 : en:Chapter 1301:01:36.943 : en:Chapter 1401:05:54.700 : en:Chapter 1501:07:55.237 : en:Chapter 1601:11:19.149 : en:Chapter 1701:15:32.653 : en:Chapter 1801:21:12.826 : en:Chapter 1901:28:24.757 : en:Chapter 20

piratbit.ru


Смотрите также