Скачать бесплатно фильм следопыт через торрент в хорошем качестве


Следопыт 2007 - скачать бесплатно через торрент в хорошем качестве. Без регистрации

Название: Следопыт / Pathfinder (2007) HDRip от KinoHitHD | КПК | P
Качество видео: HDRip | КПК
Перевод: Профессиональный (многоголосый, закадровый)
Видео: х264 MPEG-4 AVC, 640 х 264, 24.000 fps, 750 Кбит/с
Аудио: ААС LC, 2 ch, 128 Кбит/сСкриншоты
Скачать

Загрузка начнется в течение 5 сек.

668.63 MB

Название: Следопыт / Pathfinder (2007) HDTVRip | D | Театральная версия
Качество видео: HDTVRip
Перевод: Профессиональный (дублированный)
Видео: Xvid 720x400 (16/9), 25.000 fps, 1 958 Kbps (0.272 bit/pixel)
Аудио: AC-3, 48.0 KHz, 2 ch, 192 Kbps, CBR
Скачать

Загрузка начнется в течение 5 сек.

1.37 GB

Название: Следопыт / Pathfinder (2007) HDRip | P | Director's Cut
Качество видео: HDRip
Перевод: Профессиональный (многоголосый, закадровый) Blu-ray CEE
Видео: MPEG4, XviD, 720x304 (2.35:1), 23.976 fps, 1 489 Kbps (0.284 bit/pixel)
Аудио: AC-3, 48.0 KHz, 6 ch, 448 Kbps, CBR
Скачать

Загрузка начнется в течение 5 сек.

1.46 GB

Название: Следопыт / Pathfinder (2007) HDRip | A | Director's Cut
Качество видео: HDRip
Перевод: Одноголосый закадровый, авторский
Видео: MPEG4, XviD, 720x304 (2.35:1), 23.976 fps, 1 489 Kbps (0.284 bit/pixel)
Аудио: AC-3, 48.0 KHz, 6 ch, 448 Kbps, CBR
Скачать

Загрузка начнется в течение 5 сек.

1.46 GB

Название: Следопыт / Pathfinder (2007) BDRip-AVC от MediaClub | D, P, P2, A | Режиссерская версия / Director's Cut
Качество видео: BDRip-AVC
Перевод: Дублированный, профессиональный многоголосый, профессиональный двухголосый, авторский одноголосый (Живов), (Немахов)
Видео: MPEG-4 AVC 3500 Кбит/с, 1024x426, 23.976 кадр/с
Аудио: Русский (AC3, 6 ch, 448 Кбит/с) / Профессиональный многоголосый (BD CEE)Русский (AC3, 6 ch, 448 Кбит/с) / Профессиональный многоголосый (Киномания)Русский (AC3, 6 ch, 448 Кбит/с) / Профессиональный двухголосый (Гланц и Королева)Русский (AC3, 6 ch, 448 Кбит/с) / Авторский одноголосый (Живов)Русский (AC3, 6 ch, 448 Кбит/с) / Авторский одноголосый (Немахов)Украинский (AC3, 2 ch, 192 Кбит/с) / Дублированный (1+1)Английский (AC3, 6 ch, 448 Кбит/с)
Скачать

Загрузка начнется в течение 5 сек.

5.11 GB

Название: Следопыт / Pathfinder (2007) BDRip 1080p | Unrated | 60 fps | D, P, P2, A
Качество видео: BDRip 1080p (исходник Blu-ray Disc Remux)
Перевод: Дублированный, Профессиональный (многоголосный закадровый), Профессиональный (двухголосный закадровый), Авторский (Ю.Немахов)
Видео: 1920x800, 14260 Кбит/сек, 59.940 кадр/сек, AVC, x264, [email protected], 2.40:1, 0.155 Бит/[Пиксели*Кадры], 2pass
Аудио: AC-3, 448 Кбит/сек, 6 канала(ов), 48,0 КГц - Дублированный* / РусскийAC-3, 448 Кбит/сек, 6 канала(ов), 48,0 КГц - Многоголосный закадровый, Киномания / РусскийAC-3, 448 Кбит/сек, 6 канала(ов), 48,0 КГц - Двухголосный закадровый, Киномания / РусскийAC-3, 448 Кбит/сек, 6 канала(ов), 48,0 КГц - Одноголосый закадровый, Ю. Немахов / РусскийAC-3, 640 Кбит/сек, 6 канала(ов), 48,0 КГц - Оригинал / Английский
Скачать

Загрузка начнется в течение 5 сек.

12.48 GB

Название: Следопыт / Pathfinder (2007) BDRip 1080p от Youtracker | UNRATED, US Transfer
Перевод: русский дубляж [Лицензия, R5] с местами вставки многоголоски на непереведенную речь и надписи Гланца и Королевой + профессиональный (многоголосый, закадровый) [Лицензия, CEE]
Видео: x264 AVC / [email protected] / 2 pass / 23,976 fps / 1920x800p (2.40:1) / 14,0 Mbps / 0.380
Аудио: AC3 английскаяAC3AC3 / 5.1 ch / 640 kbps / Русский дубляж [R5] + MVO [Гланц и Королева] - на непереведенные местаAC3 / 5.1 ch / 640 kbps / Русский MVO, BD CEEAC3 / 5.1 ch / 640 kbps / Английский original, BD CEE
Скачать

Загрузка начнется в течение 5 сек.

11.91 GB

Название: Следопыт / Pathfinder (2007) BDRip | Расширенная версия | D, P2
Качество видео: BDRip - исх. BDRemux 1080p
Перевод: Профессиональный (полное дублирование) + Профессиональный (двухголосый закадровый) [Гланца и Королёвой] На расширенные моменты
Видео: XviD 688x288 (2.39:1), 23.976 fps, XviD build 50 ~834 kbps avg, 0.17 bit/pixel
Аудио: 48 kHz, MPEG Layer 3, 2 ch, ~128.00 kbps avg
Скачать

Загрузка начнется в течение 5 сек.

745.33 MB

Название: Следопыт / Pathfinder (2007) BDRip 1080р от Freeisland
Качество видео: BDRip.1080p
Перевод: Профессиональный (дублированный)
Формат видео: MKV
Видео: H.264 1920x800 (2.40:1), 23.976 fps, AVC, 5 394 Kbps
Аудио: AC3 AC3, 448 Kbps, 48.0 KHz, 6 ch (Dub + врезки DVO - Гланц и Королёва)
Скачать

Загрузка начнется в течение 5 сек.

6.05 GB

www.kinovit.net

Скачать фильм Следопыт через торрент в хорошем качестве бесплатно 720p

ОбщееУникальный идентификатор : 213098672561724194962073492905737137092 (0xA0514FBBD0A4173CA1EEA70603012BC4)Полное имя : I:\Следопыт\Pathfinder.2007.720p.BluRay.6xRus.2xEng.HDCLUB.mkvФормат : MatroskaВерсия формата : Version 2Размер файла : 11,0 ГбайтПродолжительность : 1 ч. 47 м.Общий поток : 14,7 Мбит/секНазвание фильма : Pathfinder (2007) - Release for HDCLUBДата кодирования : UTC 2012-07-23 15:00:32Программа кодирования : mkvmerge v5.5.0 ('Healer') built on Apr 24 2012 23:47:03Библиотека кодирования : libebml v1.2.3 + libmatroska v1.3.0

ВидеоИдентификатор : 1Формат : AVCФормат/Информация : Advanced Video CodecПрофиль формата : [email protected]Параметр CABAC формата : ДаПараметр ReFrames формата : 8 кадровИдентификатор кодека : V_MPEG4/ISO/AVCПродолжительность : 1 ч. 47 м.Битрейт : 8030 Кбит/секШирина : 1280 пикселейВысота : 532 пикселяСоотношение сторон : 2,40:1Режим частоты кадров : ПостоянныйЧастота кадров : 23,976 кадра/секЦветовое пространство : YUVСубдискретизация насыщенности : 4:2:0Битовая глубина : 8 битТип развёртки : ПрогрессивнаяБит/(Пиксели*Кадры) : 0.492Размер потока : 6,01 Гбайт (55%)Заголовок : Release for HDCLUBБиблиотека кодирования : x264 core 125 r2200 999b753Настройки программы : cabac=1 / ref=8 / deblock=1:-3:-3 / analyse=0x3:0x113 / me=umh / subme=10 / psy=1 / psy_rd=1.00:0.10 / mixed_ref=1 / me_range=48 / chroma_me=1 / trellis=2 / 8x8dct=1 / cqm=0 / deadzone=21,11 / fast_pskip=0 / chroma_qp_offset=-3 / threads=6 / lookahead_threads=1 / sliced_threads=0 / nr=0 / decimate=0 / interlaced=0 / bluray_compat=0 / constrained_intra=0 / bframes=10 / b_pyramid=2 / b_adapt=2 / b_bias=0 / direct=1 / weightb=1 / open_gop=0 / weightp=2 / keyint=240 / keyint_min=23 / scenecut=40 / intra_refresh=0 / rc=crf / mbtree=0 / crf=17.0 / qcomp=0.70 / qpmin=10 / qpmax=51 / qpstep=4 / ip_ratio=1.40 / pb_ratio=1.30 / aq=1:0.80Язык : EnglishDefault : ДаForced : Нет

Аудио #1Идентификатор : 2Формат : DTSФормат/Информация : Digital Theater SystemsРежим : 16Параметр Endianness формата : BigИдентификатор кодека : A_DTSПродолжительность : 1 ч. 47 м.Вид битрейта : ПостоянныйБитрейт : 755 Кбит/секКаналы : 6 каналовРасположение каналов : Front: L C R, Side: L R, LFEЧастота : 48,0 КГцБитовая глубина : 24 битМетод сжатия : С потерямиРазмер потока : 579 Мбайт (5%)Заголовок : Многоголосый, BD CEEЯзык : RussianDefault : ДаForced : Нет

Аудио #2Идентификатор : 3Формат : DTSФормат/Информация : Digital Theater SystemsРежим : 16Параметр Endianness формата : BigИдентификатор кодека : A_DTSПродолжительность : 1 ч. 47 м.Вид битрейта : ПостоянныйБитрейт : 755 Кбит/секКаналы : 6 каналовРасположение каналов : Front: L C R, Side: L R, LFEЧастота : 48,0 КГцБитовая глубина : 24 битМетод сжатия : С потерямиРазмер потока : 579 Мбайт (5%)Заголовок : Дубляж R5, ГланцЯзык : RussianDefault : НетForced : Нет

Аудио #3Идентификатор : 4Формат : AC-3Формат/Информация : Audio Coding 3Расширение режима : CM (complete main)Параметр Endianness формата : BigИдентификатор кодека : A_AC3Продолжительность : 1 ч. 47 м.Вид битрейта : ПостоянныйБитрейт : 448 Кбит/секКаналы : 6 каналовРасположение каналов : Front: L C R, Side: L R, LFEЧастота : 48,0 КГцБитовая глубина : 16 битМетод сжатия : С потерямиРазмер потока : 344 Мбайт (3%)Заголовок : Многоголосый, КиноманияЯзык : RussianDefault : НетForced : Нет

Аудио #4Идентификатор : 5Формат : DTSФормат/Информация : Digital Theater SystemsРежим : 16Параметр Endianness формата : BigИдентификатор кодека : A_DTSПродолжительность : 1 ч. 47 м.Вид битрейта : ПостоянныйБитрейт : 1510 Кбит/секКаналы : 6 каналовРасположение каналов : Front: L C R, Side: L R, LFEЧастота : 48,0 КГцБитовая глубина : 24 битМетод сжатия : С потерямиРазмер потока : 1,13 Гбайт (10%)Заголовок : Двухголосый, Гланц и КоролеваЯзык : RussianDefault : НетForced : Нет

Аудио #5Идентификатор : 6Формат : AC-3Формат/Информация : Audio Coding 3Расширение режима : CM (complete main)Параметр Endianness формата : BigИдентификатор кодека : A_AC3Продолжительность : 1 ч. 47 м.Вид битрейта : ПостоянныйБитрейт : 448 Кбит/секКаналы : 6 каналовРасположение каналов : Front: L C R, Side: L R, LFEЧастота : 48,0 КГцБитовая глубина : 16 битМетод сжатия : С потерямиРазмер потока : 344 Мбайт (3%)Заголовок : Одноголосый, ЖивовЯзык : RussianDefault : НетForced : Нет

Аудио #6Идентификатор : 7Формат : DTSФормат/Информация : Digital Theater SystemsРежим : 16Параметр Endianness формата : BigИдентификатор кодека : A_DTSПродолжительность : 1 ч. 47 м.Вид битрейта : ПостоянныйБитрейт : 755 Кбит/секКаналы : 6 каналовРасположение каналов : Front: L C R, Side: L R, LFEЧастота : 48,0 КГцБитовая глубина : 24 битМетод сжатия : С потерямиРазмер потока : 579 Мбайт (5%)Заголовок : Одноголосый, НемаховЯзык : RussianDefault : НетForced : Нет

Аудио #7Идентификатор : 8Формат : DTSФормат/Информация : Digital Theater SystemsРежим : 16Параметр Endianness формата : BigИдентификатор кодека : A_DTSПродолжительность : 1 ч. 47 м.Вид битрейта : ПостоянныйБитрейт : 1509 Кбит/секКаналы : 6 каналовРасположение каналов : Front: L C R, Side: L R, LFEЧастота : 48,0 КГцБитовая глубина : 24 битМетод сжатия : С потерямиРазмер потока : 1,13 Гбайт (10%)Заголовок : ОригиналЯзык : EnglishDefault : НетForced : Нет

Аудио #8Идентификатор : 9Формат : AC-3Формат/Информация : Audio Coding 3Расширение режима : CM (complete main)Параметр Endianness формата : BigИдентификатор кодека : A_AC3Продолжительность : 1 ч. 47 м.Вид битрейта : ПостоянныйБитрейт : 224 Кбит/секКаналы : 2 каналаРасположение каналов : Front: L RЧастота : 48,0 КГцБитовая глубина : 16 битМетод сжатия : С потерямиРазмер потока : 172 Мбайт (2%)Заголовок : КомментарииЯзык : EnglishDefault : НетForced : Нет

Текст #1Идентификатор : 10Формат : UTF-8Идентификатор кодека : S_TEXT/UTF8Идентификатор кодека/Информация : UTF-8 Plain TextЗаголовок : R5Язык : RussianDefault : НетForced : Нет

Текст #2Идентификатор : 11Формат : UTF-8Идентификатор кодека : S_TEXT/UTF8Идентификатор кодека/Информация : UTF-8 Plain TextЗаголовок : КиноманияЯзык : RussianDefault : НетForced : Нет

Текст #3Идентификатор : 12Формат : UTF-8Идентификатор кодека : S_TEXT/UTF8Идентификатор кодека/Информация : UTF-8 Plain TextЗаголовок : BD CEEЯзык : UkrainianDefault : ДаForced : Нет

Текст #4Идентификатор : 13Формат : UTF-8Идентификатор кодека : S_TEXT/UTF8Идентификатор кодека/Информация : UTF-8 Plain TextЗаголовок : Комментарии режиссераЯзык : RussianDefault : НетForced : Нет

Текст #5Идентификатор : 14Формат : UTF-8Идентификатор кодека : S_TEXT/UTF8Идентификатор кодека/Информация : UTF-8 Plain TextЯзык : EnglishDefault : НетForced : Нет

Меню00:00:00.000 : en:Main Titles/Marauders00:02:06.335 : en:The Viking Ship00:06:09.703 : en:Mystery Child00:10:27.460 : en:Tribal Gathering00:18:16.721 : en:Fear in the Forest00:21:05.473 : en:Rampage00:25:11.844 : en:Death by the Sword00:27:46.456 : en:Bring Me His Head!00:34:34.406 : en:Rescued00:43:24.268 : en:Run and You May Live00:47:37.730 : en:Two Wolves00:55:36.959 : en:Sneak Attack01:00:09.773 : en:Massacre01:02:35.752 : en:In the Caves01:10:17.797 : en:Torture01:14:34.428 : en:Secret Plan01:19:16.210 : en:Across the Lake01:22:06.296 : en:Under the Ice01:24:02.537 : en:Mountain Ledge01:33:31.397 : en:I Know Who I Am01:35:06.492 : en:Not One of Yours01:37:40.229 : en:Spirit Prophecy01:41:31.460 : en:Pathfinder01:42:37.276 : en:End Titles

piratbit.ru

/ Pathfinder ( / Marcus Nispel) [2007, , BDRemux] [UNRATED]

+ EBML head |+ Doc type: matroska |+ Doc type version: 2 |+ Doc type read version: 2 + Segment, size 29767658768 |+ Seek head (subentries will be skipped) |+ Segment tracks | + A track | + Track number: 1 | + Track UID: 1 | + Track type: video | + Enabled: 1 | + Default flag: 1 | + Forced flag: 0 | + Lacing flag: 0 | + MinCache: 1 | + Timecode scale: 1 | + Max BlockAddition ID: 0 | + Codec ID: V_MPEG2 | + Codec decode all: 1 | + CodecPrivate, length 22 | + Default duration: 41.708ms (23.976 fps for a video track) | + Language: eng | + Name: 1920x1080p (2.40:1), 23.976 fps, MPEG-2 ~31821 kbps | + Video track | + Pixel width: 1920 | + Pixel height: 1080 | + Interlaced: 0 | + Display width: 1920 | + Display height: 1080 | + A track | + Track number: 2 | + Track UID: 4130049214 | + Track type: audio | + Enabled: 1 | + Default flag: 1 | + Forced flag: 0 | + Lacing flag: 1 | + MinCache: 0 | + Timecode scale: 1 | + Max BlockAddition ID: 0 | + Codec ID: A_DTS | + Codec decode all: 1 | + Language: rus | + Name: RUS Dub DTS 5.1, 48 kHz, 24 bit, 768 kbps | + Audio track | + Sampling frequency: 48000 | + Channels: 6 | + A track | + Track number: 3 | + Track UID: 130655156 | + Track type: audio | + Enabled: 1 | + Default flag: 0 | + Forced flag: 0 | + Lacing flag: 1 | + MinCache: 0 | + Timecode scale: 1 | + Max BlockAddition ID: 0 | + Codec ID: A_DTS | + Codec decode all: 1 | + Language: rus | + Name: RUS Dub+MVO DTS 5.1, 48 kHz, 24 bit, 768 kbps | + Audio track | + Sampling frequency: 48000 | + Channels: 6 | + A track | + Track number: 4 | + Track UID: 2597576870 | + Track type: audio | + Enabled: 1 | + Default flag: 0 | + Forced flag: 0 | + Lacing flag: 1 | + MinCache: 0 | + Timecode scale: 1 | + Max BlockAddition ID: 0 | + Codec ID: A_AC3 | + Codec decode all: 1 | + Default duration: 32.000ms (31.250 fps for a video track) | + Language: rus | + Name: RUS MVO Kinomania DD 5.1, 48 kHz, 448 kbps | + Audio track | + Sampling frequency: 48000 | + Channels: 6 | + A track | + Track number: 5 | + Track UID: 4208360595 | + Track type: audio | + Enabled: 1 | + Default flag: 0 | + Forced flag: 0 | + Lacing flag: 1 | + MinCache: 0 | + Timecode scale: 1 | + Max BlockAddition ID: 0 | + Codec ID: A_DTS | + Codec decode all: 1 | + Language: rus | + Name: RUS MVO Glanz DTS 5.1, 48 kHz, 24 bit, 768 kbps | + Audio track | + Sampling frequency: 48000 | + Channels: 6 | + A track | + Track number: 6 | + Track UID: 2533383820 | + Track type: audio | + Enabled: 1 | + Default flag: 0 | + Forced flag: 0 | + Lacing flag: 1 | + MinCache: 0 | + Timecode scale: 1 | + Max BlockAddition ID: 0 | + Codec ID: A_DTS | + Codec decode all: 1 | + Language: rus | + Name: RUS AVO Nemakhov DTS 5.1, 48 kHz, 24 bit, 768 kbps | + Audio track | + Sampling frequency: 48000 | + Channels: 6 | + A track | + Track number: 7 | + Track UID: 2527432626 | + Track type: audio | + Enabled: 1 | + Default flag: 0 | + Forced flag: 0 | + Lacing flag: 1 | + MinCache: 0 | + Timecode scale: 1 | + Max BlockAddition ID: 0 | + Codec ID: A_DTS | + Codec decode all: 1 | + Language: eng | + Name: ENG DTS 5.1, 48 kHz, 24 bit, 1536 kbps | + Audio track | + Sampling frequency: 48000 | + Channels: 6 | + A track | + Track number: 8 | + Track UID: 3778918801 | + Track type: audio | + Enabled: 1 | + Default flag: 0 | + Forced flag: 0 | + Lacing flag: 1 | + MinCache: 0 | + Timecode scale: 1 | + Max BlockAddition ID: 0 | + Codec ID: A_AC3 | + Codec decode all: 1 | + Default duration: 32.000ms (31.250 fps for a video track) | + Language: eng | + Name: ENG commentary DD 2.0, 48 kHz, 224 kbps | + Audio track | + Sampling frequency: 48000 | + Channels: 2 | + A track | + Track number: 9 | + Track UID: 3278157754 | + Track type: subtitles | + Enabled: 1 | + Default flag: 1 | + Forced flag: 0 | + Lacing flag: 0 | + MinCache: 0 | + Timecode scale: 1 | + Max BlockAddition ID: 0 | + Codec ID: S_TEXT/UTF8 | + Codec decode all: 1 | + Language: rus | + Name: RUS forced SRT/UTF8 | + A track | + Track number: 10 | + Track UID: 4266621840 | + Track type: subtitles | + Enabled: 1 | + Default flag: 0 | + Forced flag: 0 | + Lacing flag: 0 | + MinCache: 0 | + Timecode scale: 1 | + Max BlockAddition ID: 0 | + Codec ID: S_TEXT/UTF8 | + Codec decode all: 1 | + Language: rus | + Name: RUS R5 SRT/UTF8 | + A track | + Track number: 11 | + Track UID: 2960472708 | + Track type: subtitles | + Enabled: 1 | + Default flag: 0 | + Forced flag: 0 | + Lacing flag: 0 | + MinCache: 0 | + Timecode scale: 1 | + Max BlockAddition ID: 0 | + Codec ID: S_TEXT/UTF8 | + Codec decode all: 1 | + Language: rus | + Name: RUS Kinomania SRT/UTF8 | + A track | + Track number: 12 | + Track UID: 347803521 | + Track type: subtitles | + Enabled: 1 | + Default flag: 0 | + Forced flag: 0 | + Lacing flag: 0 | + MinCache: 0 | + Timecode scale: 1 | + Max BlockAddition ID: 0 | + Codec ID: S_TEXT/UTF8 | + Codec decode all: 1 | + Language: eng | + Name: ENG forced SRT/UTF8 | + A track | + Track number: 13 | + Track UID: 4224992142 | + Track type: subtitles | + Enabled: 1 | + Default flag: 0 | + Forced flag: 0 | + Lacing flag: 0 | + MinCache: 0 | + Timecode scale: 1 | + Max BlockAddition ID: 0 | + Codec ID: S_TEXT/UTF8 | + Codec decode all: 1 | + Language: eng | + Name: ENG SRT/UTF8 | + A track | + Track number: 14 | + Track UID: 3724231569 | + Track type: subtitles | + Enabled: 1 | + Default flag: 0 | + Forced flag: 0 | + Lacing flag: 0 | + MinCache: 0 | + Timecode scale: 1 | + Max BlockAddition ID: 0 | + Codec ID: S_TEXT/UTF8 | + Codec decode all: 1 | + Language: eng | + Name: ENG trivia SRT/UTF8 |+ EbmlVoid (size: 2448) |+ Segment information | + Timecode scale: 1000000 | + Muxing application: libebml v0.7.7 + libmatroska v0.8.1 | + Writing application: mkvmerge v2.9.0 ('Moanin'') built on May 22 2009 17:46:31 | + Duration: 6431.936s (01:47:11.936) | + Date: Sun May 24 19:29:01 2009 UTC | + Title: Pathfinder (2007) [UNRATED] BDRemux | + Segment UID: 0x95 0xd9 0xcd 0xd5 0x62 0xfc 0x66 0x62 0xb1 0x9a 0x51 0x27 0x62 0xe7 0x17 0x6c |+ EbmlVoid (size: 2569) |+ Attachments | + Attached | + File name: cover.jpg | + Mime type: image/jpeg | + File data, size: 150641 | + File UID: 3465450915 |+ Chapters | + EditionEntry | + EditionFlagHidden: 0 | + EditionFlagDefault: 0 | + EditionUID: 3340589953 | + ChapterAtom | + ChapterUID: 3834568076 | + ChapterTimeStart: 00:00:00.000000000 | + ChapterFlagHidden: 0 | + ChapterFlagEnabled: 1 | + ChapterDisplay | + ChapterString: Main Titles/Marauders | + ChapterLanguage: eng | + ChapterAtom | + ChapterUID: 4250195109 | + ChapterTimeStart: 00:02:06.335000000 | + ChapterFlagHidden: 0 | + ChapterFlagEnabled: 1 | + ChapterDisplay | + ChapterString: The Viking Ship | + ChapterLanguage: eng | + ChapterAtom | + ChapterUID: 500033976 | + ChapterTimeStart: 00:06:09.703000000 | + ChapterFlagHidden: 0 | + ChapterFlagEnabled: 1 | + ChapterDisplay | + ChapterString: Mystery Child | + ChapterLanguage: eng | + ChapterAtom | + ChapterUID: 2206502280 | + ChapterTimeStart: 00:10:27.460000000 | + ChapterFlagHidden: 0 | + ChapterFlagEnabled: 1 | + ChapterDisplay | + ChapterString: Tribal Gathering | + ChapterLanguage: eng | + ChapterAtom | + ChapterUID: 283768224 | + ChapterTimeStart: 00:18:16.721000000 | + ChapterFlagHidden: 0 | + ChapterFlagEnabled: 1 | + ChapterDisplay | + ChapterString: Fear in the Forest | + ChapterLanguage: eng | + ChapterAtom | + ChapterUID: 3890156447 | + ChapterTimeStart: 00:21:05.473000000 | + ChapterFlagHidden: 0 | + ChapterFlagEnabled: 1 | + ChapterDisplay | + ChapterString: Rampage | + ChapterLanguage: eng | + ChapterAtom | + ChapterUID: 3503680179 | + ChapterTimeStart: 00:25:11.844000000 | + ChapterFlagHidden: 0 | + ChapterFlagEnabled: 1 | + ChapterDisplay | + ChapterString: Death by the Sword | + ChapterLanguage: eng | + ChapterAtom | + ChapterUID: 2881262760 | + ChapterTimeStart: 00:27:46.456000000 | + ChapterFlagHidden: 0 | + ChapterFlagEnabled: 1 | + ChapterDisplay | + ChapterString: Bring Me His Head! | + ChapterLanguage: eng | + ChapterAtom | + ChapterUID: 3993318543 | + ChapterTimeStart: 00:34:34.406000000 | + ChapterFlagHidden: 0 | + ChapterFlagEnabled: 1 | + ChapterDisplay | + ChapterString: Rescued | + ChapterLanguage: eng | + ChapterAtom | + ChapterUID: 615868841 | + ChapterTimeStart: 00:43:24.268000000 | + ChapterFlagHidden: 0 | + ChapterFlagEnabled: 1 | + ChapterDisplay | + ChapterString: Run and You May Live | + ChapterLanguage: eng | + ChapterAtom | + ChapterUID: 3303710593 | + ChapterTimeStart: 00:47:37.730000000 | + ChapterFlagHidden: 0 | + ChapterFlagEnabled: 1 | + ChapterDisplay | + ChapterString: Two Wolves | + ChapterLanguage: eng | + ChapterAtom | + ChapterUID: 777343164 | + ChapterTimeStart: 00:55:36.959000000 | + ChapterFlagHidden: 0 | + ChapterFlagEnabled: 1 | + ChapterDisplay | + ChapterString: Sneak Attack | + ChapterLanguage: eng | + ChapterAtom | + ChapterUID: 1765008771 | + ChapterTimeStart: 01:00:09.773000000 | + ChapterFlagHidden: 0 | + ChapterFlagEnabled: 1 | + ChapterDisplay | + ChapterString: Massacre | + ChapterLanguage: eng | + ChapterAtom | + ChapterUID: 2083402161 | + ChapterTimeStart: 01:02:35.752000000 | + ChapterFlagHidden: 0 | + ChapterFlagEnabled: 1 | + ChapterDisplay | + ChapterString: In the Caves | + ChapterLanguage: eng | + ChapterAtom | + ChapterUID: 4184993415 | + ChapterTimeStart: 01:10:17.797000000 | + ChapterFlagHidden: 0 | + ChapterFlagEnabled: 1 | + ChapterDisplay | + ChapterString: Torture | + ChapterLanguage: eng | + ChapterAtom | + ChapterUID: 3077009799 | + ChapterTimeStart: 01:14:34.428000000 | + ChapterFlagHidden: 0 | + ChapterFlagEnabled: 1 | + ChapterDisplay | + ChapterString: Secret Plan | + ChapterLanguage: eng | + ChapterAtom | + ChapterUID: 2452122017 | + ChapterTimeStart: 01:19:16.210000000 | + ChapterFlagHidden: 0 | + ChapterFlagEnabled: 1 | + ChapterDisplay | + ChapterString: Across the Lake | + ChapterLanguage: eng | + ChapterAtom | + ChapterUID: 4231110077 | + ChapterTimeStart: 01:22:06.296000000 | + ChapterFlagHidden: 0 | + ChapterFlagEnabled: 1 | + ChapterDisplay | + ChapterString: Under the Ice | + ChapterLanguage: eng | + ChapterAtom | + ChapterUID: 2308821918 | + ChapterTimeStart: 01:24:02.537000000 | + ChapterFlagHidden: 0 | + ChapterFlagEnabled: 1 | + ChapterDisplay | + ChapterString: Mountain Ledge | + ChapterLanguage: eng | + ChapterAtom | + ChapterUID: 2967472773 | + ChapterTimeStart: 01:33:31.397000000 | + ChapterFlagHidden: 0 | + ChapterFlagEnabled: 1 | + ChapterDisplay | + ChapterString: I Know Who I Am | + ChapterLanguage: eng | + ChapterAtom | + ChapterUID: 2360477092 | + ChapterTimeStart: 01:35:06.492000000 | + ChapterFlagHidden: 0 | + ChapterFlagEnabled: 1 | + ChapterDisplay | + ChapterString: Not One of Yours | + ChapterLanguage: eng | + ChapterAtom | + ChapterUID: 1702371744 | + ChapterTimeStart: 01:37:40.229000000 | + ChapterFlagHidden: 0 | + ChapterFlagEnabled: 1 | + ChapterDisplay | + ChapterString: Spirit Prophecy | + ChapterLanguage: eng | + ChapterAtom | + ChapterUID: 429368968 | + ChapterTimeStart: 01:41:31.460000000 | + ChapterFlagHidden: 0 | + ChapterFlagEnabled: 1 | + ChapterDisplay | + ChapterString: Pathfinder | + ChapterLanguage: eng | + ChapterAtom | + ChapterUID: 201445761 | + ChapterTimeStart: 01:42:37.276000000 | + ChapterFlagHidden: 0 | + ChapterFlagEnabled: 1 | + ChapterDisplay | + ChapterString: End Titles | + ChapterLanguage: eng |+ EbmlVoid (size: 101) |+ Cluster

unionpeer.com

Скачать фильм Следопыт через торрент в хорошем качестве бесплатно 1080p

ОбщееУникальный идентификатор : 189978966517042779971380350678786378308 (0x8EEC9E37FE4E94CFB40CA26426500A44)Полное имя : I:\Следопыт\Pathfinder.2007.720p.BluRay.7xRus.Eng.HDCLUB.mkvФормат : MatroskaВерсия формата : Version 4 / Version 2Размер файла : 18,6 ГбайтПродолжительность : 1 ч. 47 м.Общий поток : 24,9 Мбит/секДата кодирования : UTC 2014-12-30 17:11:21Программа кодирования : mkvmerge v7.4.0 ('Circles') 64bit built on Dec 12 2014 12:19:56Библиотека кодирования : libebml v1.3.0 + libmatroska v1.4.1Attachements : coverDURATION : 01:43:05.512000000NUMBER_OF_FRAMES : 1427NUMBER_OF_BYTES : 109732_STATISTICS_WRITING_APP : mkvmerge v7.4.0 ('Circles') 64bit built on Dec 12 2014 12:19:56_STATISTICS_WRITING_DATE_UTC : 2014-12-30 17:11:21_STATISTICS_TAGS : BPS DURATION NUMBER_OF_FRAMES NUMBER_OF_BYTES

ВидеоИдентификатор : 1Формат : AVCФормат/Информация : Advanced Video CodecПрофиль формата : [email protected]Параметр CABAC формата : ДаПараметр ReFrames формата : 5 кадровИдентификатор кодека : V_MPEG4/ISO/AVCПродолжительность : 1 ч. 47 м.Битрейт : 17,5 Мбит/секШирина : 1920 пикселейВысота : 800 пикселейСоотношение сторон : 2,40:1Режим частоты кадров : ПостоянныйЧастота кадров : 23,976 кадра/секЦветовое пространство : YUVСубдискретизация насыщенности : 4:2:0Битовая глубина : 8 битТип развёртки : ПрогрессивнаяБит/(Пиксели*Кадры) : 0.474Размер потока : 13,1 Гбайт (70%)Заголовок : Pathfinder (2007) [Unrated] 1080p BDRipБиблиотека кодирования : x264 core 142 r2431+42 c69a006 tMod [[email protected] X86]Настройки программы : cabac=1 / ref=5 / deblock=1:-3:-3 / analyse=0x3:0x113 / me=umh / subme=11 / psy=1 / fade_compensate=0.00 / psy_rd=1.00:0.00 / mixed_ref=1 / me_range=24 / chroma_me=1 / trellis=2 / 8x8dct=1 / cqm=0 / deadzone=21,11 / fast_pskip=1 / chroma_qp_offset=-2 / threads=12 / lookahead_threads=3 / sliced_threads=0 / nr=0 / decimate=1 / interlaced=0 / bluray_compat=0 / constrained_intra=0 / fgo=0 / bframes=12 / b_pyramid=2 / b_adapt=2 / b_bias=0 / direct=1 / weightb=1 / open_gop=0 / weightp=2 / keyint=250 / keyint_min=23 / scenecut=40 / intra_refresh=0 / rc_lookahead=80 / rc=crf / mbtree=0 / crf=16.5000 / qcomp=0.60 / qpmin=10:10:10 / qpmax=51:51:51 / qpstep=4 / vbv_maxrate=62500 / vbv_bufsize=78125 / crf_max=0.0 / nal_hrd=none / filler=0 / ip_ratio=1.40 / pb_ratio=1.30 / aq=1:1.00 / aq-sensitivity=10.00 / aq-factor=1.00:1.00:1.00 / aq2=0 / aq3=0Язык : EnglishDefault : ДаForced : Нет

Аудио #1Идентификатор : 2Формат : DTSФормат/Информация : Digital Theater SystemsРежим : 16Параметр Endianness формата : BigИдентификатор кодека : A_DTSПродолжительность : 1 ч. 47 м.Вид битрейта : ПостоянныйБитрейт : 755 Кбит/секКаналы : 6 каналовРасположение каналов : Front: L C R, Side: L R, LFEЧастота : 48,0 КГцБитовая глубина : 24 битМетод сжатия : С потерямиРазмер потока : 579 Мбайт (3%)Заголовок : [DVD R5] Dub+Sub - DTS 5.1 @ 768 kbpsЯзык : RussianDefault : ДаForced : Нет

Аудио #2Идентификатор : 3Формат : DTSФормат/Информация : Digital Theater SystemsРежим : 16Параметр Endianness формата : BigИдентификатор кодека : A_DTSПродолжительность : 1 ч. 47 м.Вид битрейта : ПостоянныйБитрейт : 755 Кбит/секКаналы : 6 каналовРасположение каналов : Front: L C R, Side: L R, LFEЧастота : 48,0 КГцБитовая глубина : 24 битМетод сжатия : С потерямиРазмер потока : 579 Мбайт (3%)Заголовок : [DVD R5] Dub+DVO - DTS 5.1 @ 768 kbpsЯзык : RussianDefault : НетForced : Нет

Аудио #3Идентификатор : 4Формат : DTSФормат/Информация : Digital Theater SystemsРежим : 16Параметр Endianness формата : BigИдентификатор кодека : A_DTSПродолжительность : 1 ч. 47 м.Вид битрейта : ПостоянныйБитрейт : 755 Кбит/секКаналы : 6 каналовРасположение каналов : Front: L C R, Side: L R, LFEЧастота : 48,0 КГцБитовая глубина : 24 битМетод сжатия : С потерямиРазмер потока : 579 Мбайт (3%)Заголовок : [BD CEE] MVO - DTS 5.1 @ 768 kbpsЯзык : RussianDefault : НетForced : Нет

Аудио #4Идентификатор : 5Формат : AC-3Формат/Информация : Audio Coding 3Расширение режима : CM (complete main)Параметр Endianness формата : BigИдентификатор кодека : A_AC3Продолжительность : 1 ч. 47 м.Вид битрейта : ПостоянныйБитрейт : 448 Кбит/секКаналы : 6 каналовРасположение каналов : Front: L C R, Side: L R, LFEЧастота : 48,0 КГцБитовая глубина : 16 битМетод сжатия : С потерямиРазмер потока : 344 Мбайт (2%)Заголовок : [Kinomania] MVO - AC3 5.1 @ 448 kbpsЯзык : RussianDefault : НетForced : Нет

Аудио #5Идентификатор : 6Формат : DTSФормат/Информация : Digital Theater SystemsРежим : 16Параметр Endianness формата : BigИдентификатор кодека : A_DTSПродолжительность : 1 ч. 47 м.Вид битрейта : ПостоянныйБитрейт : 1510 Кбит/секКаналы : 6 каналовРасположение каналов : Front: L C R, Side: L R, LFEЧастота : 48,0 КГцБитовая глубина : 24 битМетод сжатия : С потерямиРазмер потока : 1,13 Гбайт (6%)Заголовок : [Glanc] DVO - DTS 5.1 @ 1536 kbpsЯзык : RussianDefault : НетForced : Нет

Аудио #6Идентификатор : 7Формат : DTSФормат/Информация : Digital Theater SystemsРежим : 16Параметр Endianness формата : BigИдентификатор кодека : A_DTSПродолжительность : 1 ч. 47 м.Вид битрейта : ПостоянныйБитрейт : 755 Кбит/секКаналы : 6 каналовРасположение каналов : Front: L C R, Side: L R, LFEЧастота : 48,0 КГцБитовая глубина : 24 битМетод сжатия : С потерямиРазмер потока : 579 Мбайт (3%)Заголовок : [Nemakhov] Avo - DTS 5.1 @ 768 kbpsЯзык : RussianDefault : НетForced : Нет

Аудио #7Идентификатор : 8Формат : AC-3Формат/Информация : Audio Coding 3Расширение режима : CM (complete main)Параметр Endianness формата : BigИдентификатор кодека : A_AC3Продолжительность : 1 ч. 47 м.Вид битрейта : ПостоянныйБитрейт : 448 Кбит/секКаналы : 6 каналовРасположение каналов : Front: L C R, Side: L R, LFEЧастота : 48,0 КГцБитовая глубина : 16 битМетод сжатия : С потерямиРазмер потока : 344 Мбайт (2%)Заголовок : [Givov] AVO - AC3 5.1 @ 448 kbpsЯзык : RussianDefault : НетForced : Нет

Аудио #8Идентификатор : 9Формат : DTSФормат/Информация : Digital Theater SystemsРежим : 16Параметр Endianness формата : BigИдентификатор кодека : A_DTSПродолжительность : 1 ч. 47 м.Вид битрейта : ПостоянныйБитрейт : 1509 Кбит/секКаналы : 6 каналовРасположение каналов : Front: L C R, Side: L R, LFEЧастота : 48,0 КГцБитовая глубина : 24 битМетод сжатия : С потерямиРазмер потока : 1,13 Гбайт (6%)Заголовок : DTS 5.1 @ 1536 kbpsЯзык : EnglishDefault : НетForced : Нет

Текст #1Идентификатор : 10Формат : UTF-8Идентификатор кодека : S_TEXT/UTF8Идентификатор кодека/Информация : UTF-8 Plain TextЗаголовок : [SRT/UTF8] ForcedЯзык : RussianDefault : ДаForced : Нет

Текст #2Идентификатор : 11Формат : UTF-8Идентификатор кодека : S_TEXT/UTF8Идентификатор кодека/Информация : UTF-8 Plain TextЗаголовок : [SRT/UTF8] Full - R5Язык : RussianDefault : НетForced : Нет

Текст #3Идентификатор : 12Формат : UTF-8Идентификатор кодека : S_TEXT/UTF8Идентификатор кодека/Информация : UTF-8 Plain TextЗаголовок : [SRT/UTF8] CommentaryЯзык : RussianDefault : НетForced : Нет

Текст #4Идентификатор : 13Формат : UTF-8Идентификатор кодека : S_TEXT/UTF8Идентификатор кодека/Информация : UTF-8 Plain TextЗаголовок : [SRT/UTF8] Full - KinomaniaЯзык : RussianDefault : НетForced : Нет

Текст #5Идентификатор : 14Формат : UTF-8Идентификатор кодека : S_TEXT/UTF8Идентификатор кодека/Информация : UTF-8 Plain TextЗаголовок : [SRT/UTF8] ForcedЯзык : EnglishDefault : НетForced : Нет

Текст #6Идентификатор : 15Формат : UTF-8Идентификатор кодека : S_TEXT/UTF8Идентификатор кодека/Информация : UTF-8 Plain TextЗаголовок : [SRT/UTF8] FullЯзык : EnglishDefault : НетForced : Нет

Текст #7Идентификатор : 16Формат : UTF-8Идентификатор кодека : S_TEXT/UTF8Идентификатор кодека/Информация : UTF-8 Plain TextЗаголовок : [SRT/UTF8] TriviaЯзык : EnglishDefault : НетForced : Нет

Текст #8Идентификатор : 17Формат : UTF-8Идентификатор кодека : S_TEXT/UTF8Идентификатор кодека/Информация : UTF-8 Plain TextЗаголовок : [SRT/UTF8] FullЯзык : UkrainianDefault : НетForced : Нет

Меню00:00:00.000 : :Main Titles/Marauders00:02:06.335 : :The Viking Ship00:06:09.703 : :Mystery Child00:10:27.460 : :Tribal Gathering00:18:16.721 : :Fear in the Forest00:21:05.473 : :Rampage00:25:11.844 : :Death by the Sword00:27:46.456 : :Bring Me His Head!00:34:34.406 : :Rescued00:43:24.268 : :Run and You May Live00:47:37.730 : :Two Wolves00:55:36.959 : :Sneak Attack01:00:09.773 : :Massacre01:02:35.752 : :In the Caves01:10:17.797 : :Torture01:14:34.428 : :Secret Plan01:19:16.210 : :Across the Lake01:22:06.296 : :Under the Ice01:24:02.537 : :Mountain Ledge01:33:31.397 : :I Know Who I Am01:35:06.492 : :Not One of Yours01:37:40.229 : :Spirit Prophecy01:41:31.460 : :Pathfinder01:42:37.276 : :End Titles

piratbit.ru


Смотрите также