Скачать бесплатно фильм сталинград через торрент в хорошем качестве


Скачать фильм Сталинград через торрент в хорошем качестве бесплатно DVDRip

Раздают: 1 [ 0 KB/s ]
Размер: 2.05 GB | Добавлен: 3 года 9 мес. назад | Торрент скачан:2452 раза
Реклама Дарим 3000 рублей за регистрацию, не упусти свой шанс получить шикарный бонус!!!

29-11-2013 16:48 Сталинград Скачать торрент  

Сталинград

Год выпуска: 2013 Страна: РоссияЖанр: военный, драма, боевикПродолжительность: 02:05:29Перевод: Не требуетсяТип релиза: Лицензия

Режиссер: Фёдор БондарчукПродюссер: Сергей Мелькумов, Антон Златопольский, Дмитрий РудовскийСценарий: Илья Тилькин, Сергей Снежкин, Василий ГроссманБюджет: $30 000 000Премьера в мире: 10 октября 2013

IMDB 4.90 (1977)

В ролях: Мария Смольникова, Яна Студилина, Пётр Фёдоров, Томас Кречман, Сергей Бондарчук, Дмитрий Лысенков, Андрей Смоляков, Алексей Барабаш, Олег Волку, Хайнер Лаутербах,

Описание: 1942-й год. Сталинград. Советские войска планируют контрнаступление на немецкие части, занявшие правый берег Волги. Наступление сорвано. Лишь разведчикам под командованием капитана Громова удается перебраться на другой берег и закрепиться в одном из домов. Им дан приказ удержать его любой ценой. Кроме нескольких чудом уцелевших советских солдат они находят в доме его последнюю жительницу — 19-летнюю Катю.Приказ отбить дом, захваченный противником, получает немецкий офицер Кан. На фоне одного из самых кровопролитных сражений в истории человечества разворачиваются истории любви и драматического противостояния характеров.

Качество: DVDRipФормат: AVIВидео кодек: XviDАудио кодек: AC3Видео: MPEG4, XviD, 720x304 (2.35:1), 25.000 fps, 1 882 Kbps (0.344 bit/pixel)Аудио: AC-3, 48.0 KHz, 6 ch, 448 Kbps, CBR

Формат : AVIФормат/Информация : Audio Video InterleaveПрофиль формата : OpenDMLРазмер файла : 2,05 ГбайтПродолжительность : 2 ч. 5 м.Общий поток : 2342 Кбит/секПрограмма кодирования : VirtualDubMod 1.5.10.3 | www.virtualdub-fr.org || (build 2550/release)Библиотека кодирования : VirtualDubMod build 2550/release

ВидеоИдентификатор : 0Формат : MPEG-4 VisualПрофиль формата : Advanced [email protected]Параметр BVOP формата : 1Параметр QPel формата : НетПараметр GMC формата : Без точки переходаПараметр матрицы формата : ВыборочнаяИдентификатор кодека : XVIDИдентификатор кодека/Подсказка : XviDПродолжительность : 2 ч. 5 м.Битрейт : 1882 Кбит/секШирина : 720 пикселейВысота : 304 пикселяСоотношение сторон : 2,35:1Частота кадров : 25,000 кадров/секЦветовое пространство : YUVСубдискретизация насыщенности : 4:2:0Битовая глубина : 8 битТип развёртки : ПрогрессивнаяМетод сжатия : С потерямиБит/(Пиксели*Кадры) : 0.344Размер потока : 1,65 Гбайт (80%)Библиотека кодирования : XviD 1.2.1 (UTC 2008-12-04)

АудиоИдентификатор : 1Формат : AC-3Формат/Информация : Audio Coding 3Расширение режима : CM (complete main)Параметр Endianness формата : BigИдентификатор кодека : 2000Продолжительность : 2 ч. 5 м.Вид битрейта : ПостоянныйБитрейт : 448 Кбит/секКаналы : 6 каналовРасположение каналов : Front: L C R, Side: L R, LFEЧастота : 48,0 КГцБитовая глубина : 16 битМетод сжатия : С потерямиРазмер потока : 402 Мбайт (19%)Выравнивание : Разделение по промежуткамПродолжительность промежутка : 40 мс. (1,00 видеокадр)Время предзагрузки промежутка : 500 мс.

Скачать Сталинград через торрент http://i5.imageban.ru/out/2013/11/29/efe761c38c669075c9d5e9b26fb0f044.png Скачать фильм Сталинград через торрент бесплантно в хорошем качестве Описание: 1942-й год. Сталинград. Советские войска планируют контрнаступление на немецкие части, занявшие правый берег Волги. Наступление ... 2013-12-26 17:18 9.3 10 207

Loading...

Loading...

Последний раз редактировалось: Neftannik (2013-11-29 18:02), всего редактировалось 1 раз

Рекламный пират

29-11-2013 17:04 Сталинград Скачать торрент  

29-11-2013 17:11 Сталинград Скачать торрент  

О заменим самый успешный фильм в истории российского кинематографа.

29-11-2013 17:20 Сталинград Скачать торрент  

29-11-2013 17:31 Сталинград Скачать торрент  

бюджет отличный!надо было и центы указать

29-11-2013 17:52 Сталинград Скачать торрент  

бюджет : $30 000 000сборы в мире: $66 130 000 сборы в России: $51 457 999

29-11-2013 17:58 Сталинград Скачать торрент  

кэп писал(а):

бюджет : $30 000 000сборы в мире: $66 130 000 сборы в России: $51 457 999

тогда в описании получается ошибочка

Бюджет: $51 457 999

29-11-2013 18:12 Сталинград Скачать торрент  

MalekUA писал(а):

perov2010 писал(а):

Редкое гавнище...

в чем, критериев оценки море, а у тебя как то не информативно))) по моему крепкий середнячок, а спецэффекты и съемки вообще отдельное спасибо, рад за российское кино.Согласен с тобой Хотя мне кажеться , этому фильму надо было дать немного другое название . Враг у Ворот там тоже Сталинград, но его Сталинградом не назвали. Слишком "Масштабное название" А тут ток снят конкретный момент. На 4 из 5 потянет

29-11-2013 18:19 Сталинград Скачать торрент  

Said09 писал(а):

кэп писал(а):

бюджет : $30 000 000сборы в мире: $66 130 000 сборы в России: $51 457 999

тогда в описании получается ошибочка

Бюджет: $51 457 999

какая ошибка? :rofle: это он заработал на данный момент столько в России

Pекламный агент PB

29-11-2013 18:20 Сталинград Скачать торрент  

Ожидал от фильма намного больше. Хрень какая-то.

29-11-2013 18:29 Сталинград Скачать торрент  

полнейший отстой!

29-11-2013 19:12 Сталинград Скачать торрент  

Очередной гавнофильм

29-11-2013 19:21 Сталинград Скачать торрент  

спасибо за раздачу , посмотрю , оценим !

29-11-2013 19:57 Сталинград Скачать торрент  

MalekUA писал(а):

perov2010 писал(а):

Редкое гавнище...

в чем, критериев оценки море, а у тебя как то не информативно))) по моему крепкий середнячок, а спецэффекты и съемки вообще отдельное спасибо, рад за российское кино.да хатябы со спасением р.райана сравнить

29-11-2013 23:15 Сталинград Скачать торрент  

chiganovgennadii писал(а):

MalekUA писал(а):

perov2010 писал(а):

Редкое гавнище...

в чем, критериев оценки море, а у тебя как то не информативно))) по моему крепкий середнячок, а спецэффекты и съемки вообще отдельное спасибо, рад за российское кино.да хатябы со спасением р.райана сравнитьСпасение рядового Райана по сравнению с этим фильмом шедевр)) А Ф. Бондарчук муть какую то снял... Название конечно действительно громкое, для такого фильма.

30-11-2013 10:02 Сталинград Скачать торрент  

спасиб за релиз, но фильм дерьмо полное!!!

30-11-2013 16:00 Сталинград Скачать торрент  

Ну по крайней мере лучше утомленных солнцем !!!

Pекламный агент PB

30-11-2013 16:57 Сталинград Скачать торрент  

Херня какая то бездарная. Еслиб не спец эфекты то на ТВ3 бы тока и попал

30-11-2013 17:37 Сталинград Скачать торрент  

Дерьмо и ещё раз дерьмо. Фильм ниочём!

30-11-2013 20:26 Сталинград Скачать торрент  

Фильм мощный, а то достала вся это американская лобуда, эти фильмокомиксы однодневки. Все те кто отправляет этот фильм в отстой, сами задроты и гомосеки "московские". Да кстати оскар не оскар, а всякое гг типа тихоокеанского рубежа, вспомнить все и т.д. и т.п., за пояс заткнет.Вот и все.

01-12-2013 01:34 Сталинград Скачать торрент  

Порнуха редкая,9ю роту ведь хорошо сделал.Весь фильм в павильёне снят.

01-12-2013 06:03 Сталинград Скачать торрент  

Спасибо за лицензию вам

01-12-2013 08:28 Сталинград Скачать торрент  

посмотрим, оценим, спасибо

01-12-2013 12:12 Сталинград Скачать торрент  

01-12-2013 17:57 Сталинград Скачать торрент  

В Волгограде нынешнем, дом Павлова, который в фильме, до сих пор стоит полуразрушенный, его специально не реставрируют - это памятник. В конце фильма же этот дом разносят просто... Не стыковка с реальным историческим ходом событий.

Pекламный агент PB

Дорогой пользователь! Огромная просьба, поблагодарите релизера, оцените раздачу и оставьте свои комментарий, если Вы скачали Сталинград через торрент бесплатно! Внесите свою лепту в развитие PiratBit!

Комментировать посты могут только пользователи прошедшие не сложную регистрацию

Сталинград через торрент Скачать бесплатно Сталинград Сталинград скачать торрент Сталинград смотреть онлайн Cкачать фильм Сталинград бесплатно Сталинград скачать торрент в хорошем качестве Сталинград смотреть онлайн бесплатно в хорошем качестве

Вы не можете начинать темыВы не можете отвечать на сообщенияВы не можете редактировать свои сообщенияВы не можете удалять свои сообщенияВы не можете голосовать в опросахВы не можете прикреплять файлы к сообщениямВы можете скачивать файлы

piratbit.ru

Скачать фильм Сталинград через торрент в хорошем качестве бесплатно 1080p

GeneralUnique ID : 188838400475286835371526378460301124283 (0x8E10F3F8A179B786B8DC1828C77662BB)Complete name : H:STALINGRAD_3D.mkvFormat : MatroskaFormat version : Version 2File size : 12.5 GiBDuration : 2h 10mnOverall bit rate : 13.7 MbpsMovie name : STALINGRAD_3D_CROP_O/UEncoded date : UTC 2013-12-03 06:22:40Writing application : mkvmerge v5.7.0 ('The Whirlwind') built on Aug 7 2012 14:11:40Writing library : libebml v1.2.3 + libmatroska v1.3.0

VideoID : 1Format : AVCFormat/Info : Advanced Video CodecFormat profile : [email protected] settings, CABAC : YesFormat settings, ReFrames : 4 framesCodec ID : V_MPEG4/ISO/AVCDuration : 2h 10mnBit rate : 12.8 MbpsWidth : 1 920 pixelsHeight : 1 080 pixelsDisplay aspect ratio : 16:9Frame rate mode : VariableFrame rate : 23.976 fpsColor space : YUVChroma subsampling : 4:2:0Bit depth : 8 bitsScan type : ProgressiveBits/(Pixel*Frame) : 0.257Stream size : 11.7 GiB (93%)Title : rip by I/NWriting library : x264 core 128 r2216M 198a7eaEncoding settings : cabac=1 / ref=4 / deblock=1:-3:-3 / analyse=0x3:0x133 / me=umh / subme=10 / psy=1 / psy_rd=1.00:0.15 / mixed_ref=1 / me_range=32 / chroma_me=1 / trellis=2 / 8x8dct=1 / cqm=0 / deadzone=21,11 / fast_pskip=1 / chroma_qp_offset=-3 / threads=8 / lookahead_threads=1 / sliced_threads=0 / nr=0 / decimate=1 / interlaced=0 / bluray_compat=0 / constrained_intra=0 / bframes=6 / b_pyramid=2 / b_adapt=2 / b_bias=0 / direct=3 / weightb=1 / open_gop=0 / weightp=2 / keyint=230 / keyint_min=23 / scenecut=40 / intra_refresh=0 / rc_lookahead=60 / rc=crf / mbtree=1 / crf=17.0 / qcomp=0.60 / qpmin=0 / qpmax=69 / qpstep=4 / vbv_maxrate=40000 / vbv_bufsize=30000 / crf_max=30.0 / nal_hrd=none / ip_ratio=1.40 / aq=1:1.00Default : YesForced : No

AudioID : 2Format : AC-3Format/Info : Audio Coding 3Mode extension : CM (complete main)Codec ID : A_AC3Duration : 2h 10mnBit rate mode : ConstantBit rate : 640 KbpsChannel(s) : 6 channelsChannel positions : Front: L C R, Side: L R, LFESampling rate : 48.0 KHzBit depth : 16 bitsCompression mode : LossyStream size : 599 MiB (5%)Title : OriginalLanguage : RussianDefault : YesForced : No

Menu00:00:00.000 : en:(01)00:00:00:00000:15:37.436 : en:(02)00:15:37:43600:31:59.334 : en:(03)00:31:59:33400:46:05.888 : en:(04)00:46:05:88801:03:22.048 : en:(05)01:03:22:04801:20:44.840 : en:(06)01:20:44:84001:35:53.164 : en:(07)01:35:53:16401:51:11.790 : en:(08)01:51:11:79002:10:48.674 : en:(09)02:10:48:674

piratbit.ru

Скачать фильм Сталинград через торрент в хорошем качестве бесплатно Blu-ray EUR

• Сценарий Ильи Тилькина имеет литературный источник — главы романа Василия Гроссмана.

• Одной из первых ролей в карьере Федора Бондарчука стала роль Ивана в фильме «Сталинград» Юрия Озерова.

• Тиль Швайгер отказался от роли в фильме, аргументируя это нежеланием играть образ офицера нацистской Германии.

• Первый трейлер картины был представлен 17 апреля 2013 года в Лас-Вегасе на выставке CinemaCon.

• «Сталинград» — первый фильм российского производства, который будет выпущен на экраны в формате IMAX 3D.

• Офицера Вермахта, главного антагониста в фильме, сыграл немецкий актер Томас Кречманн. Интересно, что свою творческую карьеру более 20 лет назад Кречманн начал в немецком фильме «Сталинград» (1992) режиссера Йозефа Вильсмайера.

• Съемки проходили под Петербургом (поселок Саперный), на бывшем военном полигоне, были возведены беспрецедентно масштабные для российского кинематографа декорации. Фактически были построены несколько кварталов Сталинграда с элементами, знакомыми зрителю по архивным кадрам. Так, например, был построен прототип знаменитого фонтана «Детский хоровод», который еще называют «Дети и крокодил». Фонтан стал одним из самых узнаваемых символов Сталинградской битвы после снимка последствий авианалета 23 августа 1942-го года, сделанного фотографом Э. Н. Евзерихиным.

• Съемки фильма начались в сентябре 2011-го и продолжались около месяца. Затем работа возобновилась зимой, но основной съемочный период пришелся на 2012-й год — с мая по август 2012-го. В общей сложности съемочный период составил 79 дней.

• Люди на роли в массовке утверждались исключительно самим режиссером. В массовых сценах было задействовано порядка 1000 человек. Костюмы, грим и оружие были детально проработаны для каждого из них. На площадке нет ничего случайного: автомобили, обрывки газет того времени, тумбы с афишами довоенных спектаклей и даже сигаретные окурки — все соответствует той эпохе.

• Возведением и оформлением декораций, стоившим продюсерам около $ 4 млн, занималась команда из 400 специалистов.

• В фильме фигурируют танки Т-34, немецкая самоходная установка и немецкий танк PZ-IV. Вся эта техника — копии. PZ-IV построен на базе советского танка T-44, которому перестроили башню, наварили дополнительные листы, закрыли катки щитами, а на борта нанесли фашистскую свастику. Самоходная установка сделана на базе вездехода. Т-34(76) — это полноразмерный макет из пластика и фанеры. Работу выполнили мастера из Витебска. Эти же художники сделали макет подбитого самолета.

• Перед съемкой боевых сцен специалисты тщательным образом осматривали площадку, убирали камни и вырывали лунки под заряды, которые затем засыпались мягким торфом. Каждый участник, будь он каскадером или актером, знал свой маневр, чтобы не подорваться. Тем не менее, за каждым из исполнителей был закреплен пиротехник, который вел своего человека и дистанционно управлял срабатыванием взрывчатки.

• В фильме более 230 планов с компьютерной графикой.

• Открывающий фильм эпизод с пролетом самолета над Фукусимой длится около двух минут. Этот план целиком создан на компьютере художниками студии Main Road|Post.

• Съёмки в 3D технологии производятся на оригинальном оборудовании, предоставленном голливудской компанией 3ALITY digital. На площадке обслуживание данного оборудования, систем ригов и камер RED Epic велось силами объединённой российско-американской команды, собранной компанией «3D Stereo Art». Визуальными эффектами «Сталинграда» занимается российская компания «Main Road|Post».

• Прообразом дома в фильме стал легендарный Дом Павлова в Сталинграде и его история. Накануне запуска в производство сценарий был значительно переработан, включая сюжет и диалоги.

• По словам режиссера, в тот момент, когда у него ничего не было, кроме сценария и гигантского макета декорации Дома Громова с маленькими фигурками людей, фильм поддержал Владимир Путин. Бюджет фильма состоит на 30% из поддержки Фонда Кино, 20% вложил телеканал «Россия» и 50% — банк ВТБ.

• Исключительную сложность для постановки представляла сцена атаки немецких позиций после взрыва баков с горючим. В этом эпизоде наши солдаты не прекращают бой даже после того, как их накрывает огнем и они вспыхивают, как факела. Съемка оказалась непростым испытанием для всех, кто принимал в ней участие, не исключая операторскую группу. Температура даже в безопасной зоне зашкаливала, и хотя пиротехники делали все возможное, чтобы огонь был минимально допустимым для кадра, стояла нечеловеческая жара. Сцена репетировалась уже перед полностью готовыми камерами. Все участники запомнили каждое свое действие. В этот момент абсолютно все, включая ассистентов и страхующих, были одеты в форму красноармейцев, чтобы даже в случае попадания в объектив не испортить кадр. За три съемочных дня произвели 96 горений. При этом на площадке одновременно горели 14 каскадеров.

• Взрыв здания — одна из самых ответственных сцен фильма, потому что у кинематографистов был всего один съемочный дубль. Если бы что-то пошло не так, то заново отстраивать дом не представлялось возможным, но требуемый художественный эффект был достигнут с первой попытки.

• В сцене с горящими красноармейцами в тех кадрах, где бойцы падают с обрыва, фигурируют компьютерные модели людей. Их строили и анимировали в трехмерном редакторе, опираясь на фотографии актеров. При этом технология анимации носила смешанный характер, какие-то действия анимировались по ключевым кадрам, а какие-то при помощи техники захвата движений.

• В одной из сцен советские самолеты сбивают немецкий бомбардировщик Henkel, который пикирует и с грохотом падает на площадь напротив дома Громова. Этот эпизод целиком создан средствами компьютерной графики и анимации. При работе над компьютерной моделью самолета трехмерщики студии Main Road|Post изучили внешний облик германской машины по фотографиям и взяли во внимание макет самолета, покоившийся на съемочной площадке. Компьютерная модель строилась в Autodesk Maya, а вся динамика разрушений имитировалась в программе Houdini. Помимо этого декорации Сталинграда были также воссозданы в графике по многочисленным фотографиям площадки.

piratbit.ru

Скачать фильм Сталинград через торрент в хорошем качестве бесплатно HDRip

Размер: 1.46 GB | Добавлен: 3 года 9 мес. назад | Торрент скачан:6188 раз
Реклама Дарим 3000 рублей за регистрацию, не упусти свой шанс получить шикарный бонус!!!

29-11-2013 15:48 Сталинград Скачать торрент  

Сталинград

Год выпуска: 2013 Жанр: военный, драма, боевик,Страна: Россия / Арт Пикчерс Студия, Нон-стоп ПродакшнПеревод: Оригинал [лицензия]Продолжительность: 02:05:29

Режиссер: Фёдор БондарчукПродюссер: Сергей Мелькумов, Антон Златопольский, Дмитрий РудовскийСценарий: Илья Тилькин, Сергей Снежкин, Василий Гроссман

Бюджет: $51 457 999Премьера в мире: 10 октября 2013

IMDB 4.90 (1977)

В ролях: Мария Смольникова, Яна Студилина, Пётр Фёдоров, Томас Кречман, Сергей Бондарчук, Дмитрий Лысенков, Андрей Смоляков, Алексей Барабаш, Олег Волку, Хайнер Лаутербах,

Описание: 1942-й год. Сталинград. Советские войска планируют контрнаступление на немецкие части, занявшие правый берег Волги. Наступление сорвано. Лишь разведчикам под командованием капитана Громова удается перебраться на другой берег и закрепиться в одном из домов. Им дан приказ удержать его любой ценой. Кроме нескольких чудом уцелевших советских солдат они находят в доме его последнюю жительницу — 19-летнюю Катю.Приказ отбить дом, захваченный противником, получает немецкий офицер Кан. На фоне одного из самых кровопролитных сражений в истории человечества разворачиваются истории любви и драматического противостояния характеров.

Качество: HDRipФормат: AVIВидео кодек: XviDАудио кодек: AC3Видео: 720x304 (2.37:1), 23.976 fps, XviD build 50 ~1136 kbps avg, 0.22 bit/pixelАудио#1: 48 kHz, AC3 Dolby Digital, 3/2 (L,C,R,l,r) + LFE ch, ~448 kbps

D:DownloadsStalingrad.2013.O.HDRip.1400MB.aviGeneralComplete name : D:DownloadsStalingrad.2013.O.HDRip.1400MB.aviFormat : AVIFormat/Info : Audio Video InterleaveFile size : 1.46 GiBDuration : 2h 10mnOverall bit rate : 1 594 KbpsWriting application : VirtualDubMod 1.5.10.2 (build 2540/release)Writing library : VirtualDubMod build 2540/releaseVideo #0ID : 0Format : MPEG-4 VisualFormat profile : Advanced [email protected] settings, BVOP : 2Format settings, QPel : NoFormat settings, GMC : No warppointsFormat settings, Matrix : CustomCodec ID : XVIDCodec ID/Hint : XviDDuration : 2h 10mnBit rate : 1 137 KbpsWidth : 720 pixelsHeight : 304 pixelsDisplay aspect ratio : 2.35:1Frame rate : 23.976 fpsColor space : YUVChroma subsampling : 4:2:0Bit depth : 8 bitsScan type : ProgressiveCompression mode : LossyBits/(Pixel*Frame) : 0.217Stream size : 1.04 GiB (71%)Writing library : XviD 1.2.1 (UTC 2008-12-04)Audio #1ID : 1Format : AC-3Format/Info : Audio Coding 3Mode extension : CM (complete main)Codec ID : 2000Duration : 2h 10mnBit rate mode : ConstantBit rate : 448 KbpsChannel(s) : 6 channelsChannel positions : Front: L C R, Side: L R, LFESampling rate : 48.0 KHzBit depth : 16 bitsCompression mode : LossyStream size : 419 MiB (28%)Alignment : Split accross interleavesInterleave, duration : 42 ms (1.00 video frame)Interleave, preload duration : 500 ms

Сталинград скачать торрент

Скачать Сталинград через торрент http://pic.pb.wtf/images/6/49aq4.jpg Скачать фильм Сталинград через торрент бесплантно в хорошем качестве Описание: 1942-й год. Сталинград. Советские войска планируют контрнаступление на немецкие части, занявшие правый берег Волги. Наступление ... 2014-01-17 19:41 9.2 10 597

Loading...

Loading...

Последний раз редактировалось: MihailHD (2013-12-01 10:57), всего редактировалось 8 раз(а)

Рекламный пират

29-11-2013 15:50 Сталинград Скачать торрент  

Когда 720р будет?

29-11-2013 15:53 Сталинград Скачать торрент  

Сталинград АКА "Битва за Катю"Интересно, получит он оскАра или нет?

29-11-2013 15:54 Сталинград Скачать торрент  

Фильм , я думаю оскара не получит, не дураки же там оскары выдают

01-12-2013 11:06 Сталинград Скачать торрент  

Обновил на HDRip

01-12-2013 11:31 Сталинград Скачать торрент  

А в imax 3d скоро будет?

01-12-2013 11:41 Сталинград Скачать торрент  

ishchenko

Сегодня должен быть.

01-12-2013 14:31 Сталинград Скачать торрент  

рейтинг ИМДБ радует - 4.8

01-12-2013 14:36 Сталинград Скачать торрент  

с такими халёными мордами, только в таком фильме и сниматься! режиссёру ставлю кол за фильм! чуть не вывернуло от сюжета и фильма в целом! в то время жрать нечего было, корни с земли выдирали, кору жрали!!! а ф фильме морды еле в экран влазят!

Цитата:

Интревью с Бондарчуком:-Скажите, Федор,как Вам фильм "Пираты карибского моря 4"?- Это замечательный фильм! Отличная режиссерская работа! Я снимаю шляпу!- Федор, мы знаем, что Вы снимаете! Расскажите, как Вам фильм? (с)

Pекламный агент PB

01-12-2013 17:17 Сталинград Скачать торрент  

01-12-2013 17:53 Сталинград Скачать торрент  

Animal79 писал(а):

с такими халёными мордами, только в таком фильме и сниматься! режиссёру ставлю кол за фильм! чуть не вывернуло от сюжета и фильма в целом! в то время жрать нечего было, корни с земли выдирали, кору жрали!!! а ф фильме морды еле в экран влазят!

Цитата:

Интревью с Бондарчуком:-Скажите, Федор,как Вам фильм "Пираты карибского моря 4"?- Это замечательный фильм! Отличная режиссерская работа! Я снимаю шляпу!- Федор, мы знаем, что Вы снимаете! Расскажите, как Вам фильм? (с)

+100500)))

01-12-2013 18:21 Сталинград Скачать торрент  

Из последних российских фильмов это один из лучших. Кому не нравится - это его личное дело. Какой другой российский фильм демонстрируют в крупнейших кинотеатрах мира? Зато скольким американским "шедеврам" из серии MARVEL и другому говну наши "великие киноэксперты" поют деферамбы и считают доходы мирового проката. ФИЛЬМ НОРМАЛЬНЫЙ

01-12-2013 20:46 Сталинград Скачать торрент  

Фильм полное дерьмо. Можно было намного лучше снять по такой то теме.

01-12-2013 20:52 Сталинград Скачать торрент  

Достойный фильм!

01-12-2013 21:27 Сталинград Скачать торрент  

mutant4378 писал(а):

Из последних российских фильмов это один из лучших. Кому не нравится - это его личное дело. Какой другой российский фильм демонстрируют в крупнейших кинотеатрах мира? Зато скольким американским "шедеврам" из серии MARVEL и другому говну наши "великие киноэксперты" поют деферамбы и считают доходы мирового проката. ФИЛЬМ НОРМАЛЬНЫЙ

Дерьмо, и в лучшем кинотеатре мира - дерьмо.

01-12-2013 23:25 Сталинград Скачать торрент  

:hmmm ща заценим......

02-12-2013 01:17 Сталинград Скачать торрент  

грусть , печаль ....

Pекламный агент PB

02-12-2013 05:34 Сталинград Скачать торрент  

А мне понравилось.Да,блокбастер...И что?Зато тема,весьма нужная в наше время.По крайней мере фильм не о моральных и половых терзаниях московской офисной амёбы,торчащей на коксе и кинутой на любовь и бабки такой же офисной инфузорией.У моего товарища сына со всем классом(5-й) возили на"Сталинград".ВСЕ вернулись с отвалившимися челюстями и притихшие.Даже не гомонили в автобусе,как обычно,всю обратную дорогу.И это-ГЛАВНОЕ.Они растут,и какими они вырастут-зависит от нас,уже выросших.Ещё раз спасибо за релиз

ФедорКузнецов

02-12-2013 07:25 Сталинград Скачать торрент  

Мне не понравился как то натянуто переиграно или недоиграно , графа аля 300 спартанцев , отстой вообщем . Михалков и тот больше порадовал) А так лучше бы еще раз посмотрел Спасение рядового Района.

02-12-2013 07:53 Сталинград Скачать торрент  

mutant4378 писал(а):

Из последних российских фильмов это один из лучших. Кому не нравится - это его личное дело. Какой другой российский фильм демонстрируют в крупнейших кинотеатрах мира? Зато скольким американским "шедеврам" из серии MARVEL и другому говну наши "великие киноэксперты" поют деферамбы и считают доходы мирового проката. ФИЛЬМ НОРМАЛЬНЫЙ

вы тут сравнили х** с пальцем."шедевры" marvel никак не вяжутся с историческими военными фильмами, не так ли?

tolikss330 писал(а):

Сталинград АКА "Битва за Катю"Интересно, получит он оскАра или нет?

мля, вот это реально описание фильма из трех слов, прямо в точку!

фильм с красивыми спецэффектами, белыми зубками и дебильным "историческим" сюжетом.рейтинг на imdb адекватнее будет (в плане цифр), чем на кинопоиске, где по видимому собрались одни имбицилы, пишущие фразы типа "Сюжет мне очень понравился, особенно батальные сцены".

Посмотрите лучше вот это:

02-12-2013 07:58 Сталинград Скачать торрент  

какой нахрен оскар говно полное не досмотрел

02-12-2013 08:10 Сталинград Скачать торрент  

не хочу защищать бондарчука, но фильм не планировался как исторический, а как блокбастер в антураже ВОВ. так что все эти придирки по поводу реализма и исторической достоверности лишние. фильм такой же исторический как 300 спартанцев.

02-12-2013 10:52 Сталинград Скачать торрент  

Полный отстой.Будет жаль если наши фильмы военной тематики будут снимать в таком духе.Смотрел на перемотке.Хотя может подрастающему поколению и понравятся

02-12-2013 12:54 Сталинград Скачать торрент  

:сonn: Скажу так - "Хорошо, что в кино на него не пошел."

02-12-2013 13:07 Сталинград Скачать торрент  

Честно говоря фильм не понравился! Весь сюжет фильмя тянется вокруг дома и Кати! И причём здесь название фильма СТАЛИНГРАД ! Одним словом фильм не о героях защищавшим город , а о маленькой кучке людей и конечно же любовь ! Нудный и не интерестный фильм!-Враг у ворот намного интерестнее.

Pекламный агент PB

Дорогой пользователь! Огромная просьба, поблагодарите релизера, оцените раздачу и оставьте свои комментарий, если Вы скачали Сталинград через торрент бесплатно! Внесите свою лепту в развитие PiratBit!

Комментировать посты могут только пользователи прошедшие не сложную регистрацию

Сталинград через торрент Скачать бесплатно Сталинград Сталинград скачать торрент Сталинград смотреть онлайн Cкачать фильм Сталинград бесплатно Сталинград скачать торрент в хорошем качестве Сталинград смотреть онлайн бесплатно в хорошем качестве

Вы не можете начинать темыВы не можете отвечать на сообщенияВы не можете редактировать свои сообщенияВы не можете удалять свои сообщенияВы не можете голосовать в опросахВы не можете прикреплять файлы к сообщениямВы можете скачивать файлы

piratbit.ru


Смотрите также