Скачать бесплатно фильм золото маккены в хорошем качестве через торрент


Скачать фильм Золото Маккенны (1969) через торрент

5 июля 2016 06:54 Золото Маккенны / Mackennas Gold (1969) HDTVRip 1080p | D, P, P2, A .torrent   [Информация о файле (нажмите для просмотра)] Перевод: - Профессиональный (дублированный) «Мосфильм» 1974 год - Профессиональный (многоголосный, закадровый) SomeWax (?) - Профессиональный (многоголосный, закадровый) РГТРК «Останкино» - Профессиональный (двухголосый, закадровый) ГТРК «Культура» - Авторский (одноголосый, закадровый) Гаврилов Андрей Юрьевич - Авторский (одноголосый, закадровый) Визгунов Сергей - Авторский (одноголосый, закадровый) Володарский Леонид Вениаминович - СубтитрыКодек: x264Качество: HDTVRip 1080pВидео: 1920x1080, 8000 kbps, 23,976 fpsЗвук: Аудио #1: AC-3, 2 ch, 256 kbps (Rus) - Dub Мосфильм СССР Аудио #2: AC-3, 6 ch, 384 kbps (Rus) - MVO SomeWax Аудио #3: AC-3, 2 ch, 192 kbps (Rus) - MVO РГТРК Останкино Аудио #4: AC-3, 2 ch, 192 kbps (Rus) - DVO ГТРК Культура Аудио #5: AC-3, 2 ch, 192 kbps (Rus) - AVO Гаврилов Андрей Юрьевич Аудио #6: AC-3, 6 ch, 256 kbps (Rus) - AVO Визгунов Сергей Аудио #7: AC-3, 2 ch, 192 kbps (Rus) - AVO Володарский Леонид Вениаминович Аудио #8: AC-3, 6 ch, 256 kbps (Eng)Субтитры: Русские, АнглийскиеВидео: Идентификатор : 1 Формат : AVC Формат/Информация : Advanced Video Codec Профиль формата : [email protected] Параметр CABAC формата : Да Параметр ReFrames формата : 4 кадра Идентификатор кодека : V_MPEG4/ISO/AVC Продолжительность : 2 ч. 7 м. Битрейт : 8000 Кбит/сек Ширина : 1920 пикселей Высота : 1080 пикселей Соотношение сторон : 16:9 Режим частоты кадров : Постоянный Частота кадров : 23,976 кадра/сек Цветовое пространство : YUV Субдискретизация насыщенности : 4:2:0 Битовая глубина : 8 бит Тип развёртки : Прогрессивная Бит/(Пиксели*Кадры) : 0.161 Размер потока : 6,98 Гбайт (79%) Библиотека кодирования : x264 core 146 r2538 121396c Настройки программы : cabac=1 / ref=4 / deblock=1:-3:-3 / analyse=0x3:0x133 / me=umh / subme=11 / psy=1 / psy_rd=1.10:0.10 / mixed_ref=1 / me_range=32 / chroma_me=1 / trellis=2 / 8x8dct=1 / cqm=0 / deadzone=21,11 / fast_pskip=0 / chroma_qp_offset=-3 / threads=12 / lookahead_threads=2 / sliced_threads=0 / nr=0 / decimate=0 / interlaced=0 / bluray_compat=0 / constrained_intra=0 / bframes=10 / b_pyramid=2 / b_adapt=2 / b_bias=0 / direct=3 / weightb=1 / open_gop=0 / weightp=2 / keyint=240 / keyint_min=23 / scenecut=40 / intra_refresh=0 / rc=2pass / mbtree=0 / bitrate=8000 / ratetol=1.0 / qcomp=0.60 / qpmin=0 / qpmax=69 / qpstep=4 / cplxblur=20.0 / qblur=0.5 / ip_ratio=1.40 / pb_ratio=1.30 / aq=1:0.80 Язык : English Default : Нет Forced : Нет Аудио #1: Идентификатор : 2 Формат : AC-3 Формат/Информация : Audio Coding 3 Расширение режима : CM (complete main) Параметр Endianness формата : Big Идентификатор кодека : A_AC3 Продолжительность : 2 ч. 7 м. Вид битрейта : Постоянный Битрейт : 256 Кбит/сек Каналы : 2 канала Расположение каналов : Front: L R Частота : 48,0 КГц Метод сжатия : С потерями Размер потока : 234 Мбайт (3%) Заголовок : Dub Мосфильм СССР Язык : Russian Default : Нет Forced : Нет Аудио #2: Идентификатор : 3 Формат : AC-3 Формат/Информация : Audio Coding 3 Расширение режима : CM (complete main) Параметр Endianness формата : Big Идентификатор кодека : A_AC3 Продолжительность : 2 ч. 7 м. Вид битрейта : Постоянный Битрейт : 384 Кбит/сек Каналы : 6 каналов Расположение каналов : Front: L C R, Side: L R, LFE Частота : 48,0 КГц Метод сжатия : С потерями Размер потока : 352 Мбайт (4%) Заголовок : MVO SomeWax Язык : Russian Default : Нет Forced : Нет Аудио #3: Идентификатор : 4 Формат : AC-3 Формат/Информация : Audio Coding 3 Расширение режима : CM (complete main) Параметр Endianness формата : Big Идентификатор кодека : A_AC3 Продолжительность : 2 ч. 7 м. Вид битрейта : Постоянный Битрейт : 192 Кбит/сек Каналы : 2 канала Расположение каналов : Front: L R Частота : 48,0 КГц Метод сжатия : С потерями Размер потока : 176 Мбайт (2%) Заголовок : MVO РГТРК Останкино (Наталья Защипина, Алексей Инжеватов, Виталий Ованесов, Александр Хотченков) Язык : Russian Default : Нет Forced : Нет Аудио #4: Идентификатор : 5 Формат : AC-3 Формат/Информация : Audio Coding 3 Расширение режима : CM (complete main) Параметр Endianness формата : Big Идентификатор кодека : A_AC3 Продолжительность : 2 ч. 7 м. Вид битрейта : Постоянный Битрейт : 192 Кбит/сек Каналы : 2 канала Расположение каналов : Front: L R Частота : 48,0 КГц Метод сжатия : С потерями Размер потока : 176 Мбайт (2%) Заголовок : DVO ГТРК Культура (Елена Борзунова и Александр Коврижных) Язык : Russian Default : Нет Forced : Нет Аудио #5: Идентификатор : 6 Формат : AC-3 Формат/Информация : Audio Coding 3 Расширение режима : CM (complete main) Параметр Endianness формата : Big Идентификатор кодека : A_AC3 Продолжительность : 2 ч. 7 м. Вид битрейта : Постоянный Битрейт : 192 Кбит/сек Каналы : 2 канала Расположение каналов : Front: L R Частота : 48,0 КГц Метод сжатия : С потерями Размер потока : 176 Мбайт (2%) Заголовок : AVO Гаврилов Андрей Юрьевич Язык : Russian Default : Нет Forced : Нет Аудио #6: Идентификатор : 7 Формат : AC-3 Формат/Информация : Audio Coding 3 Расширение режима : CM (complete main) Параметр Endianness формата : Big Идентификатор кодека : A_AC3 Продолжительность : 2 ч. 7 м. Вид битрейта : Постоянный Битрейт : 256 Кбит/сек Каналы : 6 каналов Расположение каналов : Front: L C R, Side: L R, LFE Частота : 48,0 КГц Метод сжатия : С потерями Размер потока : 234 Мбайт (3%) Заголовок : AVO Визгунов Сергей Язык : Russian Default : Нет Forced : Нет Аудио #7: Идентификатор : 8 Формат : AC-3 Формат/Информация : Audio Coding 3 Расширение режима : CM (complete main) Параметр Endianness формата : Big Идентификатор кодека : A_AC3 Продолжительность : 2 ч. 7 м. Вид битрейта : Постоянный Битрейт : 192 Кбит/сек Каналы : 2 канала Расположение каналов : Front: L R Частота : 48,0 КГц Метод сжатия : С потерями Размер потока : 176 Мбайт (2%) Заголовок : AVO Володарский Леонид Вениаминович Язык : Russian Default : Нет Forced : Нет Аудио #8: Идентификатор : 9 Формат : AC-3 Формат/Информация : Audio Coding 3 Расширение режима : CM (complete main) Параметр Endianness формата : Big Идентификатор кодека : A_AC3 Продолжительность : 2 ч. 7 м. Вид битрейта : Постоянный Битрейт : 256 Кбит/сек Каналы : 6 каналов Расположение каналов : Front: L C R, Side: L R, LFE Частота : 48,0 КГц Метод сжатия : С потерями Размер потока : 234 Мбайт (3%) Язык : English Default : Нет Forced : Нет 8,87 Gb 7 4 5 июля 2016 06:54 Золото Маккенны / Mackennas Gold (1969) DVDRip-AVC | D, P, P2, A .torrent   [Информация о файле (нажмите для просмотра)] Перевод: Профессиональный (дублированный) «Мосфильм» 1974 год Профессиональный (многоголосный, закадровый) SomeWax (предположительно) Профессиональный (многоголосный, закадровый) РГТРК «Останкино» Профессиональный (двухголосый, закадровый) ГТРК «Культура» Авторский (одноголосый, закадровый) Гаврилов Андрей Юрьевич Авторский (одноголосый, закадровый) Визгунов Сергей Авторский (одноголосый, закадровый) Володарский Леонид Вениаминович Авторский (одноголосый, закадровый) Дьяконов КонстантинСубтитры: Кодек: x264Качество: DVDRip-AVCВидео: 1000x428, 4000 kbps, 25 fpsЗвук: Аудио #1: AC-3, 2 ch, 256 kbps (Rus) - Dub Мосфильм СССР Аудио #2: AC-3, 6 ch, 384 kbps (Rus) - MVO SomeWax Аудио #3: AC-3, 2 ch, 192 kbps (Rus) - MVO РГТРК Останкино Аудио #4: AC-3, 2 ch, 192 kbps (Rus) - DVO ГТРК Культура Аудио #5: AC-3, 2 ch, 192 kbps (Rus) - AVO Гаврилов Андрей Юрьевич Аудио #6: AC-3, 6 ch, 256 kbps (Rus) - AVO Визгунов Сергей Аудио #7: AC-3, 2 ch, 192 kbps (Rus) - AVO Володарский Леонид Вениаминович Аудио #8: AC-3, 6 ch, 256 kbps (Rus) - AVO Дьяконов Константин Аудио #9: AC-3, 6 ch, 448 kbps (Eng)Субтитры: Русские (VobSub), Английские (VobSub)Видео: Идентификатор : 1 Формат : AVC Формат/Информация : Advanced Video Codec Профиль формата : [email protected] Параметр CABAC формата : Да Параметр ReFrames формата : 12 кадров Идентификатор кодека : V_MPEG4/ISO/AVC Продолжительность : 2 ч. 2 м. Битрейт : 4000 Кбит/сек Ширина : 1000 пикселей Высота : 428 пикселей Соотношение сторон : 2,35:1 Режим частоты кадров : Постоянный Частота кадров : 25,000 кадров/сек Цветовое пространство : YUV Субдискретизация насыщенности : 4:2:0 Битовая глубина : 8 бит Тип развёртки : Прогрессивная Бит/(Пиксели*Кадры) : 0.374 Размер потока : 3,33 Гбайт (61%) Библиотека кодирования : x264 core 146 r2538 121396c Настройки программы : cabac=1 / ref=12 / deblock=1:-3:-3 / analyse=0x3:0x133 / me=umh / subme=11 / psy=1 / psy_rd=1.00:0.00 / mixed_ref=1 / me_range=32 / chroma_me=1 / trellis=2 / 8x8dct=1 / cqm=0 / deadzone=21,11 / fast_pskip=1 / chroma_qp_offset=-4 / threads=12 / lookahead_threads=2 / sliced_threads=0 / nr=0 / decimate=0 / interlaced=0 / bluray_compat=0 / constrained_intra=0 / bframes=12 / b_pyramid=2 / b_adapt=2 / b_bias=0 / direct=3 / weightb=1 / open_gop=0 / weightp=2 / keyint=250 / keyint_min=25 / scenecut=40 / intra_refresh=0 / rc_lookahead=60 / rc=2pass / mbtree=0 / bitrate=4000 / ratetol=1.0 / qcomp=0.60 / qpmin=0 / qpmax=69 / qpstep=4 / cplxblur=20.0 / qblur=0.5 / vbv_maxrate=50000 / vbv_bufsize=62500 / nal_hrd=none / filler=0 / ip_ratio=1.40 / pb_ratio=1.30 / aq=1:0.80 Язык : English Default : Нет Forced : Нет Аудио #1: Идентификатор : 2 Формат : AC-3 Формат/Информация : Audio Coding 3 Расширение режима : CM (complete main) Параметр Endianness формата : Big Идентификатор кодека : A_AC3 Продолжительность : 2 ч. 2 м. Вид битрейта : Постоянный Битрейт : 256 Кбит/сек Каналы : 2 канала Расположение каналов : Front: L R Частота : 48,0 КГц Метод сжатия : С потерями Размер потока : 225 Мбайт (4%) Заголовок : Dub Мосфильм СССР Язык : Russian Default : Нет Forced : Нет Аудио #2: Идентификатор : 3 Формат : AC-3 Формат/Информация : Audio Coding 3 Расширение режима : CM (complete main) Параметр Endianness формата : Big Идентификатор кодека : A_AC3 Продолжительность : 2 ч. 2 м. Вид битрейта : Постоянный Битрейт : 384 Кбит/сек Каналы : 6 каналов Расположение каналов : Front: L C R, Side: L R, LFE Частота : 48,0 КГц Метод сжатия : С потерями Размер потока : 337 Мбайт (6%) Заголовок : MVO SomeWax Язык : Russian Default : Нет Forced : Нет Аудио #3: Идентификатор : 4 Формат : AC-3 Формат/Информация : Audio Coding 3 Расширение режима : CM (complete main) Параметр Endianness формата : Big Идентификатор кодека : A_AC3 Продолжительность : 2 ч. 2 м. Вид битрейта : Постоянный Битрейт : 192 Кбит/сек Каналы : 2 канала Расположение каналов : Front: L R Частота : 48,0 КГц Метод сжатия : С потерями Размер потока : 169 Мбайт (3%) Заголовок : MVO РГТРК Останкино (Наталья Защипина, Алексей Инжеватов, Виталий Ованесов, Александр Хотченков) Язык : Russian Default : Нет Forced : Нет Аудио #4: Идентификатор : 5 Формат : AC-3 Формат/Информация : Audio Coding 3 Расширение режима : CM (complete main) Параметр Endianness формата : Big Идентификатор кодека : A_AC3 Продолжительность : 2 ч. 2 м. Вид битрейта : Постоянный Битрейт : 192 Кбит/сек Каналы : 2 канала Расположение каналов : Front: L R Частота : 48,0 КГц Метод сжатия : С потерями Размер потока : 169 Мбайт (3%) Заголовок : DVO ГТРК Культура (Елена Борзунова и Александр Коврижных) Язык : Russian Default : Нет Forced : Нет Аудио #5: Идентификатор : 6 Формат : AC-3 Формат/Информация : Audio Coding 3 Расширение режима : CM (complete main) Параметр Endianness формата : Big Идентификатор кодека : A_AC3 Продолжительность : 2 ч. 2 м. Вид битрейта : Постоянный Битрейт : 192 Кбит/сек Каналы : 2 канала Расположение каналов : Front: L R Частота : 48,0 КГц Метод сжатия : С потерями Размер потока : 169 Мбайт (3%) Заголовок : AVO Гаврилов Андрей Юрьевич Язык : Russian Default : Нет Forced : Нет Аудио #6: Идентификатор : 7 Формат : AC-3 Формат/Информация : Audio Coding 3 Расширение режима : CM (complete main) Параметр Endianness формата : Big Идентификатор кодека : A_AC3 Продолжительность : 2 ч. 2 м. Вид битрейта : Постоянный Битрейт : 256 Кбит/сек Каналы : 6 каналов Расположение каналов : Front: L C R, Side: L R, LFE Частота : 48,0 КГц Метод сжатия : С потерями Размер потока : 225 Мбайт (4%) Заголовок : AVO Визгунов Сергей Язык : Russian Default : Нет Forced : Нет Аудио #7: Идентификатор : 8 Формат : AC-3 Формат/Информация : Audio Coding 3 Расширение режима : CM (complete main) Параметр Endianness формата : Big Идентификатор кодека : A_AC3 Продолжительность : 2 ч. 2 м. Вид битрейта : Постоянный Битрейт : 192 Кбит/сек Каналы : 2 канала Расположение каналов : Front: L R Частота : 48,0 КГц Метод сжатия : С потерями Размер потока : 169 Мбайт (3%) Заголовок : AVO Володарский Леонид Вениаминович Язык : Russian Default : Нет Forced : Нет Аудио #8: Идентификатор : 9 Формат : AC-3 Формат/Информация : Audio Coding 3 Расширение режима : CM (complete main) Параметр Endianness формата : Big Идентификатор кодека : A_AC3 Продолжительность : 2 ч. 2 м. Вид битрейта : Постоянный Битрейт : 256 Кбит/сек Каналы : 6 каналов Расположение каналов : Front: L C R, Side: L R, LFE Частота : 48,0 КГц Метод сжатия : С потерями Размер потока : 225 Мбайт (4%) Заголовок : AVO Дьяконов Константин Язык : Russian Default : Нет Forced : Нет Аудио #9: Идентификатор : 10 Формат : AC-3 Формат/Информация : Audio Coding 3 Расширение режима : CM (complete main) Параметр Endianness формата : Big Идентификатор кодека : A_AC3 Продолжительность : 2 ч. 2 м. Вид битрейта : Постоянный Битрейт : 448 Кбит/сек Каналы : 6 каналов Расположение каналов : Front: L C R, Side: L R, LFE Частота : 48,0 КГц Метод сжатия : С потерями Размер потока : 394 Мбайт (7%) Язык : English Default : Нет Forced : Нет 5,47 Gb 6 3 5 июля 2016 06:54 Золото Маккенны / Mackennas Gold (1969) DVDRip от GeneralFilm | D, A .torrent   [Информация о файле (нажмите для просмотра)] Качество: DVDRipисходник (DVD-9)Видео: XviD, 1911 Кбит/с, 720x304Аудио 1: Русский, AC3, 2 ch, 192 Кбит/с | ДублированныйАудио 2: Русский, AC3, 2 ch, 192 Кбит/с | Авторский (А.Гаврилов)Аудио 3: Английский, AC3, 2 ch, 192 Кбит/с | ОригиналПеревод: Дублированный. авторский 2,18 Gb 3 3 5 июля 2016 06:53 Золото Маккенны / Mackennas Gold (1969) HDTVRip от R. G. Jolly Roger | D .torrent   [Информация о файле (нажмите для просмотра)] Перевод: Профессиональный (полное дублирование) [Cоветский дубляж]Кодек: XviD, AVIКачество: HDTVRipВидео: 720x400, 23,976 fps, 1425 kbps avg, 0.206 bit/pixelЗвук: AC3 Dolby Digital, 48 kHz, 2 LFE ch, 192 kbps 1,46 Gb 7 2 5 июля 2016 06:53 Золото Маккены / Mackennas Gold (1969) DVDRip-AVC от Torrent-Xzona .torrent   [Информация о файле (нажмите для просмотра)] Перевод: Профессиональный многоголосыйСубтитры: НетКодек: x264Качество: DVDRip-AVCВидео: MPEG4,1024 x 576, 25,000 fps, ~1750 Кбит/сЗвук: AC-3, 6 ch, 384 Кбит/с 1,83 Gb 12 2 5 июля 2016 06:53 Золото Маккенны / Mackennas Gold (1969) HDRip от AndrewWhite .torrent   [Информация о файле (нажмите для просмотра)] Перевод: ДублированныйКодек: XviDКачество: HDRipВидео: 1767 Кбит/с, 720x400Звук: AC3, 6 ch, 448 Кбит/сСубтитры: нет 2,05 Gb 3 1 5 июля 2016 06:53 Золото Маккенны / Mackennas Gold (1969) HDTVRip 720p .torrent   [Информация о файле (нажмите для просмотра)] Перевод: ДубляжКодек: MPEG-4-AVCКачество: HDTVRip 720pФормат: MKVВидео: 1280 x 720, 23.976 fps, 3973 KbpsЗвук: RUS #1:48.0 KHz, AC-3, 256 Kbps, 2 channels, (дубляж)Субтитры: Русские, Английские(вшитые, отключаемые) 4,13 Gb 3 3 5 июля 2016 06:53 Золото Маккенны / Mackenna`s Gold (1969) DVDRip .torrent   [Информация о файле (нажмите для просмотра)] Перевод: Русский профессиональный дубляжФормат: XviDКачество: DVDRipВидео: XviD, 720 x 304, 1396 кб/сАудио: AC3, 192 кб/с 1,36 Gb 3 5

gig-torrent.net

Скачать фильм Золото Маккенны через торрент в хорошем качестве бесплатно DVDRip

Золото Маккенны / Mackenna's Gold

Год выпуска: 1969Страна: США / Columbia PicturesЖанр: Вестерн, приключенияПродолжительность: 02:02:35Перевод: Профессиональный (полное дублирование)Тип релиза: Лицензия

Режиссер: Джерри Ли ТомпсонПродюссер: Карл Формен, Дмитрий ТёмкинСценарий: Карл Формен, Хек Аллен

Бюджет: $7 000 000Премьера в мире: 18 марта 1969

В ролях: Омар Шариф, Грегори Пек, Ли Дж. Кобб, Кинен Уинн, Энтони Куэйл, Телли Савалас, Баргесс Мередит, Эдвард Дж. Робинсон, Эли Уоллаш, Камилла Спарв, Раймонд Мэсси, Тед Кассиди, Джули Ньюмар

Описание: Благодаря случайным обстоятельствам шериф Маккенна узнает о том, где спрятано золото древнего индейского племени. В качестве «живой карты» он становится заложником бандита Колорадо, который мечтает найти каньон «дьявольское наваждение»… К группе головорезов примыкают все новые и новые охотники за богатством, но далеко не всем суждено будет добраться до цели. Тем более вернуться живыми, ведь на пути к заветной цели их ждет неизвестность…

Похожие раздачи: Золото Маккенны

Доп. информация:«Золото Маккенны» в СССР:В 1973 году картина демонстрировалась на внеконкурсном показе VIII Московского международного кинофестиваля. А в июле-августе 1974 года вышла на экраны СССР, став первым американским вестерном в советском прокате со времени Великолепной семерки. Помимо обычного дубляжа, выполненного на студии Мосфильм, прокатный вариант включал в себя и новую версию (русский текст Леонида Дербенева) песни Old Turkey Buzzard, которую исполнил Валерий Ободзинский. В дубляже картины принимали участие актеры:Феликс Яворский (закадровый текст)Владимир Дружников (Маккенна)Анатолий Кузнецов (Колорадо)Константин Тыртов (Адамс)Антонина Кончакова (Инга)Анатолий Соловьев (Тиббс)Алексей Алексеев (Бейкер)Геннадий Юдин (немолодой англичанин)Григорий Шпигель (владелец магазина)Сергей Курилов (редактор),Ян Беленький (проповедник)

Релиз на видео:Релиз данного фильма состоялся на VHS в США в 1977 году. В СССР с 1980-х годов издавались с советским дубляжем и с одноголосыми закадровыми переводами М. Н. Иванова, А. Ю. Гаврилова, Л. В. Володарского и других... В России они выпускались в системе PAL, с 1996 года он выпущен на VHS изданием West Video. В 2002 году он выпущен на DVD в России с профессиональным одноголосым переводом Юрия Живова на канале 5.1 Surround.

Места съемок:Натурные съемки проводились в Аризоне, в национальных парках Каньон-де-Шелли и Глен-Каньон

[url=http://www. СПАМ

\\Home\торрент загрузки\Zoloto.Makkeny.1969.XviD.DVDRip.aviGeneralComplete name : \\Home\торрент загрузки\Zoloto.Makkeny.1969.XviD.DVDRip.aviFormat : AVIFormat/Info : Audio Video InterleaveFile size : 1.36 GiBDuration : 2h 2mnOverall bit rate : 1 593 KbpsWriting application : VirtualDubMod 1.5.4.1 (build 2178/release)Writing library : VirtualDubMod build 2178/releaseVideo #0ID : 0Format : MPEG-4 VisualFormat profile : Advanced [email protected] settings, BVOP : 1Format settings, QPel : NoFormat settings, GMC : No warppointsFormat settings, Matrix : CustomCodec ID : XVIDCodec ID/Hint : XviDDuration : 2h 2mnBit rate : 1 394 KbpsWidth : 720 pixelsHeight : 304 pixelsDisplay aspect ratio : 2.35:1Frame rate : 25.000 fpsColor space : YUVChroma subsampling : 4:2:0Bit depth : 8 bitsScan type : ProgressiveCompression mode : LossyBits/(Pixel*Frame) : 0.255Stream size : 1.19 GiB (88%)Writing library : XviD 1.2.0.dev47 (UTC 2006-11-01)Audio #1ID : 1Format : AC-3Format/Info : Audio Coding 3Mode extension : CM (complete main)Codec ID : 2000Duration : 2h 2mnBit rate mode : ConstantBit rate : 192 KbpsChannel(s) : 2 channelsChannel positions : Front: L RSampling rate : 48.0 KHzBit depth : 16 bitsCompression mode : LossyStream size : 168 MiB (12%)Alignment : Split accross interleavesInterleave, duration : 96 ms (2.40 video frames)Interleave, preload duration : 96 msLanguage : Russian

Качество: DVDRipФормат: AVIВидео кодек: XviDАудио кодек: AC3Видео: XviD, 1396 Кбит/с, 720x304Аудио: AC3 , 2 ch, 192 Кбит/с

piratbit.ru

Скачать фильм Золото Маккенны через торрент в хорошем качестве бесплатно HDTVRip

Размер: 4.13 GB | Добавлен: 5 лет 11 мес. назад | Торрент скачан:45 раз
Реклама Дарим 3000 рублей за регистрацию, не упусти свой шанс получить шикарный бонус!!!

30-10-2011 14:52 Золото Маккенны Скачать торрент  

Золото Маккенны / Mackennas G'old Год выпуска: 1969Страна: СШАЖанр: ВестернПродолжительность: 02:08:05Перевод: Профессиональный (полное дублирование) (Cоветский дубляж)Режиссер: Дж. Ли Томпсон / J. Lee ThompsonВ ролях: Грегори Пек (MacKenna), Омар Шариф (Colorado), Телли Савалас (Sgt. Tibbs), Камилла Спарв (Inga Bergmann), Кинен Уинн (Sanchez), Джули Ньюмар (Hesh-Ke),Тед Кэссиди (Hachita), Ли Дж. Кобб (The Editor), Рэймонд Мэсси (The Preacher), Бёрджесс Мередит (The Storekeeper), Энтони Куэйл (Older Englishman), Эдвард, Дж.Робинсон (Old Adams)Описание:Великолепный, приключенческий фильм о поисках золотого каньона. Тысячу лет хранили апачи легенду о золотом каньоне, который охраняют могучие стражи. Но тайну о том, где спрятано золото индейского племени, случайно услышал шериф Маккенна. А бандит Колорадо, узнав, что шериф обладает столь ценными сведениями, взял Маккенна в заложники в качестве "живой карты", которая должна привести его к сокровищам. По пути в горы к золотоискателям примыкали все новые и новые охотники за богатством, но далеко не всем суждено было добраться до цели и вернуться обратно живыми...Вероятно самый известный вестерн из проката СССР 70-х. В отличие от фильмов про индейцев восточногерманской DEFA с неизменным сербом Гойко Митичем в главной роли, здесь всё настоящее - настоящие индейцы, настоящие алчные бледнолицые американцы и даже настоящая ирландка. Грегори Пек, Омар Шариф, Телли Савалас, Джули Немар в приключенческой саге о поисках затерянного золотого каньона. Этот великолепный фильм пронизан романтическим духом Большого Приключения от первого до последнего кадра. Величественные пейзажи дикого Запада, прекрасная музыка, колоритные герои и старинная легенда о золоте таинственного каньона - все это сразу настраивает на волнующее путешествие в мир настоящего вестерна, которое вы и совершите, посмотрев картину. Знаменитейшая тема "Old Turkey Buzzard", которую в оригинале исполняет Хосе Фелициано (музыка Куинси Джонса, слова Фредди Дугласа). Качество: HDTVRipФормат: MKVВидео кодек: MPEG-4 AVCАудио кодек: AC3Видео: 1280х720 (16:9),23.976 fps, 3 783 Kbps, 0.18 bit/pixelАудио Russian: AC3, 256 Kbps, 2 channels, 48kHz Аудио English: AC3, 384 Kbps, 6 channes, 48kHz Скачать Золото Маккенны через торрент http://i29.fastpic.ru/big/2011/1030/04/4fdc65b1afa8c5d0d9f65c170dac3104.jpg Скачать фильм Золото Маккенны через торрент бесплантно в хорошем качестве Описание:Великолепный, приключенческий фильм о поисках золотого каньона. Тысячу лет хранили апачи легенду о золотом каньоне, который ... 2011-10-30 14:52 5 10 6

Loading...

Loading...

Рекламный пират

31-10-2011 16:21 Золото Маккенны Скачать торрент  

Прикольный фильмец. СПАСИБО

Дорогой пользователь! Огромная просьба, поблагодарите релизера, оцените раздачу и оставьте свои комментарий, если Вы скачали Золото Маккенны через торрент бесплатно! Внесите свою лепту в развитие PiratBit!

Комментировать посты могут только пользователи прошедшие не сложную регистрацию

Золото Маккенны через торрент Скачать бесплатно Золото Маккенны Золото Маккенны скачать торрент Золото Маккенны смотреть онлайн Cкачать фильм Золото Маккенны бесплатно Золото Маккенны скачать торрент в хорошем качестве Золото Маккенны смотреть онлайн бесплатно в хорошем качестве

Вы не можете начинать темыВы не можете отвечать на сообщенияВы не можете редактировать свои сообщенияВы не можете удалять свои сообщенияВы не можете голосовать в опросахВы не можете прикреплять файлы к сообщениямВы можете скачивать файлы

piratbit.ru

Скачать фильм Золото Маккенны через торрент в хорошем качестве бесплатно 720p by msltel] DUB

ОбщееУникальный идентификатор : 249022729069364744436735001167978696907 (0xBB5808779697C7D5846E6C7AD22E10CB)Полное имя : D:\Video\Золото Маккенны.1969.BDRip.720p by msltel.mkvФормат : MatroskaВерсия формата : Version 4 / Version 2Размер файла : 6,34 ГбайтПродолжительность : 2 ч. 8 м.Общий поток : 7075 Кбит/секНазвание фильма : Rip by msltelДата кодирования : UTC 2017-05-15 07:10:52Программа кодирования : mkvmerge v8.2.0 ('World of Adventure') 64bitБиблиотека кодирования : libebml v1.3.1 + libmatroska v1.4.2

ВидеоИдентификатор : 1Формат : AVCФормат/Информация : Advanced Video CodecПрофиль формата : [email protected]Параметр CABAC формата : ДаПараметр ReFrames формата : 9 кадровИдентификатор кодека : V_MPEG4/ISO/AVCПродолжительность : 2 ч. 8 м.Битрейт : 4095 Кбит/секШирина : 1280 пикселейВысота : 544 пикселяСоотношение сторон : 2,35:1Режим частоты кадров : ПостоянныйЧастота кадров : 23,976 (24000/1001) кадра/секЦветовое пространство : YUVСубдискретизация насыщенности : 4:2:0Битовая глубина : 8 битТип развёртки : ПрогрессивнаяБит/(Пиксели*Кадры) : 0.245Размер потока : 3,67 Гбайт (58%)Библиотека кодирования : x264 core 146 r2538 121396cНастройки программы : cabac=1 / ref=9 / deblock=1:-3:-2 / analyse=0x3:0x113 / me=umh / subme=11 / psy=1 / psy_rd=1.00:0.15 / mixed_ref=1 / me_range=32 / chroma_me=1 / trellis=2 / 8x8dct=1 / cqm=0 / deadzone=21,11 / fast_pskip=0 / chroma_qp_offset=-3 / threads=6 / lookahead_threads=1 / sliced_threads=0 / nr=0 / decimate=1 / interlaced=0 / bluray_compat=0 / constrained_intra=0 / bframes=7 / b_pyramid=2 / b_adapt=2 / b_bias=0 / direct=1 / weightb=1 / open_gop=0 / weightp=2 / keyint=230 / keyint_min=23 / scenecut=40 / intra_refresh=0 / rc_lookahead=40 / rc=crf / mbtree=0 / crf=18.0 / qcomp=0.60 / qpmin=0 / qpmax=69 / qpstep=4 / vbv_maxrate=62500 / vbv_bufsize=78125 / crf_max=0.0 / nal_hrd=none / filler=0 / ip_ratio=1.40 / pb_ratio=1.30 / aq=1:1.00Язык : EnglishDefault : ДаForced : Нет

Аудио #1Идентификатор : 2Формат : AC-3Формат/Информация : Audio Coding 3Параметр Endianness формата : BigИдентификатор кодека : A_AC3Продолжительность : 2 ч. 8 м.Вид битрейта : ПостоянныйБитрейт : 224 Кбит/секКаналы : 2 каналаРасположение каналов : Front: L RЧастота : 48,0 КГцЧастота кадров : 31,250 кадров/сек (1536 spf)Битовая глубина : 16 битМетод сжатия : С потерямиРазмер потока : 205 Мбайт (3%)Заголовок : DUB (Мосфильм)Язык : RussianServiceKind/String : Complete MainDefault : ДаForced : Нет

Аудио #2Идентификатор : 3Формат : AC-3Формат/Информация : Audio Coding 3Параметр Endianness формата : BigИдентификатор кодека : A_AC3Продолжительность : 2 ч. 8 м.Вид битрейта : ПостоянныйБитрейт : 384 Кбит/секКаналы : 6 каналовРасположение каналов : Front: L C R, Side: L R, LFEЧастота : 48,0 КГцЧастота кадров : 31,250 кадров/сек (1536 spf)Битовая глубина : 16 битМетод сжатия : С потерямиРазмер потока : 352 Мбайт (5%)Заголовок : MVO (SomeWax)Язык : RussianServiceKind/String : Complete MainDefault : НетForced : Нет

Аудио #3Идентификатор : 4Формат : AC-3Формат/Информация : Audio Coding 3Параметр Endianness формата : BigИдентификатор кодека : A_AC3Продолжительность : 2 ч. 8 м.Вид битрейта : ПостоянныйБитрейт : 192 Кбит/секКаналы : 2 каналаРасположение каналов : Front: L RЧастота : 48,0 КГцЧастота кадров : 31,250 кадров/сек (1536 spf)Битовая глубина : 16 битМетод сжатия : С потерямиРазмер потока : 176 Мбайт (3%)Заголовок : MVO (Останкино)Язык : RussianServiceKind/String : Complete MainDefault : НетForced : Нет

Аудио #4Идентификатор : 5Формат : AC-3Формат/Информация : Audio Coding 3Параметр Endianness формата : BigИдентификатор кодека : A_AC3Продолжительность : 2 ч. 8 м.Вид битрейта : ПостоянныйБитрейт : 192 Кбит/секКаналы : 2 каналаРасположение каналов : Front: L RЧастота : 48,0 КГцЧастота кадров : 31,250 кадров/сек (1536 spf)Битовая глубина : 16 битМетод сжатия : С потерямиРазмер потока : 176 Мбайт (3%)Заголовок : DVO (т/к Культура)Язык : RussianServiceKind/String : Complete MainDefault : НетForced : Нет

Аудио #5Идентификатор : 6Формат : AC-3Формат/Информация : Audio Coding 3Параметр Endianness формата : BigИдентификатор кодека : A_AC3Продолжительность : 2 ч. 8 м.Вид битрейта : ПостоянныйБитрейт : 448 Кбит/секКаналы : 6 каналовРасположение каналов : Front: L C R, Side: L R, LFEЧастота : 48,0 КГцЧастота кадров : 31,250 кадров/сек (1536 spf)Битовая глубина : 16 битМетод сжатия : С потерямиРазмер потока : 411 Мбайт (6%)Заголовок : AVO (Сергей Визгунов)Язык : RussianServiceKind/String : Complete MainDefault : НетForced : Нет

Аудио #6Идентификатор : 7Формат : AC-3Формат/Информация : Audio Coding 3Параметр Endianness формата : BigИдентификатор кодека : A_AC3Продолжительность : 2 ч. 8 м.Вид битрейта : ПостоянныйБитрейт : 192 Кбит/секКаналы : 2 каналаРасположение каналов : Front: L RЧастота : 48,0 КГцЧастота кадров : 31,250 кадров/сек (1536 spf)Битовая глубина : 16 битМетод сжатия : С потерямиРазмер потока : 176 Мбайт (3%)Заголовок : AVO (Леонид Володарский)Язык : RussianServiceKind/String : Complete MainDefault : НетForced : Нет

Аудио #7Идентификатор : 8Формат : AC-3Формат/Информация : Audio Coding 3Параметр Endianness формата : BigИдентификатор кодека : A_AC3Продолжительность : 2 ч. 8 м.Вид битрейта : ПостоянныйБитрейт : 448 Кбит/секКаналы : 6 каналовРасположение каналов : Front: L C R, Side: L R, LFEЧастота : 48,0 КГцЧастота кадров : 31,250 кадров/сек (1536 spf)Битовая глубина : 16 битМетод сжатия : С потерямиРазмер потока : 411 Мбайт (6%)Заголовок : AVO (Андрей Гаврилов)Язык : RussianServiceKind/String : Complete MainDefault : НетForced : Нет

Аудио #8Идентификатор : 9Формат : AC-3Формат/Информация : Audio Coding 3Параметр Endianness формата : BigИдентификатор кодека : A_AC3Продолжительность : 2 ч. 8 м.Вид битрейта : ПостоянныйБитрейт : 448 Кбит/секКаналы : 6 каналовРасположение каналов : Front: L C R, Side: L R, LFEЧастота : 48,0 КГцЧастота кадров : 31,250 кадров/сек (1536 spf)Битовая глубина : 16 битМетод сжатия : С потерямиРазмер потока : 411 Мбайт (6%)Заголовок : AVO (Константин Дьяконов)Язык : RussianServiceKind/String : Complete MainDefault : НетForced : Нет

Аудио #9Идентификатор : 10Формат : AC-3Формат/Информация : Audio Coding 3Параметр Endianness формата : BigИдентификатор кодека : A_AC3Продолжительность : 2 ч. 8 м.Вид битрейта : ПостоянныйБитрейт : 448 Кбит/секКаналы : 6 каналовРасположение каналов : Front: L C R, Side: L R, LFEЧастота : 48,0 КГцЧастота кадров : 31,250 кадров/сек (1536 spf)Битовая глубина : 16 битМетод сжатия : С потерямиРазмер потока : 411 Мбайт (6%)Заголовок : originalЯзык : EnglishServiceKind/String : Complete MainDefault : НетForced : Нет

Текст #1Идентификатор : 11Формат : UTF-8Идентификатор кодека : S_TEXT/UTF8Идентификатор кодека/Информация : UTF-8 Plain TextПродолжительность : 2 ч. 7 м.Битрейт : 42 бит/секElementCount : 1095Размер потока : 40,1 Кбайт (0%)Заголовок : русскиеЯзык : RussianDefault : НетForced : Нет

Текст #2Идентификатор : 12Формат : UTF-8Идентификатор кодека : S_TEXT/UTF8Идентификатор кодека/Информация : UTF-8 Plain TextПродолжительность : 2 ч. 5 м.Битрейт : 31 бит/секElementCount : 912Размер потока : 29,1 Кбайт (0%)Заголовок : английскиеЯзык : EnglishDefault : НетForced : Нет

Меню00:00:00.000 : :Chapter 0100:08:01.814 : :Chapter 0200:21:54.813 : :Chapter 0300:31:03.692 : :Chapter 0400:42:42.476 : :Chapter 0500:51:23.746 : :Chapter 0601:04:33.077 : :Chapter 0701:14:31.800 : :Chapter 0801:23:19.077 : :Chapter 0901:35:43.738 : :Chapter 1001:45:07.716 : :Chapter 1101:58:03.283 : :Chapter 1202:08:15.060 : :Chapter 13

piratbit.ru

Скачать фильм Золото Маккенны через торрент в хорошем качестве бесплатно 1080p by msltel] DUB

ОбщееУникальный идентификатор : 254569742224148038416355257297171960173 (0xBF845954AF6520D3B9BA3EABCC0CD16D)Полное имя : D:\Video\Золото Маккенны.1969.BDRip.1080p by msltel.mkvФормат : MatroskaВерсия формата : Version 4 / Version 2Размер файла : 12,6 ГбайтПродолжительность : 2 ч. 8 м.Общий поток : 14,1 Мбит/секНазвание фильма : Rip by msltelДата кодирования : UTC 2017-05-16 07:12:32Программа кодирования : mkvmerge v8.2.0 ('World of Adventure') 64bitБиблиотека кодирования : libebml v1.3.1 + libmatroska v1.4.2

ВидеоИдентификатор : 1Формат : AVCФормат/Информация : Advanced Video CodecПрофиль формата : [email protected]Параметр CABAC формата : ДаПараметр ReFrames формата : 4 кадраИдентификатор кодека : V_MPEG4/ISO/AVCПродолжительность : 2 ч. 8 м.Битрейт : 10,1 Мбит/секШирина : 1920 пикселейВысота : 816 пикселейСоотношение сторон : 2,35:1Режим частоты кадров : ПостоянныйЧастота кадров : 23,976 (24000/1001) кадра/секЦветовое пространство : YUVСубдискретизация насыщенности : 4:2:0Битовая глубина : 8 битТип развёртки : ПрогрессивнаяБит/(Пиксели*Кадры) : 0.268Размер потока : 9,03 Гбайт (71%)Библиотека кодирования : x264 core 146 r2538 121396cНастройки программы : cabac=1 / ref=4 / deblock=1:-3:-2 / analyse=0x3:0x113 / me=umh / subme=11 / psy=1 / psy_rd=1.00:0.15 / mixed_ref=1 / me_range=32 / chroma_me=1 / trellis=2 / 8x8dct=1 / cqm=0 / deadzone=21,11 / fast_pskip=0 / chroma_qp_offset=-3 / threads=6 / lookahead_threads=1 / sliced_threads=0 / nr=0 / decimate=1 / interlaced=0 / bluray_compat=0 / constrained_intra=0 / bframes=7 / b_pyramid=2 / b_adapt=2 / b_bias=0 / direct=1 / weightb=1 / open_gop=0 / weightp=2 / keyint=230 / keyint_min=23 / scenecut=40 / intra_refresh=0 / rc_lookahead=40 / rc=crf / mbtree=0 / crf=17.6 / qcomp=0.60 / qpmin=0 / qpmax=69 / qpstep=4 / vbv_maxrate=62500 / vbv_bufsize=78125 / crf_max=0.0 / nal_hrd=none / filler=0 / ip_ratio=1.40 / pb_ratio=1.30 / aq=1:1.00Язык : EnglishDefault : ДаForced : Нет

Аудио #1Идентификатор : 2Формат : AC-3Формат/Информация : Audio Coding 3Параметр Endianness формата : BigИдентификатор кодека : A_AC3Продолжительность : 2 ч. 8 м.Вид битрейта : ПостоянныйБитрейт : 224 Кбит/секКаналы : 2 каналаРасположение каналов : Front: L RЧастота : 48,0 КГцЧастота кадров : 31,250 кадров/сек (1536 spf)Битовая глубина : 16 битМетод сжатия : С потерямиРазмер потока : 205 Мбайт (2%)Заголовок : DUB (Мосфильм)Язык : RussianServiceKind/String : Complete MainDefault : ДаForced : Нет

Аудио #2Идентификатор : 3Формат : AC-3Формат/Информация : Audio Coding 3Параметр Endianness формата : BigИдентификатор кодека : A_AC3Продолжительность : 2 ч. 8 м.Вид битрейта : ПостоянныйБитрейт : 384 Кбит/секКаналы : 6 каналовРасположение каналов : Front: L C R, Side: L R, LFEЧастота : 48,0 КГцЧастота кадров : 31,250 кадров/сек (1536 spf)Битовая глубина : 16 битМетод сжатия : С потерямиРазмер потока : 352 Мбайт (3%)Заголовок : MVO (SomeWax)Язык : RussianServiceKind/String : Complete MainDefault : НетForced : Нет

Аудио #3Идентификатор : 4Формат : AC-3Формат/Информация : Audio Coding 3Параметр Endianness формата : BigИдентификатор кодека : A_AC3Продолжительность : 2 ч. 8 м.Вид битрейта : ПостоянныйБитрейт : 192 Кбит/секКаналы : 2 каналаРасположение каналов : Front: L RЧастота : 48,0 КГцЧастота кадров : 31,250 кадров/сек (1536 spf)Битовая глубина : 16 битМетод сжатия : С потерямиРазмер потока : 176 Мбайт (1%)Заголовок : MVO (Останкино)Язык : RussianServiceKind/String : Complete MainDefault : НетForced : Нет

Аудио #4Идентификатор : 5Формат : AC-3Формат/Информация : Audio Coding 3Параметр Endianness формата : BigИдентификатор кодека : A_AC3Продолжительность : 2 ч. 8 м.Вид битрейта : ПостоянныйБитрейт : 192 Кбит/секКаналы : 2 каналаРасположение каналов : Front: L RЧастота : 48,0 КГцЧастота кадров : 31,250 кадров/сек (1536 spf)Битовая глубина : 16 битМетод сжатия : С потерямиРазмер потока : 176 Мбайт (1%)Заголовок : DVO (т/к Культура)Язык : RussianServiceKind/String : Complete MainDefault : НетForced : Нет

Аудио #5Идентификатор : 6Формат : AC-3Формат/Информация : Audio Coding 3Параметр Endianness формата : BigИдентификатор кодека : A_AC3Продолжительность : 2 ч. 8 м.Вид битрейта : ПостоянныйБитрейт : 448 Кбит/секКаналы : 6 каналовРасположение каналов : Front: L C R, Side: L R, LFEЧастота : 48,0 КГцЧастота кадров : 31,250 кадров/сек (1536 spf)Битовая глубина : 16 битМетод сжатия : С потерямиРазмер потока : 411 Мбайт (3%)Заголовок : AVO (Сергей Визгунов)Язык : RussianServiceKind/String : Complete MainDefault : НетForced : Нет

Аудио #6Идентификатор : 7Формат : AC-3Формат/Информация : Audio Coding 3Параметр Endianness формата : BigИдентификатор кодека : A_AC3Продолжительность : 2 ч. 8 м.Вид битрейта : ПостоянныйБитрейт : 192 Кбит/секКаналы : 2 каналаРасположение каналов : Front: L RЧастота : 48,0 КГцЧастота кадров : 31,250 кадров/сек (1536 spf)Битовая глубина : 16 битМетод сжатия : С потерямиРазмер потока : 176 Мбайт (1%)Заголовок : AVO (Леонид Володарский)Язык : RussianServiceKind/String : Complete MainDefault : НетForced : Нет

Аудио #7Идентификатор : 8Формат : AC-3Формат/Информация : Audio Coding 3Параметр Endianness формата : BigИдентификатор кодека : A_AC3Продолжительность : 2 ч. 8 м.Вид битрейта : ПостоянныйБитрейт : 448 Кбит/секКаналы : 6 каналовРасположение каналов : Front: L C R, Side: L R, LFEЧастота : 48,0 КГцЧастота кадров : 31,250 кадров/сек (1536 spf)Битовая глубина : 16 битМетод сжатия : С потерямиРазмер потока : 411 Мбайт (3%)Заголовок : AVO (Андрей Гаврилов)Язык : RussianServiceKind/String : Complete MainDefault : НетForced : Нет

Аудио #8Идентификатор : 9Формат : AC-3Формат/Информация : Audio Coding 3Параметр Endianness формата : BigИдентификатор кодека : A_AC3Продолжительность : 2 ч. 8 м.Вид битрейта : ПостоянныйБитрейт : 448 Кбит/секКаналы : 6 каналовРасположение каналов : Front: L C R, Side: L R, LFEЧастота : 48,0 КГцЧастота кадров : 31,250 кадров/сек (1536 spf)Битовая глубина : 16 битМетод сжатия : С потерямиРазмер потока : 411 Мбайт (3%)Заголовок : AVO (Константин Дьяконов)Язык : RussianServiceKind/String : Complete MainDefault : НетForced : Нет

Аудио #9Идентификатор : 10Формат : DTSФормат/Информация : Digital Theater SystemsРежим : 16Параметр Endianness формата : BigИдентификатор кодека : A_DTSПродолжительность : 2 ч. 8 м.Вид битрейта : ПостоянныйБитрейт : 1509 Кбит/секКаналы : 2 каналаРасположение каналов : Front: L RЧастота : 48,0 КГцЧастота кадров : 93,750 кадра/сек (512 spf)Битовая глубина : 24 битМетод сжатия : С потерямиРазмер потока : 1,35 Гбайт (11%)Заголовок : originalЯзык : EnglishDefault : НетForced : Нет

Текст #1Идентификатор : 11Формат : UTF-8Идентификатор кодека : S_TEXT/UTF8Идентификатор кодека/Информация : UTF-8 Plain TextПродолжительность : 2 ч. 7 м.Битрейт : 42 бит/секElementCount : 1095Размер потока : 40,1 Кбайт (0%)Заголовок : русскиеЯзык : RussianDefault : НетForced : Нет

Текст #2Идентификатор : 12Формат : UTF-8Идентификатор кодека : S_TEXT/UTF8Идентификатор кодека/Информация : UTF-8 Plain TextПродолжительность : 2 ч. 5 м.Битрейт : 31 бит/секElementCount : 912Размер потока : 29,1 Кбайт (0%)Заголовок : английскиеЯзык : EnglishDefault : НетForced : Нет

Меню00:00:00.000 : :Chapter 0100:08:01.814 : :Chapter 0200:21:54.813 : :Chapter 0300:31:03.692 : :Chapter 0400:42:42.476 : :Chapter 0500:51:23.746 : :Chapter 0601:04:33.077 : :Chapter 0701:14:31.800 : :Chapter 0801:23:19.077 : :Chapter 0901:35:43.738 : :Chapter 1001:45:07.716 : :Chapter 1101:58:03.283 : :Chapter 1202:08:15.060 : :Chapter 13

piratbit.ru

Скачать фильм Золото Маккенны через торрент в хорошем качестве бесплатно 1080p] Dub

Золото Маккенны / Mackenna's Gold

Страна: США Производство: Columbia Pictures Corporation, Highroad Productions, Open RoadГод выпуска: 1969Жанр: мелодрама, вестерн, приключенияПродолжительность: 02:08:16

Режиссер: Дж. Ли Томпсон

Авторы сценария: Карл Форман, Хек Аллен

В ролях: Грегори Пек, Омар Шариф, Телли Савалас, Камилла Спарв, Кинен Уинн, Джули Ньюмар, Тед Кэссиди, Ли Дж. Кобб, Рэймонд Мэсси

Описание: Благодаря случайным обстоятельствам шериф Маккенна узнаёт о том, где спрятано золото древнего индейского племени. В качестве «живой карты» он становится заложником бандита Колорадо, который мечтает найти каньон «дьявольское наваждение»… К группе головорезов примыкают всё новые и новые охотники за богатством, но далеко не всем суждено будет добраться до цели. Тем более вернуться живыми, ведь на пути к заветной цели их ждет неизвестность…

Перевод: Профессиональный (дублированный) + Профессиональный (двухголосый) + 2х Профессиональный (многоголосый) + 4х АвторскийСубтитры: английские, русские

Качество: BDRemux 1080pФормат: M2TSВидео кодек: AVCАудио кодек: АС3 | DTS-HDВидео: 1920x1080 (16:9), 23.976 fps, MPEG-4 AVC Video ~29.5 Мbps avgАудио №1: 48.0 kHz, AC3 Dolby Digital, 3/2 (L,C,R,l,r) + LFE ch, ~448 kbps | ENG / DVD R1Аудио №2: 48.0 kHz, AC3 Dolby Digital, 3/2 (L,C,R,l,r) + LFE ch, ~384 kbps | MVO / Some WaxАудио №3: 48.0 kHz, AC3 Dolby Digital, 3/2 (L,C,R,l,r) + LFE ch, ~448 kbps | AVO / Андрей ГавриловАудио №4: 48.0 kHz, AC3 Dolby Digital, 3/2 (L,C,R,l,r) + LFE ch, ~448 kbps | AVO / Сергей ВизгуновАудио №5: 48.0 kHz, AC3 Dolby Digital, 3/2 (L,C,R,l,r) + LFE ch, ~448 kbps | AVO / Константин ДьяконовАудио №6: 48.0 kHz, DTS-HD Master Audio, 2/0 (L,R) ch, ~2033 kbps / 24-bit | ENGАудио №7: 48.0 kHz, AC3 Dolby Digital, 2/0 (L,R) ch, ~224 kbps | DUB / МосфильмАудио №8: 48.0 kHz, AC3 Dolby Digital, 2/0 (L,R) ch, ~192 kbps | MVO / ОстанкиноАудио №9: 48.0 kHz, AC3 Dolby Digital, 2/0 (L,R) ch, ~192 kbps | DVO / ТК КультураАудио №10: 48.0 kHz, AC3 Dolby Digital, 2/0 (L,R) ch, ~192 kbps | AVO / Леонид ВолодарскийАудио №11: 48.0 kHz, AC3 Dolby Digital, 2/0 (L,R) ch, ~192 kbps | MVO / украинский / ИнтерАудио №12: 48.0 kHz, AC3 Dolby Digital, 2/0 (L,R) ch, ~192 kbps | MVO / украинский / 1+1Аудио №13: 48.0 kHz, AC3 Dolby Digital, 2/0 (L,R) ch, ~192 kbps | MVO / украинский / ICTV

Формат субтитров: Presentation Graphics

Дата премьеры (мир): 18 марта 1969

релиз на DVD: 23 июля 2002, «DVD Магия»

Релиз от: Spielllberg

Дополнительная информация: аудиодорожки: AVO Володарский - Nadoelo, MVO Останкино - Fikaloid, украинские MVO - Hurtom

DISC INFO:

Disc Title: Mackenna's.Gold.1969.1080p.AVC.BDRemux

Disc Size: 35 857 443 296 bytes

Protection: AACS

BD-Java: No

BDInfo: 0.5.6

PLAYLIST REPORT:

Name: 00000.MPLS

Length: 2:08:16 (h:m:s)

Size: 35 857 330 176 bytes

Total Bitrate: 37,27 Mbps

VIDEO:

Codec Bitrate Deion

----- ------- -----------

MPEG-4 AVC Video 29523 kbps 1080p / 23,976 fps / 16:9 / High Profile 4.1

AUDIO:

Codec Language Bitrate Deion

----- -------- ------- -----------

Dolby Digital Audio English 448 kbps 5.1 / 48 kHz / 448 kbps / DN -4dB

Dolby Digital Audio Russian 384 kbps 5.1 / 48 kHz / 384 kbps / DN -4dB

Dolby Digital Audio Russian 448 kbps 5.1 / 48 kHz / 448 kbps / DN -4dB

Dolby Digital Audio Russian 448 kbps 5.1 / 48 kHz / 448 kbps / DN -4dB

Dolby Digital Audio Russian 448 kbps 5.1 / 48 kHz / 448 kbps / DN -4dB

DTS-HD Master Audio English 2033 kbps 2.0 / 48 kHz / 2033 kbps / 24-bit (DTS Core: 2.0 / 48 kHz / 1509 kbps / 24-bit)

Dolby Digital Audio Russian 224 kbps 2.0 / 48 kHz / 224 kbps / DN -4dB

Dolby Digital Audio Russian 192 kbps 2.0 / 48 kHz / 192 kbps / DN -4dB

Dolby Digital Audio Russian 192 kbps 2.0 / 48 kHz / 192 kbps / DN -4dB

Dolby Digital Audio Russian 192 kbps 2.0 / 48 kHz / 192 kbps / DN -4dB

Dolby Digital Audio Ukrainian 192 kbps 2.0 / 48 kHz / 192 kbps / DN -4dB

Dolby Digital Audio Ukrainian 192 kbps 2.0 / 48 kHz / 192 kbps / DN -4dB

Dolby Digital Audio Ukrainian 192 kbps 2.0 / 48 kHz / 192 kbps / DN -4dB

SUBTITLES:

Codec Language Bitrate Deion

----- -------- ------- -----------

Presentation Graphics English 14,068 kbps

Presentation Graphics Russian 14,109 kbps

FILES:

Name Time In Length Size Total Bitrate

---- ------- ------ ---- -------------

00000.M2TS 0:00:00.000 2:08:16.170 35 857 330 176 37 273

CHAPTERS:

Number Time In Length Avg Video Rate Max 1-Sec Rate Max 1-Sec Time Max 5-Sec Rate Max 5-Sec Time Max 10Sec Rate Max 10Sec Time Avg Frame Size Max Frame Size Max Frame Time

piratbit.ru


Смотрите также