Скачать через торрент фильм 22 минуты 2014 в хорошем качестве


Скачать фильм 22 минуты (2014) через торрент

16 февраля 2016 10:43 22 минуты (2014) BDRip 720p от KinoGadget | iPad .torrent   [Информация о файле (нажмите для просмотра)] Перевод: Оригинал (русский)Качество: BDRip 720pФормат: mp4 1,44 Gb 49 2 16 февраля 2016 10:43 22 минуты (2013) HDRip от Scarabey | Лицензия .torrent   [Информация о файле (нажмите для просмотра)] Перевод: не требуетсяВидео: 720x304 (2.37:1), 24 fps, XviD build 73 ~2037 kbps avg, 0.39 bit/pixelАудио: 48 kHz, AC3 Dolby Digital, 3/2 (L,C,R,l,r) + LFE ch, ~448.00 kbps avg 1,44 Gb 107 9 16 февраля 2016 10:43 22 минуты (2013) HDRip от Scarabey | Лицензия .torrent   [Информация о файле (нажмите для просмотра)] Перевод: не требуетсяВидео: 688x288 (2.39:1), 24 fps, XviD build 73 ~1122 kbps avg, 0.24 bit/pixelАудио: 48 kHz, MPEG Layer 3, 2 ch, ~128.00 kbps avg 746,78 Mb 41 2 16 февраля 2016 10:43 22 минуты (2014) BDRip 720p от Leonardo and Scarabey .torrent   [Информация о файле (нажмите для просмотра)] Перевод: Оригинал (лицензия)Формат: MKVВидео кодек: MPEG-4 AVC Аудио кодек: AC3Видео: AVC, 1280x534 (2.40:1) at 24.000 fps, AVC at 3338 kbps avg, 0.203 bit/pixelАудио: Russian: 48 kHz; AC3 5.1; 640.00 kbps avg; Russian 2,35 Gb 162 7 16 февраля 2016 10:43 22 минуты (2014) DVDRip от MediaClub | КПК .torrent   [Информация о файле (нажмите для просмотра)] Перевод: ОригиналКодек: MPEG-4Качество: DVDRipВидео: 499 Кбит/с, 320x128, 25.000 кадр/сЗвук: Русский (AAC, 2 ch, 128 Кбит/с) 359,7 Mb 37 2 16 февраля 2016 10:43 22 минуты (2014) BDRip от HQCLUB | Лицензия .torrent   [Информация о файле (нажмите для просмотра)] Субтитры: нетФормат: AVIКачество: BDRip (источник:Видео: 720x304 (2.37:1), 24 fps, XviD build 65 ~2052 kbps avg, 0.39 bit/pixelАудио: 48 kHz, AC3 Dolby Digital, 3/2 (L,C,R,l,r) + LFE ch, ~448 kbps avg 1,45 Gb 450 14 16 февраля 2016 10:43 22 минуты (2014) BDRip-AVC от HELLYWOOD | Лицензия .torrent   [Информация о файле (нажмите для просмотра)] Перевод: Оригинал [лицензия] Субтитры: НетКачество: BDRip-AVCФормат: MKVВидео: х.264, 984x410 (2,40:1), 24,000 fps, 2077 Кbps, 0.215 bit/pixelАудио: 48 kHz, AC3 Dolby Digital, 3/2 (L,C,R,l,r) + LFE ch, 448.00 kbps 1,46 Gb 16 2 16 февраля 2016 10:43 22 минуты (2014) BDRip 720p .torrent   [Информация о файле (нажмите для просмотра)] Перевод: Оригинал (лицензия)Кодек: x264Качество: BDRip (источник: Blu-ray Disc)Видео: 1280x534 (2,40:1), 24 fps, 4400 kbpsАудио: AC-3, 6 ch, 640 kbpsВидео: Идентификатор : 1 Формат : AVC Формат/Информация : Advanced Video Codec Профиль формата : [email protected] Параметр CABAC формата : Да Параметр ReFrames формата : 11 кадров Идентификатор кодека : V_MPEG4/ISO/AVC Продолжительность : 1 ч. 22 м. Битрейт : 4397 Кбит/сек Ширина : 1280 пикселей Высота : 534 пикселя Соотношение сторон : 2,40:1 Режим частоты кадров : Постоянный Частота кадров : 24,000 кадра/сек Цветовое пространство : YUV Субдискретизация насыщенности : 4:2:0 Битовая глубина : 8 бит Тип развёртки : Прогрессивная Бит/(Пиксели*Кадры) : 0.268 Размер потока : 2,49 Гбайт (85%) Заголовок : Release by AlexKa Библиотека кодирования : x264 core 142 r2431 ac76440 Настройки программы : cabac=1 / ref=11 / deblock=1:-3:-3 / analyse=0x3:0x133 / me=umh / subme=11 / psy=1 / psy_rd=1.00:0.00 / mixed_ref=1 / me_range=32 / chroma_me=1 / trellis=2 / 8x8dct=1 / cqm=0 / deadzone=21,11 / fast_pskip=0 / chroma_qp_offset=-2 / threads=12 / lookahead_threads=2 / sliced_threads=0 / nr=0 / decimate=0 / interlaced=0 / bluray_compat=0 / constrained_intra=0 / bframes=9 / b_pyramid=2 / b_adapt=2 / b_bias=0 / direct=3 / weightb=1 / open_gop=0 / weightp=2 / keyint=240 / keyint_min=24 / scenecut=40 / intra_refresh=0 / rc=2pass / mbtree=0 / bitrate=4397 / ratetol=1.0 / qcomp=0.60 / qpmin=0 / qpmax=69 / qpstep=4 / cplxblur=20.0 / qblur=0.5 / ip_ratio=1.40 / pb_ratio=1.30 / aq=1:1.00 Язык : RussianАудио: Идентификатор : 2 Формат : AC-3 Формат/Информация : Audio Coding 3 Расширение режима : CM (complete main) Параметр Endianness формата : Big Идентификатор кодека : A_AC3 Продолжительность : 1 ч. 22 м. Вид битрейта : Постоянный Битрейт : 640 Кбит/сек Каналы : 6 каналов Расположение каналов : Front: L C R, Side: L R, LFE Частота : 48,0 КГц Битовая глубина : 16 бит Метод сжатия : С потерями Размер потока : 379 Мбайт (13%) Заголовок : Rus Язык : Russian 2,91 Gb 162 4 16 февраля 2016 10:43 22 минуты (2014) BDRip 720p от HELLYWOOD | Лицензия .torrent   [Информация о файле (нажмите для просмотра)] Перевод: Оригинал [лицензия] Субтитры: НетКачество: BDRip 720pФормат: MKVВидео: х.264, 1280x534 (2,40:1), 24,000 fps, 6916 Кbps, 0.422 bit/pixelАудио: 48 kHz, AC3 Dolby Digital, 3/2 (L,C,R,l,r) + LFE ch, 640.00 kbps 4,37 Gb 9 1 16 февраля 2016 10:43 22 минуты (2014) BDRip от RG WazZzuP | Лицензия .torrent   [Информация о файле (нажмите для просмотра)] Перевод: Не требуетсяСубтитры: ОтсутствуютКачество: ВDRip(22.Minuti.2014.BDRemux.1080p.ExKinoRay)Формат: AVIВидео: 720x304 (2,35:1), 24 fps, XviD build 50 ~1116 kbps avg, 0.213 bit/pixelАудио: 48 kHz, MP3, 2/0 (L,R) ch, ~128 kbps 742,54 Mb 10 1 16 февраля 2016 10:43 22 минуты (2014) BDRip-AVC от RG WazZzuP | Лицензия .torrent   [Информация о файле (нажмите для просмотра)] Перевод: Не требуетсяСубтитры: ОтсутствуютКачество: ВDRip-AVC(22.Minuti.2014.BDRemux.1080p.ExKinoRay)Формат: MKVВидео: 720x300 (2,40:1), 24,000 fps, x264 ~ 1128 kbps avg, 0.218 bit/pixelАудио: 48 / 24,0 kHz, HE-AAC / LC, 2 ch, ~128 kbps avgВидео: Идентификатор : 1 Формат : AVC Формат/Информация : Advanced Video Codec Профиль формата : [email protected] Параметр CABAC формата : Да Параметр ReFrames формата : 11 кадров Идентификатор кодека : V_MPEG4/ISO/AVC Продолжительность : 1 ч. 22 м. Номинальный битрейт : 1128 Кбит/сек Ширина : 720 пикселей Высота : 300 пикселей Соотношение сторон : 2,40:1 Режим частоты кадров : Постоянный Частота кадров : 24,000 кадра/сек Цветовое пространство : YUV Субдискретизация насыщенности : 4:2:0 Битовая глубина : 8 бит Тип развёртки : Прогрессивная Бит/(Пиксели*Кадры) : 0.218 Заголовок : by Vovan1979(RG WazZzuP) Библиотека кодирования : x264 core 130 r2273 b3065e6 Настройки программы : cabac=1 / ref=11 / deblock=1:-1:-1 / analyse=0x3:0x113 / me=umh / subme=11 / psy=1 / psy_rd=1.00:0.15 / mixed_ref=1 / me_range=36 / chroma_me=1 / trellis=2 / 8x8dct=1 / cqm=0 / deadzone=21,11 / fast_pskip=1 / chroma_qp_offset=-3 / threads=6 / lookahead_threads=1 / sliced_threads=0 / nr=0 / decimate=1 / interlaced=0 / bluray_compat=0 / constrained_intra=0 / bframes=8 / b_pyramid=2 / b_adapt=2 / b_bias=0 / direct=3 / weightb=1 / open_gop=0 / weightp=2 / keyint=250 / keyint_min=23 / scenecut=40 / intra_refresh=0 / rc_lookahead=40 / rc=2pass / mbtree=1 / bitrate=1128 / ratetol=1.0 / qcomp=0.60 / qpmin=0 / qpmax=69 / qpstep=4 / cplxblur=20.0 / qblur=0.5 / ip_ratio=1.40 / aq=1:1.00 Default : Да Forced : НетАудио: Идентификатор : 2 Формат : AAC Формат/Информация : Advanced Audio Codec Профиль формата : HE-AAC / LC Идентификатор кодека : A_AAC Продолжительность : 1 ч. 22 м. Каналы : 2 канала Расположение каналов : Front: L R Частота : 48,0 КГц / 24,0 КГц Метод сжатия : С потерями Задержка видео : 31 мс. Заголовок : Лицензия.128 кбит/с Язык : Russian Default : Да Forced : Нет 738,42 Mb 5 5 16 февраля 2016 10:43 22 минуты (2014) BDRip 1080p от MediaClub | Лицензия .torrent   [Информация о файле (нажмите для просмотра)] Качество: BDRip 1080pВидео: MPEG-4 AVC, 10.0 Мбит/с, 1920x800, 24.000 кадр/сАудио #1: Русский ( DTS, 6 ch, 1509 Кбит/с)Аудио #2: Русский (AC3, 6 ch, 640 Кбит/с)Видео: Идентификатор : 1 Формат : AVC Формат/Информация : Advanced Video Codec Профиль формата : [email protected] Параметр CABAC формата : Да Параметр ReFrames формата : 5 кадров Идентификатор кодека : V_MPEG4/ISO/AVC Продолжительность : 1 ч. 22 м. Битрейт : 10000 Кбит/сек Ширина : 1920 пикселей Высота : 800 пикселей Соотношение сторон : 2,40:1 Режим частоты кадров : Постоянный Частота кадров : 24,000 кадра/сек Цветовое пространство : YUV Субдискретизация насыщенности : 4:2:0 Битовая глубина : 8 бит Тип развёртки : Прогрессивная Бит/(Пиксели*Кадры) : 0.271 Размер потока : 5,64 Гбайт (80%) Заголовок : -=MediaClub-kaspr=- Библиотека кодирования : x264 core 142 r2431+42 c69a006 tMod [[email protected]:2:0 X86_64] Настройки программы : cabac=1 / ref=5 / deblock=1:-3:-3 / analyse=0x3:0x113 / me=umh / subme=11 / psy=1 / fade_compensate=0.00 / psy_rd=1.00:0.20 / mixed_ref=1 / me_range=32 / chroma_me=1 / trellis=2 / 8x8dct=1 / cqm=0 / deadzone=21,11 / fast_pskip=0 / chroma_qp_offset=-3 / threads=12 / lookahead_threads=2 / sliced_threads=0 / nr=0 / decimate=0 / interlaced=0 / bluray_compat=0 / constrained_intra=0 / fgo=0 / bframes=8 / b_pyramid=2 / b_adapt=2 / b_bias=0 / direct=3 / weightb=1 / open_gop=0 / weightp=2 / keyint=240 / keyint_min=24 / scenecut=40 / intra_refresh=0 / rc=2pass / mbtree=0 / bitrate=10000 / ratetol=1.0 / qcomp=0.60 / qpmin=0:0:0 / qpmax=69:69:69 / qpstep=4 / cplxblur=20.0 / qblur=0.5 / ip_ratio=1.40 / pb_ratio=1.30 / aq=4:0.80 / aq-sensitivity=10.00 / aq-factor=1.00:1.00:1.00 / aq2=0 / aq3=0 Default : Да Forced : ДаАудио #1: Идентификатор : 2 Формат : DTS Формат/Информация : Digital Theater Systems Режим : 16 Параметр Endianness формата : Big Идентификатор кодека : A_DTS Продолжительность : 1 ч. 22 м. Вид битрейта : Постоянный Битрейт : 1509 Кбит/сек Каналы : 6 каналов Расположение каналов : Front: L C R, Side: L R, LFE Частота : 48,0 КГц Битовая глубина : 16 бит Метод сжатия : С потерями Размер потока : 894 Мбайт (12%) Заголовок : DTS Язык : Russian Default : Да Forced : ДаАудио #2: Идентификатор : 3 Формат : AC-3 Формат/Информация : Audio Coding 3 Расширение режима : CM (complete main) Параметр Endianness формата : Big Идентификатор кодека : A_AC3 Продолжительность : 1 ч. 22 м. Вид битрейта : Постоянный Битрейт : 640 Кбит/сек Каналы : 6 каналов Расположение каналов : Front: L C R, Side: L R, LFE Частота : 48,0 КГц Битовая глубина : 16 бит Метод сжатия : С потерями Размер потока : 379 Мбайт (5%) Заголовок : AC3 Язык : Russian Default : Нет Forced : Нет 7,03 Gb 114 4 16 февраля 2016 10:43 22 минуты (2014) HDRip-AVC от ExKinoRay | Лицензия .torrent   [Информация о файле (нажмите для просмотра)] Качество: HDRip (AVC)Видео: MPEG-4 AVC, 3122 Кбит/с, 1024x426Аудио: AC3, 6 ch, 448 Кбит/с 2,06 Gb 19 4 16 февраля 2016 10:43 22 минуты (2014) BDRemux 1080р от ExKinoRay .torrent   [Информация о файле (нажмите для просмотра)] Качество: Blu-Ray Remux (1080p)Видео: MPEG-4 AVC, 19966 Кбит/с, 1920x1080, 24 кадр/сАудио: AC3, 6 ch, 640 Кбит/с, DTS-HD MA 6 ch, 2263 Кбит/сВидео: Идентификатор : 1 Формат : AVC Формат/Информация : Advanced Video Codec Профиль формата : [email protected] Параметр CABAC формата : Да Параметр ReFrames формата : 4 кадра Идентификатор кодека : V_MPEG4/ISO/AVC Продолжительность : 1 ч. 22 м. Вид битрейта : Переменный Максимальный битрейт : 33,0 Мбит/сек Ширина : 1920 пикселей Высота : 1080 пикселей Соотношение сторон : 16:9 Режим частоты кадров : Постоянный Частота кадров : 24,000 кадра/сек Стандарт вещания : NTSC Цветовое пространство : YUV Субдискретизация насыщенности : 4:2:0 Битовая глубина : 8 бит Тип развёртки : Прогрессивная Язык : Russian Default : Да Forced : Нет Основные цвета : BT.709 Характеристики трансфера : BT.709 Коэффициенты матрицы : BT.709Аудио #1: Идентификатор : 2 Формат : AC-3 Формат/Информация : Audio Coding 3 Расширение режима : CM (complete main) Параметр Endianness формата : Big Идентификатор кодека : A_AC3 Продолжительность : 1 ч. 22 м. Вид битрейта : Постоянный Битрейт : 640 Кбит/сек Каналы : 6 каналов Расположение каналов : Front: L C R, Side: L R, LFE Частота : 48,0 КГц Битовая глубина : 16 бит Метод сжатия : С потерями Размер потока : 379 Мбайт (3%) Язык : Russian Default : Да Forced : НетАудио #2: Идентификатор : 3 Формат : DTS Формат/Информация : Digital Theater Systems Профиль формата : MA / Core Режим : 16 Параметр Endianness формата : Big Идентификатор кодека : A_DTS Продолжительность : 1 ч. 22 м. Вид битрейта : Переменный Битрейт : Неизвестно / 1509 Кбит/сек Каналы : 6 каналов Расположение каналов : Front: L C R, Side: L R, LFE Частота : 48,0 КГц Битовая глубина : 16 бит Метод сжатия : Без потерь / Lossy Язык : Russian Default : Нет Forced : Нет 13,23 Gb 20 9

gig-torrent.net

Скачать фильм 22 минуты через торрент в хорошем качестве бесплатно 2014 г.

Размер: 13.23 GB | Добавлен: 3 года 4 мес. назад | Торрент скачан:169 раз
Реклама Дарим 3000 рублей за регистрацию, не упусти свой шанс получить шикарный бонус!!!

22 минуты

Год выпуска: 2014Страна: РоссияЖанр: БоевикПродолжительность: 01:22:48Перевод: ОригиналСубтитры: Нет

Режиссер: Василий Сериков

В ролях: Макар Запорожский, Денис Никифоров, Виктор Сухоруков, Екатерина Маликова, Гаэль Камилинди, Александр Галибин, Владислав Дёмин, Ибрагим Тооре, Софья Козко, Иван Породнов

Описание: Морпех — первогодок Саня Ежов оказывается среди пиратов на захваченном танкере. Он знает — товарищи не бросят. Ему нужно выжить и помочь своим, когда начнется штурм. Фильм основан на реальных событиях 5 мая 2010 года, когда морские пехотинцы БПК «Маршал Шапошников» освободили захваченный в водах Аденского залива российский танкер «Московский университет». У них было только 22 минуты без права на ошибку…

Качество: BD-RemuxФормат: MKVВидео кодек: H.264Аудио кодек: AC3-DTSВидео: MPEG-4 AVC, (1920x1080),19966 Кбит/с, 24.000 кадра/секАудио#1: AC-3 6 ch,640 kbps (Rus) 48.0 KHz ОригиналАудио#2: DTS -6 ch, 1509 kbps (Rus) 48.0 KHz Оригинал

Тип потока: ВидеоДлительность: 01:22:48Кодек: AVCКодек/описание: Advanced Video CodecКодек/профиль: [email protected]Кодек/ID: V_MPEG4/ISO/AVCКодек/CABAC: YesКодек/ReFrames: 4 framesРазмеры изображения: 1920 x 1080 (16:9)Частота кадров: 24.000 fpsЧастота кадров/тип: ConstantБитрейт/макс: 33.0 MbpsБитрейт/тип: VBRСтандарт: NTSCЦветовое пространство: YUVТип развёртки: ProgressiveКолориметрия: 4:2:0Глубина: 8 bits: Тип потока: Звук #1Язык: RussianДлительность: 01:22:48.288Кодек: AC-3Кодек/описание: Audio Coding 3Кодек/ID: A_AC3Частота дискретизации: 48.0 KHzКаналов: 6 channelsБитрейт: 640 KbpsБитрейт/тип: ConstantРазмер потока: 379 MiB (3%)Глубина: 16 bitsМетод сжатия: Lossy: Тип потока: Звук #2Язык: RussianДлительность: 01:22:48.288Кодек: DTSКодек/описание: Digital Theater SystemsКодек/профиль: MA / CoreКодек/ID: A_DTSЧастота дискретизации: 48.0 KHzКаналов: 6 channelsБитрейт: Unknown / 1 509 KbpsБитрейт/тип: VariableГлубина: 16 bitsМетод сжатия: Lossless / Lossy

Скачать 22 минуты через торрент http://pic.pb.wtf/images/6/vzcwu.jpg Скачать фильм 22 минуты через торрент бесплантно в хорошем качестве Описание: Морпех — первогодок Саня Ежов оказывается среди пиратов на захваченном танкере. Он знает — товарищи не бросят. Ему нужно выжить и ... 2014-06-14 11:43 7.6 10 7

Loading...

Loading...

Рекламный пират

Фильм отстой полный!!!Историю взяли хорошую, но всё переговняли!

Дорогой пользователь! Огромная просьба, поблагодарите релизера, оцените раздачу и оставьте свои комментарий, если Вы скачали 22 минуты через торрент бесплатно! Внесите свою лепту в развитие PiratBit!

Комментировать посты могут только пользователи прошедшие не сложную регистрацию

22 минуты через торрент Скачать бесплатно 22 минуты 22 минуты скачать торрент 22 минуты смотреть онлайн Cкачать фильм 22 минуты бесплатно 22 минуты скачать торрент в хорошем качестве 22 минуты смотреть онлайн бесплатно в хорошем качестве

Вы можете начинать темыВы можете отвечать на сообщенияВы не можете редактировать свои сообщенияВы не можете удалять свои сообщенияВы не можете голосовать в опросахВы не можете прикреплять файлы к сообщениямВы можете скачивать файлы

piratbit.ru

Скачать фильм 22 минуты через торрент в хорошем качестве бесплатно BDRip-AVC

ОбщееУникальный идентификатор : 225035467428015096235077575136643180574 (0xA94C4128AC6E6F3F9AE524CC32D0E81E)Полное имя : 22.Minuty.2014.RUS.BDRip.x264.-HELLYWOOD.mkvФормат : MatroskaВерсия формата : Version 4 / Version 2Размер файла : 1,46 ГбайтПродолжительность : 1 ч. 22 м.Общий поток : 2519 Кбит/секНазвание фильма : HELLYWOOD - rip by potroksДата кодирования : UTC 2014-06-14 09:49:52Программа кодирования : mkvmerge v5.9.0 ('On The Loose') built on Dec 15 2012 16:39:58Библиотека кодирования : libebml v1.3.0 + libmatroska v1.4.0

ВидеоИдентификатор : 1Формат : AVCФормат/Информация : Advanced Video CodecПрофиль формата : [email protected]Параметр CABAC формата : ДаПараметр ReFrames формата : 12 кадровИдентификатор кодека : V_MPEG4/ISO/AVCПродолжительность : 1 ч. 22 м.Битрейт : 2077 Кбит/секШирина : 984 пикселяВысота : 410 пикселейСоотношение сторон : 2,40:1Режим частоты кадров : ПостоянныйЧастота кадров : 24,000 кадра/секЦветовое пространство : YUVСубдискретизация насыщенности : 4:2:0Битовая глубина : 8 битТип развёртки : ПрогрессивнаяБит/(Пиксели*Кадры) : 0.215Размер потока : 1,17 Гбайт (80%)Заголовок : 22 МинутыБиблиотека кодирования : x264 core 130 r2273 b3065e6Настройки программы : cabac=1 / ref=12 / deblock=1:-3:-3 / analyse=0x3:0x133 / me=umh / subme=11 / psy=1 / psy_rd=0.96:0.00 / mixed_ref=1 / me_range=48 / chroma_me=1 / trellis=2 / 8x8dct=1 / cqm=0 / deadzone=21,11 / fast_pskip=0 / chroma_qp_offset=-2 / threads=9 / lookahead_threads=6 / sliced_threads=0 / nr=0 / decimate=0 / interlaced=0 / bluray_compat=0 / constrained_intra=0 / bframes=13 / b_pyramid=2 / b_adapt=2 / b_bias=0 / direct=3 / weightb=1 / open_gop=0 / weightp=2 / keyint=250 / keyint_min=23 / scenecut=40 / intra_refresh=0 / rc_lookahead=60 / rc=2pass / mbtree=0 / bitrate=2077 / ratetol=1.0 / qcomp=0.70 / qpmin=0 / qpmax=69 / qpstep=4 / cplxblur=20.0 / qblur=0.5 / vbv_maxrate=20000 / vbv_bufsize=20000 / nal_hrd=none / ip_ratio=1.35 / pb_ratio=1.25 / aq=1:0.90Язык : RussianDefault : ДаForced : Нет

АудиоИдентификатор : 2Формат : AC-3Формат/Информация : Audio Coding 3Расширение режима : CM (complete main)Параметр Endianness формата : BigИдентификатор кодека : A_AC3Продолжительность : 1 ч. 22 м.Вид битрейта : ПостоянныйБитрейт : 448 Кбит/секКаналы : 6 каналовРасположение каналов : Front: L C R, Side: L R, LFEЧастота : 48,0 КГцБитовая глубина : 16 битМетод сжатия : С потерямиРазмер потока : 265 Мбайт (18%)Заголовок : DD 5.1 @ 448 kbpsЯзык : RussianDefault : ДаForced : Нет

Меню00:00:00.000 : en:(01)00:00:00:00000:00:04.000 : en:(02)00:00:04:00000:08:16.166 : en:(03)00:08:16:16600:19:07.791 : en:(04)00:19:07:79100:30:32.583 : en:(05)00:30:32:58300:39:31.166 : en:(06)00:39:31:16600:54:49.500 : en:(07)00:54:49:50001:01:45.375 : en:(08)01:01:45:37501:11:12.541 : en:(09)01:11:12:541

piratbit.ru

Скачать фильм 22 минуты через торрент в хорошем качестве бесплатно WEBRip

Размер: 1.37 GB | Добавлен: 3 года 5 мес. назад | Торрент скачан:11622 раза
Реклама Дарим 3000 рублей за регистрацию, не упусти свой шанс получить шикарный бонус!!!

22-05-2014 08:12 22 минуты Скачать торрент  

22 минуты«Своих не бросаем»
  • Год выпуска: 2013
  • Страна: Россия
  • Жанр: боевик
  • Продолжительность: 01:15:22
  • Перевод: Не требуется
  • Субтитры: Нет
  • Режиссер: Василий Сериков
  • В ролях: Макар Запорожский (Саня Ежов), Денис Никифоров, Виктор Сухоруков, Екатерина Маликова, Гаэль Камилинди, Александр Галибин, Владислав Демин, Ибрагим Тооре, Софья Козко, Иван Породнов, Сергей Апрельский, Владимир Благой
  • Описание: Морпех - первогодок Саня Ежов оказывается среди пиратов на захваченном танкере. Он знает - товарищи не бросят. Ему нужно выжить и помочь своим, когда начнется штурм. Фильм основан на реальных событиях 5 мая 2010 года, когда морские пехотинцы БПК «Маршал Шапошников» освободили захваченный в водах Аденского залива российский танкер «Московский университет». У них было только 22 минуты без права на ошибку...
  • Рейтингkinopoisk.ru: 6.925 (524)imdb.com: 5.60 (9)
  • Качество: WEBRip
  • Формат: AVI
  • Видео кодек: XviD
  • Аудио кодек: AC3
  • Видео: XviD, 720x400 (16:9), 2198 kbps, 25 fps, 0,305 bpp
  • Аудио: AC3 / 2.0 / 48 kHz / 384 kbps / 16 bit
  • Релиз от: ஐ-Best is the Best-ஐ GeneralComplete name : F:\22.Minuty.2014.O.WEBRip.aviFormat : AVIFormat/Info : Audio Video InterleaveFile size : 1.37 GiBDuration : 1h 15mnOverall bit rate : 2 592 KbpsWriting application : VirtualDubMod 1.5.10.3 | www.virtualdub-fr.org || (build 2550/release)Writing library : VirtualDubMod build 2550/release

    VideoID : 0Format : MPEG-4 VisualFormat profile : Advanced [email protected] settings, BVOP : 2Format settings, QPel : NoFormat settings, GMC : No warppointsFormat settings, Matrix : Default (H.263)Codec ID : XVIDCodec ID/Hint : XviDDuration : 1h 15mnBit rate : 2 199 KbpsWidth : 720 pixelsHeight : 400 pixelsDisplay aspect ratio : 16:9Frame rate : 25.000 fpsColor space : YUVChroma subsampling : 4:2:0Bit depth : 8 bitsScan type : ProgressiveCompression mode : LossyBits/(Pixel*Frame) : 0.305Stream size : 1.16 GiB (85%)Writing library : XviD 1.2.1 (UTC 2008-12-04)

    AudioID : 1Format : AC-3Format/Info : Audio Coding 3Mode extension : CM (complete main)Codec ID : 2000Duration : 1h 15mnBit rate mode : ConstantBit rate : 384 KbpsChannel(s) : 2 channelsChannel positions : Front: L RSampling rate : 48.0 KHzBit depth : 16 bitsCompression mode : LossyStream size : 207 MiB (15%)Alignment : Split accross interleavesInterleave, duration : 40 ms (1.00 video frame)Interleave, preload duration : 500 ms

    Скриншоты:
  • Скачать 22 минуты через торрент http://i62.fastpic.ru/big/2014/0522/fc/4349cc1e7e08ca77e07d4eab747475fc.jpg Скачать фильм 22 минуты через торрент бесплантно в хорошем качестве Описание: Морпех - первогодок Саня Ежов оказывается среди пиратов на захваченном танкере. Он знает - товарищи не бросят. Ему нужно выжить ... 2014-05-22 08:12 9.4 10 306

    Loading...

    Loading...

    Рекламный пират

    22-05-2014 08:46 22 минуты Скачать торрент  

    стоит потратить 01:15:22 на этот щедевор?

    22-05-2014 09:18 22 минуты Скачать торрент  

    Щазз поглядим.

    22-05-2014 14:59 22 минуты Скачать торрент  

    нормальный фильмец

    22-05-2014 19:34 22 минуты Скачать торрент  

    походу тут урезанная версия один фиг по тв растянут на сериал

    Насмешила фраза пирата музыканта : "хочу в тюрьму в России "

    :rofle: кино на 3 из 10-ти

    22-05-2014 21:42 22 минуты Скачать торрент  

    Если бы фильм шел 22 минуты, то я бы посмотрел =)) А так нет.

    23-05-2014 02:26 22 минуты Скачать торрент  

    каков в жизни (сладенький, аж приторно, слабенький, тепличный, губки банктиком)... и какой на экране - Мужик с большой буквы, брутальный, сильный уверенный!!!! только это фальшь картинка все меняет.

    23-05-2014 02:45 22 минуты Скачать торрент  

    фильм понравился) стоит чтобы посмотреть))

    23-05-2014 03:47 22 минуты Скачать торрент  

    да нормальный фильм, на твёрдую 4\1

    Pекламный агент PB

    23-05-2014 04:52 22 минуты Скачать торрент  

    uup писал(а):

    да нормальный фильм, на твёрдую 4\1По 10-ти больной шкале?

    23-05-2014 05:07 22 минуты Скачать торрент  

    Оккупай кинофиляй!

    23-05-2014 11:04 22 минуты Скачать торрент  

    23-05-2014 11:52 22 минуты Скачать торрент  

    BDRip ожидаеццо?

    23-05-2014 14:26 22 минуты Скачать торрент  

    Блин сняли и сняли ну что вы отбиваете интерес посомтреть все и так без вас знаю что российские фильмы ну как то неочень потому что на них неочень много тратиться бюджета из за нехороших чиновников

    23-05-2014 17:38 22 минуты Скачать торрент  

    MEXAHUK66, Что-бы к твоей рецензии относились, более менее достойно, надо ходя бы одну запятую зарандомить.

    23-05-2014 18:04 22 минуты Скачать торрент  

    10 за патриотичность...На разок, как уже писали...Театрализованно,скомкано и не захватывающе...Ну, что то подобное, только более эффектно уже пора снимать,америкастня слюнявая за долбала...Концовку могли бы РАШЕН песней завершить...........

    23-05-2014 19:52 22 минуты Скачать торрент  

    Фильм супер качаем!!

    Pекламный агент PB

    23-05-2014 20:05 22 минуты Скачать торрент  

    WISE писал(а):

    Концовку могли бы РАШЕН песней завершить...........

    23-05-2014 20:25 22 минуты Скачать торрент  

    И снова русский фильмец и снова думай ,качай не качай! И так как за последние года два три скачиваний отечественных фильмов, всегда после просмотра блевал,вывод -качать не буду!

    23-05-2014 20:37 22 минуты Скачать торрент  

    нормальный фильм, смотреть можно

    23-05-2014 23:44 22 минуты Скачать торрент  

    Ради Сухорукого стоит посматреть)

    24-05-2014 02:45 22 минуты Скачать торрент  

    Фильм хороший! Ассоциации были с советским фильмом-пираты двадцатого века.Или наш ответ на -капитана Филлипса. ) Смотрится довольно легко, без постоянного желания перемотать/выключить.

    24-05-2014 08:14 22 минуты Скачать торрент  

    readernic писал(а):

    Фильм хороший! Ассоциации были с советским фильмом-пираты двадцатого века.Или наш ответ на -капитана Филлипса. ) Смотрится довольно легко, без постоянного желания перемотать/выключить.

    слабо против Филипса а на с Пиратами 20-го века и сравнивать нечего даже.Как по мне посредственно снято,местами наивно даже

    24-05-2014 08:39 22 минуты Скачать торрент  

    Нормальное кино. Может не шедевр мирового кинематографа, но посмотреть очень даже можно.ИМХО.

    24-05-2014 10:10 22 минуты Скачать торрент  

    спасибо за фильм, молодцы!!! НАКОНЕЦ ТО ХОРОШЕЕ КИНО СТАЛИ СНИМАТЬ)

    Pекламный агент PB

    Дорогой пользователь! Огромная просьба, поблагодарите релизера, оцените раздачу и оставьте свои комментарий, если Вы скачали 22 минуты через торрент бесплатно! Внесите свою лепту в развитие PiratBit!

    Комментировать посты могут только пользователи прошедшие не сложную регистрацию

    22 минуты через торрент Скачать бесплатно 22 минуты 22 минуты скачать торрент 22 минуты смотреть онлайн Cкачать фильм 22 минуты бесплатно 22 минуты скачать торрент в хорошем качестве 22 минуты смотреть онлайн бесплатно в хорошем качестве

    Вы можете начинать темыВы можете отвечать на сообщенияВы не можете редактировать свои сообщенияВы не можете удалять свои сообщенияВы не можете голосовать в опросахВы не можете прикреплять файлы к сообщениямВы можете скачивать файлы

    piratbit.ru


    Смотрите также